Скачать через торрент музыку Lock, Stock & Two Smoking Barrels Карты, деньги, два ствола бесплатно без регистрации torrent

Если у вас наблюдаются проблемы со скриншотами, переходом по ссылками, скачиванием торрентов - проблемы в блокировщике рекламы AdBlock. #хорошегоДня!


Статистика раздачи
Размер:  427 MB   |    Зарегистрирован:  6 лет 11 месяцев   |    .torrent скачан:  72 раза   |   
Раздают:  1  
   
Загрузка...
 
Автор Сообщение

AqvaGen


Lock, Stock & Two Smoking Barrels (Japan Edition)

Жанр: Soundtrack
Год выпуска диска: 1999
Производитель диска: Japan/Mercury
Аудио кодек: FLAC
Тип рипа: image+.cue
Битрейт аудио: lossless
Продолжительность: 63:04
Трэклист:
1 Ocean Colour Scene Hundred Mile High City
2 No Artist It's A Deal, It's A Steal
3 James Brown The Boss
4 Skanga Truly, Madly, Deeply
5 No Artist Hortif**kinculturist
6 Junior Murvin Police And Thieves
7 Lewis Taylor & Carleen Anderson 18 With A Bullet
8 Dusty Springfield Spooky
9 John Murphy & David Hughes The Game
10 No Artist Muppets
11 Robbie Williams Man Machine
12 E-Z Rollers Walk This Land
13 No Artist Blaspheming Barry
14 Stooges, The I Wanna Be Your Dog
15 No Artist It's Kosher
16 Castaways, The Liar Liar
17 No Artist I've Been Shot
18 Stretch Why Did You Do It
19 No Artist Guns 4 Show Knives 4 A Pro
20 Evil Superstars Oh Girl
21 John Murphy & David Hughes If The Milk Turns Sour
22 John Murphy & David Hughes Zorba The Greek
23 John Murphy & David Hughes I'll Kill Ya
24 James Brown The Payback
25 Stone Roses, The Fools Gold
26 No Artist It's Been Emotional
27 Pete Wingfield 18 With A Bullet
 
Доп. информация: Exact Audio Copy V0.99 prebeta 5 from 4. May 2009

EAC extraction logfile from 27. July 2009, 18:05

Various / Lock, Stock & Two Smoking Barrels

Used drive : _NEC DVD_RW ND-4570A Adapter: 1 ID: 0

Read mode : SecureUtilize accurate stream : YesDefeat audio cache : YesMake use of C2 pointers : No

Read offset correction : 48Overread into Lead-In and Lead-Out : NoFill up missing offset samples with silence : YesDelete leading and trailing silent blocks : NoNull samples used in CRC calculations : YesUsed interface : Native Win32 interface for Win NT & 2000

Used output format : User Defined EncoderSelected bitrate : 1024 kBit/sQuality : HighAdd ID3 tag : NoCommand line compressor : C:\Program Files\Exact Audio Copy\FLAC\FLAC.EXEAdditional command line options : -6 -V -T "ARTIST=%a" -T "TITLE=%t" -T "ALBUM=%g" -T "DATE=%y" -T "TRACKNUMBER=%n" -T "GENRE=%m" -T "COMMENT=%e" %s -o %d

TOC of the extracted CD

Track | Start | Length | Start sector | End sector --------------------------------------------------------- 1 | 0:00.00 | 3:56.07 | 0 | 17706 2 | 3:56.07 | 0:46.03 | 17707 | 21159 3 | 4:42.10 | 3:11.42 | 21160 | 35526 4 | 7:53.52 | 3:16.08 | 35527 | 50234 5 | 11:09.60 | 0:14.10 | 50235 | 51294 6 | 11:23.70 | 3:59.72 | 51295 | 69291 7 | 15:23.67 | 3:23.13 | 69292 | 84529 8 | 18:47.05 | 2:35.62 | 84530 | 96216 9 | 21:22.67 | 0:55.25 | 96217 | 100366 10 | 22:18.17 | 0:18.23 | 100367 | 101739 11 | 22:36.40 | 3:32.25 | 101740 | 117664 12 | 26:08.65 | 3:50.17 | 117665 | 134931 13 | 29:59.07 | 0:05.20 | 134932 | 135326 14 | 30:04.27 | 3:05.08 | 135327 | 149209 15 | 33:09.35 | 0:55.37 | 149210 | 153371 16 | 34:04.72 | 1:51.60 | 153372 | 161756 17 | 35:56.57 | 0:06.28 | 161757 | 162234 18 | 36:03.10 | 3:29.10 | 162235 | 177919 19 | 39:32.20 | 0:21.67 | 177920 | 179561 20 | 39:54.12 | 2:44.68 | 179562 | 191929 21 | 42:39.05 | 0:47.25 | 191930 | 195479 22 | 43:26.30 | 2:56.15 | 195480 | 208694 23 | 46:22.45 | 0:42.00 | 208695 | 211844 24 | 47:04.45 | 7:27.40 | 211845 | 245409 25 | 54:32.10 | 4:12.60 | 245410 | 264369 26 | 58:44.70 | 0:04.15 | 264370 | 264684 27 | 58:49.10 | 4:14.05 | 264685 | 283739

Range status and errors

Selected range

Filename E:\раздача\Lock, Stock & Two Smoking Barrels\Various - Lock, Stock & Two Smoking Barrels.wav

Peak level 100.0 % Range quality 99.9 % Test CRC DEA33022 Copy CRC DEA33022 Copy OK

No errors occurred

AccurateRip summary

Track 1 not present in databaseTrack 2 not present in databaseTrack 3 not present in databaseTrack 4 not present in databaseTrack 5 not present in databaseTrack 6 not present in databaseTrack 7 not present in databaseTrack 8 not present in databaseTrack 9 not present in databaseTrack 10 not present in databaseTrack 11 not present in databaseTrack 12 not present in databaseTrack 13 not present in databaseTrack 14 not present in databaseTrack 15 not present in databaseTrack 16 not present in databaseTrack 17 not present in databaseTrack 18 not present in databaseTrack 19 not present in databaseTrack 20 not present in databaseTrack 21 not present in databaseTrack 22 not present in databaseTrack 23 not present in databaseTrack 24 not present in databaseTrack 25 not present in databaseTrack 26 not present in databaseTrack 27 not present in database

None of the tracks are present in the AccurateRip database

End of status report


Трекер:  [ 11-Янв-2011 14:42 ]

  

Скачать .torrent

Размер .torrent файла 18 KB


Размер: 427 MB
Хэш (hash) релиза: fb7394e8e94a4f40df5dde0c1a19d1758fbfd48d

Торренты, похожие на Lock, Stock & Two Smoking Barrels Карты, деньги, два ствола скачать торрент

Форум Название Автор Размер S L Добавлен
Собственные оцифровки ·· (Soundtrack) Lock, Stock And Two Smoking Barrels (Карты, деньги и два ствола) OST - 1998 [LP][24/96] FLAC Hard Gamer 13741410771.28 GB 0 0 1297584593

11:09

13-Фев-11

Саундтреки к фильмам и мультфильмам (mp3) ·· (OST) Карты, деньги и два ствола / Lock, Stock & Two Smoking Barrels - 1998, MP3, CBR 320 kbps Phoenix 151446372144 MB 0 0 1297059767

09:22

7-Фев-11

Саундтреки к фильмам и мультфильмам (mp3) ·· (Soundtrack) Карты, деньги, два ствола / Lock, Stock & Two Smoking Barrels - 1998, MP3 (tracks), 320 kbps Mos 151422168144 MB 0 0 1291093029

07:57

30-Ноя-10

bot

Топик был перенесен в форум Саундтреки к фильмам и мультфильмам (lossless)

Перенес AqvaGen

Хотите добавить комментарий к записи скачать торрент Lock, Stock & Two Smoking Barrels Карты, деньги, два ствола

!Обратная связь