Скачать через торрент музыку Музыка из телесериала «Спрут» бесплатно без регистрации torrent

Если у вас наблюдаются проблемы со скриншотами, переходом по ссылками, скачиванием торрентов - проблемы в блокировщике рекламы AdBlock. #хорошегоДня!


Статистика раздачи
Размер:  393 MB   |    Зарегистрирован:  6 лет 11 месяцев   |    .torrent скачан:  159 раз   |   
Раздают:  1  
   
Загрузка...
 
Автор Сообщение

AqvaGen


Музыка из телесериала «Спрут» (Эннио Морриконе)

Жанр: Score
Год выпуска диска: 2005
Производитель диска: Россия
Аудио кодек: FLAC
Тип рипа: tracks+.cue
Битрейт аудио: lossless
Продолжительность: 01:13:51

Трэклист:
01. Спрут (главная тема)
02. Тысячеголосое эхо
03. Предчувствие любви
04. В ловушке
05. Грустная мелодия сумерек
06. Арест
07. Путаница подозрений
08. Мораль
09. Справедливое возмездие
10. Эстер
11. Камнепад
12. Близость
13. Шантаж
14. Странная девочка
15. Воспоминания детства
16. Ночь над городом
17. Безнравственная мораль
18. Ради Анны
19. Сердце, которое во мне
20. Оглушающая тишина
 
Exact Audio Copy V0.99 prebeta 5 from 4. May 2009

EAC extraction logfile from 27. April 2010, 15:23

Эннио Морриконе / Музыка из телесериала "Спрут"

Used drive : SlimtypeDVD A DS8A1P Adapter: 1 ID: 0

Read mode : SecureUtilize accurate stream : YesDefeat audio cache : YesMake use of C2 pointers : No

Read offset correction : 594Overread into Lead-In and Lead-Out : NoFill up missing offset samples with silence : YesDelete leading and trailing silent blocks : NoNull samples used in CRC calculations : YesUsed interface : Native Win32 interface for Win NT & 2000Gap handling : Appended to previous track

Used output format : User Defined EncoderSelected bitrate : 192 kBit/sQuality : HighAdd ID3 tag : NoCommand line compressor : C:\Program Files\FLAC\flac.exeAdditional command line options : -V -5 -T "ARTIST=%a" -T "TITLE=%t" -T "ALBUM=%g" -T "DATE=%y" -T "TRACKNUMBER=%n" -T "GENRE=%m" -T "COMMENT=Exact Audio Copy V0.99 prebeta 5, flac.exe -V -5" %s

TOC of the extracted CD

Track | Start | Length | Start sector | End sector --------------------------------------------------------- 1 | 0:00.00 | 1:50.62 | 0 | 8311 2 | 1:50.62 | 3:23.55 | 8312 | 23591 3 | 5:14.42 | 5:11.63 | 23592 | 46979 4 | 10:26.30 | 5:08.13 | 46980 | 70092 5 | 15:34.43 | 3:54.10 | 70093 | 87652 6 | 19:28.53 | 2:36.46 | 87653 | 99398 7 | 22:05.24 | 5:08.02 | 99399 | 122500 8 | 27:13.26 | 2:11.00 | 122501 | 132325 9 | 29:24.26 | 4:14.57 | 132326 | 151432 10 | 33:39.08 | 4:03.42 | 151433 | 169699 11 | 37:42.50 | 3:21.66 | 169700 | 184840 12 | 41:04.41 | 3:19.56 | 184841 | 199821 13 | 44:24.22 | 3:04.46 | 199822 | 213667 14 | 47:28.68 | 3:56.26 | 213668 | 231393 15 | 51:25.19 | 2:14.12 | 231394 | 241455 16 | 53:39.31 | 4:53.27 | 241456 | 263457 17 | 58:32.58 | 4:31.42 | 263458 | 283824 18 | 63:04.25 | 2:28.54 | 283825 | 294978 19 | 65:33.04 | 4:59.12 | 294979 | 317415 20 | 70:32.16 | 3:28.35 | 317416 | 333050

Track 1

Filename D:\Music\Exact Audio Copy\Эннио Морриконе - 2005 Музыка из телесериала 'Спрут'\01 Спрут (главная тема).wav

Pre-gap length 0:00:02.00

Peak level 79.3 % Track quality 100.0 % Test CRC D4F95AFB Copy CRC D4F95AFB Track not present in AccurateRip database Copy OK

Track 2

Filename D:\Music\Exact Audio Copy\Эннио Морриконе - 2005 Музыка из телесериала 'Спрут'\02 Тысячеголосое эхо.wav

Peak level 83.3 % Track quality 100.0 % Test CRC E2A64CB4 Copy CRC E2A64CB4 Track not present in AccurateRip database Copy OK

Track 3

Filename D:\Music\Exact Audio Copy\Эннио Морриконе - 2005 Музыка из телесериала 'Спрут'\03 Предчувствие любви.wav

Peak level 86.2 % Track quality 100.0 % Test CRC 271BC916 Copy CRC 271BC916 Track not present in AccurateRip database Copy OK

Track 4

Filename D:\Music\Exact Audio Copy\Эннио Морриконе - 2005 Музыка из телесериала 'Спрут'\04 В ловушке.wav

Peak level 89.7 % Track quality 100.0 % Test CRC 18A9D3A7 Copy CRC 18A9D3A7 Track not present in AccurateRip database Copy OK

Track 5

Filename D:\Music\Exact Audio Copy\Эннио Морриконе - 2005 Музыка из телесериала 'Спрут'\05 Грустная мелодия сумерек.wav

Peak level 84.6 % Track quality 100.0 % Test CRC 1015F37E Copy CRC 1015F37E Track not present in AccurateRip database Copy OK

Track 6

Filename D:\Music\Exact Audio Copy\Эннио Морриконе - 2005 Музыка из телесериала 'Спрут'\06 Арест.wav

Peak level 88.8 % Track quality 100.0 % Test CRC 5D10BA58 Copy CRC 5D10BA58 Track not present in AccurateRip database Copy OK

Track 7

Filename D:\Music\Exact Audio Copy\Эннио Морриконе - 2005 Музыка из телесериала 'Спрут'\07 Путаница подозрений.wav

Peak level 77.0 % Track quality 100.0 % Test CRC 024F1870 Copy CRC 024F1870 Track not present in AccurateRip database Copy OK

Track 8

Filename D:\Music\Exact Audio Copy\Эннио Морриконе - 2005 Музыка из телесериала 'Спрут'\08 Мораль.wav

Peak level 74.3 % Track quality 100.0 % Test CRC 9BB13B4D Copy CRC 9BB13B4D Track not present in AccurateRip database Copy OK

Track 9

Filename D:\Music\Exact Audio Copy\Эннио Морриконе - 2005 Музыка из телесериала 'Спрут'\09 Справедливое возмездие.wav

Peak level 84.8 % Track quality 100.0 % Test CRC 9D12D6F9 Copy CRC 9D12D6F9 Track not present in AccurateRip database Copy OK

Track 10

Filename D:\Music\Exact Audio Copy\Эннио Морриконе - 2005 Музыка из телесериала 'Спрут'\10 Эстер.wav

Peak level 77.3 % Track quality 100.0 % Test CRC 6CDAB7DC Copy CRC 6CDAB7DC Track not present in AccurateRip database Copy OK

Track 11

Filename D:\Music\Exact Audio Copy\Эннио Морриконе - 2005 Музыка из телесериала 'Спрут'\11 Камнепад.wav

Peak level 60.2 % Track quality 99.9 % Test CRC 3657E22A Copy CRC 3657E22A Track not present in AccurateRip database Copy OK

Track 12

Filename D:\Music\Exact Audio Copy\Эннио Морриконе - 2005 Музыка из телесериала 'Спрут'\12 Близость.wav

Peak level 74.1 % Track quality 100.0 % Test CRC 0B7BA10E Copy CRC 0B7BA10E Track not present in AccurateRip database Copy OK

Track 13

Filename D:\Music\Exact Audio Copy\Эннио Морриконе - 2005 Музыка из телесериала 'Спрут'\13 Шантаж.wav

Peak level 100.0 % Track quality 99.9 % Test CRC F8120546 Copy CRC F8120546 Track not present in AccurateRip database Copy OK

Track 14

Filename D:\Music\Exact Audio Copy\Эннио Морриконе - 2005 Музыка из телесериала 'Спрут'\14 Странная девочка.wav

Peak level 65.3 % Track quality 100.0 % Test CRC 278B982C Copy CRC 278B982C Track not present in AccurateRip database Copy OK

Track 15

Filename D:\Music\Exact Audio Copy\Эннио Морриконе - 2005 Музыка из телесериала 'Спрут'\15 Воспоминания детства.wav

Peak level 59.9 % Track quality 99.9 % Test CRC 4CF3816E Copy CRC 4CF3816E Track not present in AccurateRip database Copy OK

Track 16

Filename D:\Music\Exact Audio Copy\Эннио Морриконе - 2005 Музыка из телесериала 'Спрут'\16 Ночь над городом.wav

Peak level 92.5 % Track quality 100.0 % Test CRC B02AB8D2 Copy CRC B02AB8D2 Track not present in AccurateRip database Copy OK

Track 17

Filename D:\Music\Exact Audio Copy\Эннио Морриконе - 2005 Музыка из телесериала 'Спрут'\17 Безнравственная мораль.wav

Peak level 87.2 % Track quality 100.0 % Test CRC 441AE21A Copy CRC 441AE21A Track not present in AccurateRip database Copy OK

Track 18

Filename D:\Music\Exact Audio Copy\Эннио Морриконе - 2005 Музыка из телесериала 'Спрут'\18 Ради Анны.wav

Peak level 98.6 % Track quality 100.0 % Test CRC 279CBBCA Copy CRC 279CBBCA Track not present in AccurateRip database Copy OK

Track 19

Filename D:\Music\Exact Audio Copy\Эннио Морриконе - 2005 Музыка из телесериала 'Спрут'\19 Сердце, которое во мне.wav

Peak level 76.4 % Track quality 100.0 % Test CRC 5C4AC7C4 Copy CRC 5C4AC7C4 Track not present in AccurateRip database Copy OK

Track 20

Filename D:\Music\Exact Audio Copy\Эннио Морриконе - 2005 Музыка из телесериала 'Спрут'\20 Оглушающая тишина.wav

Peak level 86.9 % Track quality 100.0 % Test CRC 57B8D05F Copy CRC 57B8D05F Track not present in AccurateRip database Copy OK

None of the tracks are present in the AccurateRip database

No errors occurred

End of status report
 
REM GENRE SoundtrackREM DATE 2005REM DISCID 14115814REM COMMENT "ExactAudioCopy v0.99pb5"CATALOG 2001000236007PERFORMER "Эннио Морриконе"TITLE "Музыка из телесериала 'Спрут'"FILE "01 Спрут (главная тема).wav" WAVE TRACK 01 AUDIO TITLE "Спрут (главная тема)" PERFORMER "Эннио Морриконе" FLAGS DCP INDEX 01 00:00:00FILE "02 Тысячеголосое эхо.wav" WAVE TRACK 02 AUDIO TITLE "Тысячеголосое эхо" PERFORMER "Эннио Морриконе" FLAGS DCP INDEX 01 00:00:00FILE "03 Предчувствие любви.wav" WAVE TRACK 03 AUDIO TITLE "Предчувствие любви" PERFORMER "Эннио Морриконе" FLAGS DCP INDEX 01 00:00:00FILE "04 В ловушке.wav" WAVE TRACK 04 AUDIO TITLE "В ловушке" PERFORMER "Эннио Морриконе" FLAGS DCP INDEX 01 00:00:00FILE "05 Грустная мелодия сумерек.wav" WAVE TRACK 05 AUDIO TITLE "Грустная мелодия сумерек" PERFORMER "Эннио Морриконе" FLAGS DCP INDEX 01 00:00:00FILE "06 Арест.wav" WAVE TRACK 06 AUDIO TITLE "Арест" PERFORMER "Эннио Морриконе" FLAGS DCP INDEX 01 00:00:00FILE "07 Путаница подозрений.wav" WAVE TRACK 07 AUDIO TITLE "Путаница подозрений" PERFORMER "Эннио Морриконе" FLAGS DCP INDEX 01 00:00:00FILE "08 Мораль.wav" WAVE TRACK 08 AUDIO TITLE "Мораль" PERFORMER "Эннио Морриконе" FLAGS DCP INDEX 01 00:00:00FILE "09 Справедливое возмездие.wav" WAVE TRACK 09 AUDIO TITLE "Справедливое возмездие" PERFORMER "Эннио Морриконе" FLAGS DCP INDEX 01 00:00:00FILE "10 Эстер.wav" WAVE TRACK 10 AUDIO TITLE "Эстер" PERFORMER "Эннио Морриконе" FLAGS DCP INDEX 01 00:00:00FILE "11 Камнепад.wav" WAVE TRACK 11 AUDIO TITLE "Камнепад" PERFORMER "Эннио Морриконе" FLAGS DCP INDEX 01 00:00:00FILE "12 Близость.wav" WAVE TRACK 12 AUDIO TITLE "Близость" PERFORMER "Эннио Морриконе" FLAGS DCP INDEX 01 00:00:00FILE "13 Шантаж.wav" WAVE TRACK 13 AUDIO TITLE "Шантаж" PERFORMER "Эннио Морриконе" FLAGS DCP INDEX 01 00:00:00FILE "14 Странная девочка.wav" WAVE TRACK 14 AUDIO TITLE "Странная девочка" PERFORMER "Эннио Морриконе" FLAGS DCP INDEX 01 00:00:00FILE "15 Воспоминания детства.wav" WAVE TRACK 15 AUDIO TITLE "Воспоминания детства" PERFORMER "Эннио Морриконе" FLAGS DCP INDEX 01 00:00:00FILE "16 Ночь над городом.wav" WAVE TRACK 16 AUDIO TITLE "Ночь над городом" PERFORMER "Эннио Морриконе" FLAGS DCP INDEX 01 00:00:00FILE "17 Безнравственная мораль.wav" WAVE TRACK 17 AUDIO TITLE "Безнравственная мораль" PERFORMER "Эннио Морриконе" FLAGS DCP INDEX 01 00:00:00FILE "18 Ради Анны.wav" WAVE TRACK 18 AUDIO TITLE "Ради Анны" PERFORMER "Эннио Морриконе" FLAGS DCP INDEX 01 00:00:00FILE "19 Сердце, которое во мне.wav" WAVE TRACK 19 AUDIO TITLE "Сердце, которое во мне" PERFORMER "Эннио Морриконе" FLAGS DCP INDEX 01 00:00:00FILE "20 Оглушающая тишина.wav" WAVE TRACK 20 AUDIO TITLE "Оглушающая тишина" PERFORMER "Эннио Морриконе" FLAGS DCP INDEX 01 00:00:00


Трекер:  [ 20-Дек-2010 15:24 ]

  

Скачать .torrent

Размер .torrent файла 17 KB


Размер: 393 MB
Хэш (hash) релиза: 8ac90f3ca0b43ff8cf914159f29f91ce0ad96d02

bot

Топик был перенесен в форум Саундтреки к фильмам и мультфильмам (lossless)

Перенес AqvaGen

Хотите добавить комментарий к записи скачать торрент Музыка из телесериала «Спрут»

!Обратная связь