Скачать через торрент музыку Charlie Clouser & VA - Resident Evil Extinction OST - Обитель Зла 3 Вымирание - 2007, FLAC бесплатно без регистрации torrent

Если у вас наблюдаются проблемы со скриншотами, переходом по ссылками, скачиванием торрентов - проблемы в блокировщике рекламы AdBlock. #хорошегоДня!


Статистика раздачи
Размер:  558 MB   |    Зарегистрирован:  6 лет 11 месяцев   |    .torrent скачан:  76 раз   |   
Раздают:  1  
   
Загрузка...
 
Автор Сообщение

AqvaGen


Resident Evil Extinction (Original Motion Picture Soundtrack)

Жанр: Soundtrack
Год выпуска диска: 2007
Производитель диска: USA
Аудио кодек: FLAC
Тип рипа: tracks+.cue
Битрейт аудио: lossless
Продолжительность: 1:14:00.053 (195806352 samples)
Трэклист:
01. Charlie Clouser - Main Title (0:51)
02. Shadows Fall - Stupid Crazy (4:42)
03. Flyleaf vs. The Legion of Doom - I'm So Sick (T-Virus Remix) (3:23)
04. Emigrate - My World (4:20)
05. Bayside - Duality (Project Alice String Remix) (3:04)
06. Charlie Clouser - Losing (1:22)
07. Aiden vs. The Legion Of Doom - One Love (Extinction Remix) (4:04)
08. Fightstar - Deathcar (4:00)
09. Throwdown - I, Suicide (3:38)
10. Collide - White Rabbit (SPC ECO Mix) (4:44)
11. Chimaira - Paralyzed (3:09)
12. Charlie Clouser - Laser Tunnel (0:30)
13. The Bled - Asleep On the Frontlines (Appliantz Remix) (5:35)
14. City Sleeps - Catch Me (3:24)
15. Searchlight - Contagious (4:20)
16. Emanuel - Scenotaph (DJA Infected Remix) (4:19)
17. It Dies Today - Sixth Of June (3:06)
18. Poison The Well - Wrecking Itself Taking You With Me (3:24)
19. Charlie Clouser - Convoy (0:46)
20. Overkill - Devils In The Mist (4:37)
21. Neurosonic - So Many People (2:45)
22. Nightwish - Amaranth (3:57)

Дополнительно: All tracks accurately ripped
Exact Audio Copy V0.99 prebeta 4 from 23. January 2008

EAC extraction logfile from 12. January 2009, 0:41

Various / Resident Evil: Extinction (Original Motion Picture Soundtrack) [European Edition]

Used drive : LITE-ON LTR-52327S Adapter: 0 ID: 0

Read mode : Secure
Utilize accurate stream : Yes
Defeat audio cache : Yes
Make use of C2 pointers : No

Read offset correction : 6
Overread into Lead-In and Lead-Out : No
Fill up missing offset samples with silence : Yes
Delete leading and trailing silent blocks : No
Null samples used in CRC calculations : Yes
Used interface : Native Win32 interface for Win NT & 2000
Gap handling : Appended to previous track

Used output format : User Defined Encoder
Selected bitrate : 320 kBit/s
Quality : High
Add ID3 tag : No
Command line compressor : C:\Program Files\FLAC\flac.exe
Additional command line options : -V -8 -T "artist=%a" -T "title=%t" -T "album=%g" -T "date=%y" -T "tracknumber=%n" -T "genre=%m" %s

TOC of the extracted CD

Track | Start | Length | Start sector | End sector
---------------------------------------------------------
1 | 0:00.00 | 0:51.30 | 0 | 3854
2 | 0:51.30 | 4:42.34 | 3855 | 25038
3 | 5:33.64 | 3:23.22 | 25039 | 40285
4 | 8:57.11 | 4:19.38 | 40286 | 59748
5 | 13:16.49 | 3:03.61 | 59749 | 73534
6 | 16:20.35 | 1:21.54 | 73535 | 79663
7 | 17:42.14 | 4:03.73 | 79664 | 97961
8 | 21:46.12 | 4:00.07 | 97962 | 115968
9 | 25:46.19 | 3:38.20 | 115969 | 132338
10 | 29:24.39 | 4:44.05 | 132339 | 153643
11 | 34:08.44 | 3:09.01 | 153644 | 167819
12 | 37:17.45 | 0:29.52 | 167820 | 170046
13 | 37:47.22 | 5:35.29 | 170047 | 195200
14 | 43:22.51 | 3:23.56 | 195201 | 210481
15 | 46:46.32 | 4:20.04 | 210482 | 229985
16 | 51:06.36 | 4:18.55 | 229986 | 249390
17 | 55:25.16 | 3:06.18 | 249391 | 263358
18 | 58:31.34 | 3:23.69 | 263359 | 278652
19 | 61:55.28 | 0:45.54 | 278653 | 282081
20 | 62:41.07 | 4:36.66 | 282082 | 302847
21 | 67:17.73 | 2:44.54 | 302848 | 315201
22 | 70:02.52 | 3:57.27 | 315202 | 333003

Track 1

Filename G:\EAC Ripping\Various - Resident Evil- Extinction (Original Motion Picture Soundtrack) [European Edition]\01 - Charlie Clouser - Main Title.wav

Pre-gap length 0:00:02.00

Peak level 100.0 %
Track quality 100.0 %
Test CRC 8078E7F6
Copy CRC 8078E7F6
Accurately ripped (confidence 4) [50E45491]
Copy OK

Track 2

Filename G:\EAC Ripping\Various - Resident Evil- Extinction (Original Motion Picture Soundtrack) [European Edition]\02 - Shadows Fall - Stupid Crazy.wav

Pre-gap length 0:00:02.00

Peak level 89.2 %
Track quality 100.0 %
Test CRC E0E6B127
Copy CRC E0E6B127
Accurately ripped (confidence 4) [638FE421]
Copy OK

Track 3

Filename G:\EAC Ripping\Various - Resident Evil- Extinction (Original Motion Picture Soundtrack) [European Edition]\03 - Flyleaf vs. The Legion Of Doom - I'm So Sick (T-Virus Remix).wav

Pre-gap length 0:00:02.00

Peak level 100.0 %
Track quality 100.0 %
Test CRC 43D2670E
Copy CRC 43D2670E
Accurately ripped (confidence 4) [E414448C]
Copy OK

Track 4

Filename G:\EAC Ripping\Various - Resident Evil- Extinction (Original Motion Picture Soundtrack) [European Edition]\04 - Emigrate - My World.wav

Pre-gap length 0:00:02.00

Peak level 92.3 %
Track quality 100.0 %
Test CRC 615763FC
Copy CRC 615763FC
Accurately ripped (confidence 4) [D50B6FA9]
Copy OK

Track 5

Filename G:\EAC Ripping\Various - Resident Evil- Extinction (Original Motion Picture Soundtrack) [European Edition]\05 - Bayside - Duality (Project Alice String Remix).wav

Pre-gap length 0:00:02.00

Peak level 100.0 %
Track quality 100.0 %
Test CRC 6E6D36EC
Copy CRC 6E6D36EC
Accurately ripped (confidence 4) [B26AC743]
Copy OK

Track 6

Filename G:\EAC Ripping\Various - Resident Evil- Extinction (Original Motion Picture Soundtrack) [European Edition]\06 - Charlie Clouser - Losing.wav

Pre-gap length 0:00:02.00

Peak level 100.0 %
Track quality 100.0 %
Test CRC F0461586
Copy CRC F0461586
Accurately ripped (confidence 4) [4B86CA63]
Copy OK

Track 7

Filename G:\EAC Ripping\Various - Resident Evil- Extinction (Original Motion Picture Soundtrack) [European Edition]\07 - Aiden vs. The Legion Of Doom - One Love (Extinction Remix).wav

Pre-gap length 0:00:02.00

Peak level 100.0 %
Track quality 100.0 %
Test CRC 47D24677
Copy CRC 47D24677
Accurately ripped (confidence 4) [F2B1F0BF]
Copy OK

Track 8

Filename G:\EAC Ripping\Various - Resident Evil- Extinction (Original Motion Picture Soundtrack) [European Edition]\08 - Fightstar - Deathcar.wav

Pre-gap length 0:00:02.00

Peak level 85.1 %
Track quality 99.9 %
Test CRC 1ACF51CD
Copy CRC 1ACF51CD
Accurately ripped (confidence 4) [A4CA43C5]
Copy OK

Track 9

Filename G:\EAC Ripping\Various - Resident Evil- Extinction (Original Motion Picture Soundtrack) [European Edition]\09 - Throwdown - I, Suicide.wav

Pre-gap length 0:00:02.00

Peak level 87.7 %
Track quality 100.0 %
Test CRC 92BFE4F0
Copy CRC 92BFE4F0
Accurately ripped (confidence 4) [CA85A492]
Copy OK

Track 10

Filename G:\EAC Ripping\Various - Resident Evil- Extinction (Original Motion Picture Soundtrack) [European Edition]\10 - Collide - White Rabbit (SPC ECO Mix).wav

Pre-gap length 0:00:02.00

Peak level 100.0 %
Track quality 100.0 %
Test CRC E40CE9E5
Copy CRC E40CE9E5
Accurately ripped (confidence 4) [50EFE82D]
Copy OK

Track 11

Filename G:\EAC Ripping\Various - Resident Evil- Extinction (Original Motion Picture Soundtrack) [European Edition]\11 - Chimaira - Paralyzed.wav

Pre-gap length 0:00:02.00

Peak level 98.4 %
Track quality 100.0 %
Test CRC 7783D015
Copy CRC 7783D015
Accurately ripped (confidence 4) [4E897E15]
Copy OK

Track 12

Filename G:\EAC Ripping\Various - Resident Evil- Extinction (Original Motion Picture Soundtrack) [European Edition]\12 - Charlie Clouser - Laser Tunnel.wav

Pre-gap length 0:00:02.00

Peak level 100.0 %
Track quality 100.0 %
Test CRC 7EE4C546
Copy CRC 7EE4C546
Accurately ripped (confidence 4) [7639CF32]
Copy OK

Track 13

Filename G:\EAC Ripping\Various - Resident Evil- Extinction (Original Motion Picture Soundtrack) [European Edition]\13 - The Bled - Asleep On the Frontlines (Appliantz Remix).wav

Pre-gap length 0:00:02.00

Peak level 100.0 %
Track quality 99.9 %
Test CRC 96BE2BFC
Copy CRC 96BE2BFC
Accurately ripped (confidence 4) [FB9CB35D]
Copy OK

Track 14

Filename G:\EAC Ripping\Various - Resident Evil- Extinction (Original Motion Picture Soundtrack) [European Edition]\14 - City Sleeps - Catch Me.wav

Pre-gap length 0:00:02.00

Peak level 100.0 %
Track quality 100.0 %
Test CRC 3F7258F9
Copy CRC 3F7258F9
Accurately ripped (confidence 4) [D7B4AAA9]
Copy OK

Track 15

Filename G:\EAC Ripping\Various - Resident Evil- Extinction (Original Motion Picture Soundtrack) [European Edition]\15 - Searchlight - Contagious.wav

Pre-gap length 0:00:02.00

Peak level 100.0 %
Track quality 100.0 %
Test CRC E7438CE9
Copy CRC E7438CE9
Accurately ripped (confidence 4) [0EF9D275]
Copy OK

Track 16

Filename G:\EAC Ripping\Various - Resident Evil- Extinction (Original Motion Picture Soundtrack) [European Edition]\16 - Emanuel - Scenotaph (DJA Infected Remix).wav

Pre-gap length 0:00:02.00

Peak level 100.0 %
Track quality 100.0 %
Test CRC 91B20CB1
Copy CRC 91B20CB1
Accurately ripped (confidence 4) [CE918A9D]
Copy OK

Track 17

Filename G:\EAC Ripping\Various - Resident Evil- Extinction (Original Motion Picture Soundtrack) [European Edition]\17 - It Dies Today - Sixth Of June.wav

Pre-gap length 0:00:02.00

Peak level 99.3 %
Track quality 100.0 %
Test CRC 544A6BC7
Copy CRC 544A6BC7
Accurately ripped (confidence 4) [CC6F2906]
Copy OK

Track 18

Filename G:\EAC Ripping\Various - Resident Evil- Extinction (Original Motion Picture Soundtrack) [European Edition]\18 - Poison The Well - Wrecking Itself Taking You With Me.wav

Pre-gap length 0:00:02.00

Peak level 100.0 %
Track quality 100.0 %
Test CRC A7CA9BBD
Copy CRC A7CA9BBD
Accurately ripped (confidence 4) [7F4F7299]
Copy OK

Track 19

Filename G:\EAC Ripping\Various - Resident Evil- Extinction (Original Motion Picture Soundtrack) [European Edition]\19 - Charlie Clouser - Convoy.wav

Pre-gap length 0:00:02.00

Peak level 100.0 %
Track quality 100.0 %
Test CRC 8004C635
Copy CRC 8004C635
Accurately ripped (confidence 4) [F492643E]
Copy OK

Track 20

Filename G:\EAC Ripping\Various - Resident Evil- Extinction (Original Motion Picture Soundtrack) [European Edition]\20 - Overkill - Devils In The Mist.wav

Pre-gap length 0:00:02.00

Peak level 99.9 %
Track quality 100.0 %
Test CRC 7208FD9F
Copy CRC 7208FD9F
Accurately ripped (confidence 4) [CEE7EEA9]
Copy OK

Track 21

Filename G:\EAC Ripping\Various - Resident Evil- Extinction (Original Motion Picture Soundtrack) [European Edition]\21 - Neurosonic - So Many People.wav

Pre-gap length 0:00:02.00

Peak level 99.8 %
Track quality 99.9 %
Test CRC 7FC50211
Copy CRC 7FC50211
Accurately ripped (confidence 4) [58C1E9BD]
Copy OK

Track 22

Filename G:\EAC Ripping\Various - Resident Evil- Extinction (Original Motion Picture Soundtrack) [European Edition]\22 - Nightwish - Amaranth.wav

Pre-gap length 0:00:02.00

Peak level 97.7 %
Track quality 100.0 %
Test CRC 3BB995A5
Copy CRC 3BB995A5
Accurately ripped (confidence 4) [EAF86C38]
Copy OK

All tracks accurately ripped

No errors occurred

End of status report


Трекер:  [ 29-Дек-2010 22:47 ]

  

Скачать .torrent

Размер .torrent файла 13 KB


Размер: 558 MB
Хэш (hash) релиза: a6d19c72b4881478ce1f15256ebde7b2868ed1c4

bot

Топик был перенесен в форум Саундтреки к фильмам и мультфильмам (lossless)

Перенес AqvaGen

Mos

 !  Mos:
Обложка не более 500 пикселей по большей стороне!

Хотите добавить комментарий к записи скачать торрент Charlie Clouser & VA - Resident Evil Extinction OST - Обитель Зла 3 Вымирание - 2007, FLAC

!Обратная связь