Скачать через торрент музыку Дневники вампира The Vampire Diaries - 2010, FLAC бесплатно без регистрации torrent

Если у вас наблюдаются проблемы со скриншотами, переходом по ссылками, скачиванием торрентов - проблемы в блокировщике рекламы AdBlock. #хорошегоДня!


Статистика раздачи
Размер:  425 MB   |    Зарегистрирован:  6 лет 11 месяцев   |    .torrent скачан:  72 раза   |   
Раздают:  1  
   
Загрузка...
 
Автор Сообщение

AqvaGen


Дневники вампира / The Vampire Diaries


Жанр: Soundtrack | Год выпуска диска: 2010 | Издатель (лейбл): Virgin Records
Аудио кодек: FLAC (*.flac) | Тип рипа: tracks+.cue | Битрейт аудио: lossless
Продолжительность: 01:04:12
01. Michael Suby - Stefan's Theme [01:16]
02. Placebo - Running Up That Hill [04:53]
03. Silversun Pickups - Currency of Love [05:29]
04. Howls - Hammock [02:57]
05. Bat for Lashes - Sleep Alone (909S in the Darktimes Mix) [04:32]
06. Stateless - Bloodstream (Vampire Diaries Remix) [05:11]
07. Goldfrapp - We Radiate [03:45]
08. Sky Ferreira - Obsession [03:42]
09. Digital Daggers - Head Over Heels [04:18]
10. Jason Walker - Down [04:05]
11. Mads Langer - Beauty of the Dark [03:57]
12. Plumb - Cut [03:59]
13. Sounds Under Radio feat. Alison Sudol - All You Wanted [05:17]
14. The Smashing Pumpkins - The Fellowship [03:50]
15. Gorillaz - On Melancholy Hill (Feed Me Remix) [05:10]
16. Michael Suby - 1864 [01:44]
 
Exact Audio Copy V0.99 prebeta 5 from 4. May 2009

EAC extraction logfile from 12. October 2010, 23:15

Various / The Vampire Diaries: Original Television Soundtrack

Used drive : TSSTcorpDVD+-RW TS-L632H Adapter: 1 ID: 0

Read mode : SecureUtilize accurate stream : YesDefeat audio cache : YesMake use of C2 pointers : No

Read offset correction : 6Overread into Lead-In and Lead-Out : NoFill up missing offset samples with silence : YesDelete leading and trailing silent blocks : NoNull samples used in CRC calculations : YesUsed interface : Native Win32 interface for Win NT & 2000Gap handling : Appended to previous track

Used output format : User Defined EncoderSelected bitrate : 192 kBit/sQuality : HighAdd ID3 tag : NoCommand line compressor : C:\Program Files\Exact Audio Copy\Flac\flac.exeAdditional command line options : -V -8 -T "artist=%a" -T "title=%t" -T "album=%g" -T "date=%y" -T "tracknumber=%n" -T "genre=%m" %s

TOC of the extracted CD

Track | Start | Length | Start sector | End sector --------------------------------------------------------- 1 | 0:00.00 | 1:16.64 | 0 | 5763 2 | 1:16.64 | 4:53.52 | 5764 | 27790 3 | 6:10.41 | 5:29.59 | 27791 | 52524 4 | 11:40.25 | 2:57.15 | 52525 | 65814 5 | 14:37.40 | 4:32.48 | 65815 | 86262 6 | 19:10.13 | 5:11.38 | 86263 | 109625 7 | 24:21.51 | 3:45.12 | 109626 | 126512 8 | 28:06.63 | 3:42.59 | 126513 | 143221 9 | 31:49.47 | 4:18.17 | 143222 | 162588 10 | 36:07.64 | 4:05.46 | 162589 | 181009 11 | 40:13.35 | 3:57.13 | 181010 | 198797 12 | 44:10.48 | 3:59.31 | 198798 | 216753 13 | 48:10.04 | 5:17.11 | 216754 | 240539 14 | 53:27.15 | 3:50.52 | 240540 | 257841 15 | 57:17.67 | 5:10.23 | 257842 | 281114 16 | 62:28.15 | 1:44.12 | 281115 | 288926

Track 1

Filename C:\Downloads\Upload\WhatCD\Various Artists - 2010 - The Vampire Diaries Original Television Soundtrack - FLAC\01 Stefan's Theme.wav

Pre-gap length 0:00:02.00

Peak level 94.5 % Track quality 100.0 % Test CRC 500EA4FD Copy CRC 500EA4FD Track not present in AccurateRip database Copy OK

Track 2

Filename C:\Downloads\Upload\WhatCD\Various Artists - 2010 - The Vampire Diaries Original Television Soundtrack - FLAC\02 Running Up That Hill.wav

Peak level 99.3 % Track quality 100.0 % Test CRC BC61E708 Copy CRC BC61E708 Track not present in AccurateRip database Copy OK

Track 3

Filename C:\Downloads\Upload\WhatCD\Various Artists - 2010 - The Vampire Diaries Original Television Soundtrack - FLAC\03 Currency of Love.wav

Peak level 98.8 % Track quality 100.0 % Test CRC DA01919C Copy CRC DA01919C Track not present in AccurateRip database Copy OK

Track 4

Filename C:\Downloads\Upload\WhatCD\Various Artists - 2010 - The Vampire Diaries Original Television Soundtrack - FLAC\04 Hammock.wav

Peak level 99.3 % Track quality 100.0 % Test CRC C9233422 Copy CRC C9233422 Track not present in AccurateRip database Copy OK

Track 5

Filename C:\Downloads\Upload\WhatCD\Various Artists - 2010 - The Vampire Diaries Original Television Soundtrack - FLAC\05 Sleep Alone (909S in the Darktimes Mix).wav

Peak level 98.8 % Track quality 100.0 % Test CRC ACBD5982 Copy CRC ACBD5982 Track not present in AccurateRip database Copy OK

Track 6

Filename C:\Downloads\Upload\WhatCD\Various Artists - 2010 - The Vampire Diaries Original Television Soundtrack - FLAC\06 Bloodstream (Vampire Diaries Remix).wav

Peak level 98.8 % Track quality 100.0 % Test CRC 645894C8 Copy CRC 645894C8 Track not present in AccurateRip database Copy OK

Track 7

Filename C:\Downloads\Upload\WhatCD\Various Artists - 2010 - The Vampire Diaries Original Television Soundtrack - FLAC\07 We Radiate.wav

Peak level 98.8 % Track quality 100.0 % Test CRC D63AD07A Copy CRC D63AD07A Track not present in AccurateRip database Copy OK

Track 8

Filename C:\Downloads\Upload\WhatCD\Various Artists - 2010 - The Vampire Diaries Original Television Soundtrack - FLAC\08 Obsession.wav

Peak level 100.0 % Track quality 100.0 % Test CRC 6373B5BF Copy CRC 6373B5BF Track not present in AccurateRip database Copy OK

Track 9

Filename C:\Downloads\Upload\WhatCD\Various Artists - 2010 - The Vampire Diaries Original Television Soundtrack - FLAC\09 Head Over Heels.wav

Peak level 98.8 % Track quality 100.0 % Test CRC 45359776 Copy CRC 45359776 Track not present in AccurateRip database Copy OK

Track 10

Filename C:\Downloads\Upload\WhatCD\Various Artists - 2010 - The Vampire Diaries Original Television Soundtrack - FLAC\10 Down.wav

Peak level 100.0 % Track quality 100.0 % Test CRC 5B1B03DD Copy CRC 5B1B03DD Track not present in AccurateRip database Copy OK

Track 11

Filename C:\Downloads\Upload\WhatCD\Various Artists - 2010 - The Vampire Diaries Original Television Soundtrack - FLAC\11 Beauty of the Dark.wav

Peak level 98.6 % Track quality 100.0 % Test CRC 7BFAA021 Copy CRC 7BFAA021 Track not present in AccurateRip database Copy OK

Track 12

Filename C:\Downloads\Upload\WhatCD\Various Artists - 2010 - The Vampire Diaries Original Television Soundtrack - FLAC\12 Cut.wav

Peak level 93.7 % Track quality 99.9 % Test CRC 8EA896A3 Copy CRC 8EA896A3 Track not present in AccurateRip database Copy OK

Track 13

Filename C:\Downloads\Upload\WhatCD\Various Artists - 2010 - The Vampire Diaries Original Television Soundtrack - FLAC\13 All You Wanted.wav

Peak level 100.0 % Track quality 100.0 % Test CRC 1661CFE2 Copy CRC 1661CFE2 Track not present in AccurateRip database Copy OK

Track 14

Filename C:\Downloads\Upload\WhatCD\Various Artists - 2010 - The Vampire Diaries Original Television Soundtrack - FLAC\14 The Fellowship.wav

Peak level 98.8 % Track quality 100.0 % Test CRC F6C3EA1F Copy CRC F6C3EA1F Track not present in AccurateRip database Copy OK

Track 15

Filename C:\Downloads\Upload\WhatCD\Various Artists - 2010 - The Vampire Diaries Original Television Soundtrack - FLAC\15 On Melancholy Hill (Feed Me Remix).wav

Peak level 98.8 % Track quality 100.0 % Test CRC F909C9EE Copy CRC F909C9EE Track not present in AccurateRip database Copy OK

Track 16

Filename C:\Downloads\Upload\WhatCD\Various Artists - 2010 - The Vampire Diaries Original Television Soundtrack - FLAC\16 1864.wav

Peak level 98.8 % Track quality 100.0 % Test CRC A6AF4BEC Copy CRC A6AF4BEC Track not present in AccurateRip database Copy OK

None of the tracks are present in the AccurateRip database

No errors occurred

End of status report
 
REM GENRE SoundtrackREM DATE 2010REM DISCID EA0F0C10REM COMMENT "ExactAudioCopy v0.99pb5"PERFORMER "Various"TITLE "The Vampire Diaries: Original Television Soundtrack"FILE "01 Stefan's Theme.wav" WAVE TRACK 01 AUDIO TITLE "Stefan's Theme" PERFORMER "Stefan's Theme" INDEX 01 00:00:00FILE "02 Running Up That Hill.wav" WAVE TRACK 02 AUDIO TITLE "Running Up That Hill" PERFORMER "Running Up That Hill" INDEX 01 00:00:00FILE "03 Currency of Love.wav" WAVE TRACK 03 AUDIO TITLE "Currency of Love" PERFORMER "Currency of Love" INDEX 01 00:00:00FILE "04 Hammock.wav" WAVE TRACK 04 AUDIO TITLE "Hammock" PERFORMER "Hammock" INDEX 01 00:00:00FILE "05 Sleep Alone (909S in the Darktimes Mix).wav" WAVE TRACK 05 AUDIO TITLE "Sleep Alone (909S in the Darktimes Mix)" PERFORMER "Sleep Alone (909S in the Darktimes Mix)" INDEX 01 00:00:00FILE "06 Bloodstream (Vampire Diaries Remix).wav" WAVE TRACK 06 AUDIO TITLE "Bloodstream (Vampire Diaries Remix)" PERFORMER "Bloodstream (Vampire Diaries Remix)" INDEX 01 00:00:00FILE "07 We Radiate.wav" WAVE TRACK 07 AUDIO TITLE "We Radiate" PERFORMER "We Radiate" INDEX 01 00:00:00FILE "08 Obsession.wav" WAVE TRACK 08 AUDIO TITLE "Obsession" PERFORMER "Obsession" INDEX 01 00:00:00FILE "09 Head Over Heels.wav" WAVE TRACK 09 AUDIO TITLE "Head Over Heels" PERFORMER "Head Over Heels" INDEX 01 00:00:00FILE "10 Down.wav" WAVE TRACK 10 AUDIO TITLE "Down" PERFORMER "Down" INDEX 01 00:00:00FILE "11 Beauty of the Dark.wav" WAVE TRACK 11 AUDIO TITLE "Beauty of the Dark" PERFORMER "Beauty of the Dark" INDEX 01 00:00:00FILE "12 Cut.wav" WAVE TRACK 12 AUDIO TITLE "Cut" PERFORMER "Cut" INDEX 01 00:00:00FILE "13 All You Wanted.wav" WAVE TRACK 13 AUDIO TITLE "All You Wanted" PERFORMER "All You Wanted" INDEX 01 00:00:00FILE "14 The Fellowship.wav" WAVE TRACK 14 AUDIO TITLE "The Fellowship" PERFORMER "The Fellowship" INDEX 01 00:00:00FILE "15 On Melancholy Hill (Feed Me Remix).wav" WAVE TRACK 15 AUDIO TITLE "On Melancholy Hill (Feed Me Remix)" PERFORMER "On Melancholy Hill (Feed Me Remix)" INDEX 01 00:00:00FILE "16 1864.wav" WAVE TRACK 16 AUDIO TITLE "1864" PERFORMER "1864" INDEX 01 00:00:00



Трекер:  [ 19-Дек-2010 15:02 ]

  

Скачать .torrent

Размер .torrent файла 34 KB


Размер: 425 MB
Хэш (hash) релиза: 6301dcd3545dea8b0e7651a1ddd667b9bd4d5286

bot

Топик был перенесен в форум Саундтреки к фильмам и мультфильмам (lossless)

Перенес AqvaGen

Хотите добавить комментарий к записи скачать торрент Дневники вампира The Vampire Diaries - 2010, FLAC

!Обратная связь