Скачать через торрент музыку Cirque du Soleil бесплатно без регистрации torrent

Если у вас наблюдаются проблемы со скриншотами, переходом по ссылками, скачиванием торрентов - проблемы в блокировщике рекламы AdBlock. #хорошегоДня!


Статистика раздачи
Размер:  6.11 GB   |    Зарегистрирован:  6 лет 5 месяцев   |    .torrent скачан:  53 раза   |   
Раздают:  1  
   
Загрузка...
 
Автор Сообщение

Galfimbul

avatar Galfimbul


Cirque du Soleil (17CD)

Жанр: Soundtrack
Год выпуска: 1990-2008
Формат: APE (image + .cue)
Битрейт аудио: lossless
length: 52 minutes 8 seconds
1. Cirque Du Soleil - Ouverture (2:29)
2. Cirque Du Soleil - Bulgares (5:07)
3. Cirque Du Soleil - Boule 4 (1:08)
4. Cirque Du Soleil - Tango (5:13)
5. Cirque Du Soleil - Trapeze (6:02)
6. Cirque Du Soleil - Cadres (4:30)
7. Cirque Du Soleil - Fil de fer (4:21)
8. Cirque Du Soleil - Bicyclettes (3:59)
9. Cirque Du Soleil - Boules 1 à 3 (6:15)
10. Cirque Du Soleil - Les chaises (3:26)
11. Cirque Du Soleil - Entracte (6:08)
12. Cirque Du Soleil - Pingouins (3:30)
Exact Audio Copy V0.99 prebeta 4 from 23. January 2008

Отчёт EAC об извлечении, выполненном 29. мая 2008, 19:08

Cirque Du Soleil / Cirque Du Soleil

Дисковод: HL-DT-STDVDRAM GSA-E10L Adapter: 4 ID: 1

Режим чтения : Достоверность
Использование точного потока : Да
Отключение кэша аудио : Да
Использование указателей C2 : Нет

Коррекция смещения при чтении : 667
Способность читать области Lead-in и Lead-out : Нет
Заполнение пропущенных сэмплов тишиной : Да
Удаление блоков с тишиной в начале и конце : Нет
При вычислениях CRC использовались нулевые сэмплы : Да
Интерфейс : Установленный внешний ASPI-интерфейс

Выходной формат : Внутренние WAV-операции
Формат сэмплов : 44.100 Гц; 16 бит; стерео

TOC извлечённого CD

Трек | Старт | Длительность | Начальный сектор | Конечный сектор
---------------------------------------------------------------------
1 | 0:00.32 | 2:29.65 | 32 | 11271
2 | 2:30.22 | 5:07.53 | 11272 | 34349
3 | 7:38.00 | 1:08.67 | 34350 | 39516
4 | 8:46.67 | 5:13.55 | 39517 | 63046
5 | 14:00.47 | 6:02.15 | 63047 | 90211
6 | 20:02.62 | 4:30.68 | 90212 | 110529
7 | 24:33.55 | 4:21.37 | 110530 | 130141
8 | 28:55.17 | 3:59.63 | 130142 | 148129
9 | 32:55.05 | 6:15.72 | 148130 | 176326
10 | 39:11.02 | 3:26.20 | 176327 | 191796
11 | 42:37.22 | 6:08.60 | 191797 | 219456
12 | 48:46.07 | 3:30.05 | 219457 | 235211

Характеристики диапазона извлечения и сообщения об ошибках

Выбранный диапазон

Имя файла F:\µTorrent Downloads\MY TORRENT\Cirque du Soleil 1\1990-Cirque Du Soleil\Cirque Du Soleil - Cirque Du Soleil.wav

Пиковый уровень 100.0 %
Качество диапазона 100.0 %
CRC теста 6351A0C6
CRC копии 6351A0C6
Копирование... OK

Ошибок не произошло

AccurateRip: сводка

Трек 1 точное извлечение (доверие 2) [986F7670]
Трек 2 точное извлечение (доверие 2) [76A68CCF]
Трек 3 точное извлечение (доверие 2) [B20EA4ED]
Трек 4 точное извлечение (доверие 2) [3727C4F4]
Трек 5 точное извлечение (доверие 2) [30A04EDE]
Трек 6 точное извлечение (доверие 2) [443280EE]
Трек 7 точное извлечение (доверие 2) [99BF271D]
Трек 8 точное извлечение (доверие 2) [F7CF9D23]
Трек 9 точное извлечение (доверие 2) [8F6CBD5C]
Трек 10 точное извлечение (доверие 2) [865332D4]
Трек 11 точное извлечение (доверие 2) [70D9D081]
Трек 12 точное извлечение (доверие 2) [5636087A]

Все треки извлечены точно

Конец отчёта
length: 1 hour 8 minutes 27 seconds
1. Cirque Du Soleil - Fanfare (0:50)
2. Cirque Du Soleil - Méandres (6:57)
3. Cirque Du Soleil - Boléro (4:19)
4. Cirque Du Soleil - Bascule (4:46)
5. Cirque Du Soleil - Fixe (4:14)
6. Cirque Du Soleil - Ballant (5:33)
7. Cirque Du Soleil - Baleines (3:45)
8. Cirque Du Soleil - Havi Vahlia (4:43)
9. Cirque Du Soleil - Suite Chinoise (10:31)
10. Cirque Du Soleil - Éclipse (4:21)
11. Cirque Du Soleil - L'oiseau (4:53)
12. Cirque Du Soleil - Azimut (5:42)
13. Cirque Du Soleil - Sanza (4:55)
14. Cirque Du Soleil - Grosse Femme (2:58)
Exact Audio Copy V0.99 prebeta 4 from 23. January 2008

Отчёт EAC об извлечении, выполненном 29. мая 2008, 20:04

Cirque Du Soleil / Nouvelle Experience

Дисковод: HL-DT-STDVDRAM GSA-E10L Adapter: 4 ID: 1

Режим чтения : Достоверность
Использование точного потока : Да
Отключение кэша аудио : Да
Использование указателей C2 : Нет

Коррекция смещения при чтении : 667
Способность читать области Lead-in и Lead-out : Нет
Заполнение пропущенных сэмплов тишиной : Да
Удаление блоков с тишиной в начале и конце : Нет
При вычислениях CRC использовались нулевые сэмплы : Да
Интерфейс : Установленный внешний ASPI-интерфейс

Выходной формат : Внутренние WAV-операции
Формат сэмплов : 44.100 Гц; 16 бит; стерео

TOC извлечённого CD

Трек | Старт | Длительность | Начальный сектор | Конечный сектор
---------------------------------------------------------------------
1 | 0:00.32 | 0:50.58 | 32 | 3839
2 | 0:51.15 | 6:57.27 | 3840 | 35141
3 | 7:48.42 | 4:19.40 | 35142 | 54606
4 | 12:08.07 | 4:46.05 | 54607 | 76061
5 | 16:54.12 | 4:14.33 | 76062 | 95144
6 | 21:08.45 | 5:33.67 | 95145 | 120186
7 | 26:42.37 | 3:45.08 | 120187 | 137069
8 | 30:27.45 | 4:43.10 | 137070 | 158304
9 | 35:10.55 | 10:31.55 | 158305 | 205684
10 | 45:42.35 | 4:21.55 | 205685 | 225314
11 | 50:04.15 | 4:53.40 | 225315 | 247329
12 | 54:57.55 | 5:42.72 | 247330 | 273051
13 | 60:40.52 | 4:55.38 | 273052 | 295214
14 | 65:36.15 | 2:58.70 | 295215 | 308634

Характеристики диапазона извлечения и сообщения об ошибках

Выбранный диапазон

Имя файла F:\µTorrent Downloads\MY TORRENT\Cirque du Soleil 1\1990-Nouvelle Experience\Cirque Du Soleil - Nouvelle Experience.wav

Пиковый уровень 95.4 %
Качество диапазона 100.0 %
CRC теста 5F5DD3AF
CRC копии 5F5DD3AF
Копирование... OK

Ошибок не произошло

AccurateRip: сводка

Трек 1 нет в базе данных
Трек 2 нет в базе данных
Трек 3 нет в базе данных
Трек 4 нет в базе данных
Трек 5 нет в базе данных
Трек 6 нет в базе данных
Трек 7 нет в базе данных
Трек 8 нет в базе данных
Трек 9 нет в базе данных
Трек 10 нет в базе данных
Трек 11 нет в базе данных
Трек 12 нет в базе данных
Трек 13 нет в базе данных
Трек 14 нет в базе данных

Ни одного трека нет в базе AccurateRip

Конец отчёта
length: 1 hour 16 seconds
1. Cirque Du Soleil - Kumbalawé (5:35)
2. Cirque Du Soleil - Barock (4:20)
3. Cirque Du Soleil - Kazé (5:07)
4. Cirque Du Soleil - Amazonia (8:01)
5. Cirque Du Soleil - Norweg (6:08)
6. Cirque Du Soleil - Urgence (5:32)
7. Cirque Du Soleil - Pokinoï (5:09)
8. Cirque Du Soleil - Saltimbanco (5:19)
9. Cirque Du Soleil - Il Sogno Di Volare (5:13)
10. Cirque Du Soleil - Horéré Ukundé (6:47)
11. Cirque Du Soleil - Rideau (3:05)
Exact Audio Copy V0.99 prebeta 4 from 23. January 2008

Отчёт EAC об извлечении, выполненном 29. мая 2008, 21:57

Cirque Du Soleil / Saltimbanco

Дисковод: HL-DT-STDVDRAM GSA-E10L Adapter: 4 ID: 1

Режим чтения : Достоверность
Использование точного потока : Да
Отключение кэша аудио : Да
Использование указателей C2 : Нет

Коррекция смещения при чтении : 667
Способность читать области Lead-in и Lead-out : Нет
Заполнение пропущенных сэмплов тишиной : Да
Удаление блоков с тишиной в начале и конце : Нет
При вычислениях CRC использовались нулевые сэмплы : Да
Интерфейс : Установленный внешний ASPI-интерфейс

Выходной формат : Внутренние WAV-операции
Формат сэмплов : 44.100 Гц; 16 бит; стерео

TOC извлечённого CD

Трек | Старт | Длительность | Начальный сектор | Конечный сектор
---------------------------------------------------------------------
1 | 0:00.32 | 5:35.00 | 32 | 25156
2 | 5:35.32 | 4:20.48 | 25157 | 44704
3 | 9:56.05 | 5:07.15 | 44705 | 67744
4 | 15:03.20 | 8:01.72 | 67745 | 103891
5 | 23:05.17 | 6:08.15 | 103892 | 131506
6 | 29:13.32 | 5:32.50 | 131507 | 156456
7 | 34:46.07 | 5:09.00 | 156457 | 179631
8 | 39:55.07 | 5:19.45 | 179632 | 203601
9 | 45:14.52 | 5:13.53 | 203602 | 227129
10 | 50:28.30 | 6:47.30 | 227130 | 257684
11 | 57:15.60 | 3:05.72 | 257685 | 271631

Характеристики диапазона извлечения и сообщения об ошибках

Выбранный диапазон

Имя файла F:\µTorrent Downloads\MY TORRENT\Cirque du Soleil\1992-Saltimbanco\Saltimbanco.wav

Пиковый уровень 100.0 %
Качество диапазона 100.0 %
CRC теста 190938EC
CRC копии 190938EC
Копирование... OK

Ошибок не произошло

AccurateRip: сводка

Трек 1 нет в базе данных
Трек 2 нет в базе данных
Трек 3 нет в базе данных
Трек 4 нет в базе данных
Трек 5 нет в базе данных
Трек 6 нет в базе данных
Трек 7 нет в базе данных
Трек 8 нет в базе данных
Трек 9 нет в базе данных
Трек 10 нет в базе данных
Трек 11 нет в базе данных

Ни одного трека нет в базе AccurateRip

Конец отчёта
length: 1 hour 1 minute 21 seconds
1. Cirque Du Soleil - Alegria (5:51)
2. Cirque Du Soleil - Vai Vedrai (4:34)
3. Cirque Du Soleil - Kalandéro (5:19)
4. Cirque Du Soleil - Querer (4:34)
5. Cirque Du Soleil - Irna (4:46)
6. Cirque Du Soleil - Taruka (5:34)
7. Cirque Du Soleil - Jeux D'enfants (4:40)
8. Cirque Du Soleil - Mirko (5:06)
9. Cirque Du Soleil - Icare (7:23)
10. Cirque Du Soleil - Ibis (6:26)
11. Cirque Du Soleil - Valsapena (4:00)
12. Cirque Du Soleil - Nocturne (3:08)
Exact Audio Copy V0.99 prebeta 4 from 23. January 2008

Отчёт EAC об извлечении, выполненном 30. мая 2008, 23:59

Cirque Du Soleil / Alegria

Дисковод: HL-DT-STDVDRAM GSA-E10L Adapter: 4 ID: 1

Режим чтения : Достоверность
Использование точного потока : Да
Отключение кэша аудио : Да
Использование указателей C2 : Нет

Коррекция смещения при чтении : 667
Способность читать области Lead-in и Lead-out : Нет
Заполнение пропущенных сэмплов тишиной : Да
Удаление блоков с тишиной в начале и конце : Нет
При вычислениях CRC использовались нулевые сэмплы : Да
Интерфейс : Установленный внешний ASPI-интерфейс

Выходной формат : Внутренние WAV-операции
Формат сэмплов : 44.100 Гц; 16 бит; стерео

TOC извлечённого CD

Трек | Старт | Длительность | Начальный сектор | Конечный сектор
---------------------------------------------------------------------
1 | 0:00.00 | 5:51.38 | 0 | 26362
2 | 5:51.38 | 4:34.32 | 26363 | 46944
3 | 10:25.70 | 5:19.03 | 46945 | 70872
4 | 15:44.73 | 4:34.00 | 70873 | 91422
5 | 20:18.73 | 4:46.40 | 91423 | 112912
6 | 25:05.38 | 5:34.20 | 112913 | 137982
7 | 30:39.58 | 4:40.67 | 137983 | 159049
8 | 35:20.50 | 5:06.38 | 159050 | 182037
9 | 40:27.13 | 7:23.55 | 182038 | 215317
10 | 47:50.68 | 6:26.57 | 215318 | 244324
11 | 54:17.50 | 4:00.25 | 244325 | 262349
12 | 58:18.00 | 3:08.70 | 262350 | 276519

Характеристики диапазона извлечения и сообщения об ошибках

Выбранный диапазон

Имя файла F:\µTorrent Downloads\MY TORRENT\Cirque du Soleil\1994-Alegria\Cirque Du Soleil - Alegria.wav

Пиковый уровень 94.4 %
Качество диапазона 99.9 %
CRC теста 8BBC6AA5
CRC копии 8BBC6AA5
Копирование... OK

Ошибок не произошло

AccurateRip: сводка

Трек 1 нет в базе данных
Трек 2 нет в базе данных
Трек 3 нет в базе данных
Трек 4 нет в базе данных
Трек 5 нет в базе данных
Трек 6 нет в базе данных
Трек 7 нет в базе данных
Трек 8 нет в базе данных
Трек 9 нет в базе данных
Трек 10 нет в базе данных
Трек 11 нет в базе данных
Трек 12 нет в базе данных

Ни одного трека нет в базе AccurateRip

Конец отчёта
length: 55 minutes 18 seconds
1. Cirque Du Soleil - Égypte (4:27)
2. Cirque Du Soleil - Rumeurs (10:09)
3. Cirque Du Soleil - Birimbau (6:11)
4. Cirque Du Soleil - Kunya Sobé (5:20)
5. Cirque Du Soleil - En Ville (4:58)
6. Cirque Du Soleil - Ulysse (6:24)
7. Cirque Du Soleil - Rondo (6:06)
8. Cirque Du Soleil - Caravena (5:13)
9. Cirque Du Soleil - Kalimando (6:30)
Exact Audio Copy V0.99 prebeta 4 from 23. January 2008

Отчёт EAC об извлечении, выполненном 30. мая 2008, 10:20

Cirque Du Soleil / Mystere

Дисковод: HL-DT-STDVDRAM GSA-E10L Adapter: 4 ID: 1

Режим чтения : Достоверность
Использование точного потока : Да
Отключение кэша аудио : Да
Использование указателей C2 : Нет

Коррекция смещения при чтении : 667
Способность читать области Lead-in и Lead-out : Нет
Заполнение пропущенных сэмплов тишиной : Да
Удаление блоков с тишиной в начале и конце : Нет
При вычислениях CRC использовались нулевые сэмплы : Да
Интерфейс : Установленный внешний ASPI-интерфейс

Выходной формат : Внутренние WAV-операции
Формат сэмплов : 44.100 Гц; 16 бит; стерео

TOC извлечённого CD

Трек | Старт | Длительность | Начальный сектор | Конечный сектор
---------------------------------------------------------------------
1 | 0:00.00 | 4:27.50 | 0 | 20074
2 | 4:27.50 | 10:09.02 | 20075 | 65751
3 | 14:36.52 | 6:11.55 | 65752 | 93631
4 | 20:48.32 | 5:20.25 | 93632 | 117656
5 | 26:08.57 | 4:58.45 | 117657 | 140051
6 | 31:07.27 | 6:24.48 | 140052 | 168899
7 | 37:32.00 | 6:06.45 | 168900 | 196394
8 | 43:38.45 | 5:13.60 | 196395 | 219929
9 | 48:52.30 | 6:30.47 | 219930 | 249226

Характеристики диапазона извлечения и сообщения об ошибках

Выбранный диапазон

Имя файла F:\µTorrent Downloads\MY TORRENT\Cirque du Soleil\1994-Mystere\Cirque Du Soleil - Mystere.wav

Пиковый уровень 94.7 %
Качество диапазона 100.0 %
CRC теста F4A0B74A
CRC копии F4A0B74A
Копирование... OK

Ошибок не произошло

AccurateRip: сводка

Трек 1 точное извлечение (доверие 6) [25E8F8D5]
Трек 2 точное извлечение (доверие 6) [D853F6F4]
Трек 3 точное извлечение (доверие 6) [18E94BAD]
Трек 4 точное извлечение (доверие 6) [79FB2467]
Трек 5 точное извлечение (доверие 6) [FC64BEBE]
Трек 6 точное извлечение (доверие 6) [D4A2443D]
Трек 7 точное извлечение (доверие 4) [7EA5EBAE]
Трек 8 точное извлечение (доверие 6) [9414268D]
Трек 9 точное извлечение (доверие 5) [8BE875F4]

Все треки извлечены точно

Конец отчёта
length: 46 minutes 16 seconds
1. Cirque Du Soleil - Atmadja (3:21)
2. Cirque Du Soleil - Incantation (5:23)
3. Cirque Du Soleil - Marelle (1:26)
4. Cirque Du Soleil - Rivage (5:24)
5. Cirque Du Soleil - Zydeko (1:19)
6. Cirque Du Soleil - Let Me Fall (4:47)
7. Cirque Du Soleil - Innocence (1:56)
8. Cirque Du Soleil - Carrousel (3:05)
9. Cirque Du Soleil - Steel Dream (5:14)
10. Cirque Du Soleil - Séisouso (5:23)
11. Cirque Du Soleil - Reveil (3:20)
12. Cirque Du Soleil - Quidam (5:38)
Exact Audio Copy V0.99 prebeta 4 from 23. January 2008

Отчёт EAC об извлечении, выполненном 31. мая 2008, 16:33

Cirque du Soleil / Quidam

Дисковод: HL-DT-STDVDRAM GSA-E10L Adapter: 4 ID: 1

Режим чтения : Достоверность
Использование точного потока : Да
Отключение кэша аудио : Да
Использование указателей C2 : Нет

Коррекция смещения при чтении : 667
Способность читать области Lead-in и Lead-out : Нет
Заполнение пропущенных сэмплов тишиной : Да
Удаление блоков с тишиной в начале и конце : Нет
При вычислениях CRC использовались нулевые сэмплы : Да
Интерфейс : Установленный внешний ASPI-интерфейс

Выходной формат : Внутренние WAV-операции
Формат сэмплов : 44.100 Гц; 16 бит; стерео

TOC извлечённого CD

Трек | Старт | Длительность | Начальный сектор | Конечный сектор
---------------------------------------------------------------------
1 | 0:00.00 | 3:21.12 | 0 | 15086
2 | 3:21.12 | 5:23.20 | 15087 | 39331
3 | 8:44.32 | 1:26.32 | 39332 | 45813
4 | 10:10.64 | 5:24.44 | 45814 | 70157
5 | 15:35.33 | 1:19.20 | 70158 | 76102
6 | 16:54.53 | 4:47.70 | 76103 | 97697
7 | 21:42.48 | 1:56.55 | 97698 | 106452
8 | 23:39.28 | 3:05.52 | 106453 | 120379
9 | 26:45.05 | 5:14.58 | 120380 | 143987
10 | 31:59.63 | 5:23.10 | 143988 | 168222
11 | 37:22.73 | 3:20.52 | 168223 | 183274
12 | 40:43.50 | 5:36.16 | 183275 | 208490
13 | 48:51.66 | 11:34.31 | 219891 | 271971

Характеристики диапазона извлечения и сообщения об ошибках

Выбранный диапазон

Имя файла F:\µTorrent Downloads\MY TORRENT\Cirque du Soleil\1996-Quidam\Cirque du Soleil - Quidam.wav

Пиковый уровень 91.8 %
Качество диапазона 100.0 %
CRC теста B8D9DB70
CRC копии B8D9DB70
Копирование... OK

Ошибок не произошло

AccurateRip: сводка

Трек 1 точность не определена (достоверность 1) [2E934125], AccurateRip вернул [65141D52]
Трек 2 точность не определена (достоверность 1) [36E0CB0B], AccurateRip вернул [3ECBBDAA]
Трек 3 точность не определена (достоверность 1) [4CEA9679], AccurateRip вернул [D66809C3]
Трек 4 точность не определена (достоверность 1) [D701F06F], AccurateRip вернул [63ED00AD]
Трек 5 точность не определена (достоверность 1) [7913E376], AccurateRip вернул [F0A77FBE]
Трек 6 точность не определена (достоверность 1) [121ECE83], AccurateRip вернул [E3F8170B]
Трек 7 точность не определена (достоверность 1) [3E4199E4], AccurateRip вернул [08A2B754]
Трек 8 точность не определена (достоверность 1) [788E8858], AccurateRip вернул [5746FEB8]
Трек 9 точность не определена (достоверность 1) [818F1B09], AccurateRip вернул [25D1DDE9]
Трек 10 точность не определена (достоверность 1) [8D708B0C], AccurateRip вернул [6927014F]
Трек 11 точность не определена (достоверность 1) [13417FD6], AccurateRip вернул [14E0C182]
Трек 12 точность не определена (достоверность 1) [05536F77], AccurateRip вернул [E68969B2]

Ни один трек не прошёл проверки на точность
В вашей базе может быть иной вариант штамповки диска

Конец отчёта
1 hour 3 minutes 13 seconds
1. Cirque Du Soleil - Jeux D' Eau (4:21)
2. Cirque Du Soleil - Mer Noire (5:23)
3. Cirque Du Soleil - Tzelma (3:07)
4. Cirque Du Soleil - Africa (2:18)
5. Cirque Du Soleil - Remous (7:16)
6. Cirque Du Soleil - Svecounia (5:50)
7. Cirque Du Soleil - Nostalgie (4:05)
8. Cirque Du Soleil - Simcha (5:22)
9. Cirque Du Soleil - Gamelan (5:44)
10. Cirque Du Soleil - Ephra (4:41)
11. Cirque Du Soleil - Désert (7:53)
12. Cirque Du Soleil - Terre Aride (4:37)
13. Cirque Du Soleil - O (2:36)
Exact Audio Copy V0.99 prebeta 4 from 23. January 2008

Отчёт EAC об извлечении, выполненном 3. июня 2008, 13:57

Cirque du Soleil / «O»

Дисковод: HL-DT-STDVDRAM GSA-E10L Adapter: 7 ID: 1

Режим чтения : Достоверность
Использование точного потока : Да
Отключение кэша аудио : Да
Использование указателей C2 : Нет

Коррекция смещения при чтении : 667
Способность читать области Lead-in и Lead-out : Нет
Заполнение пропущенных сэмплов тишиной : Да
Удаление блоков с тишиной в начале и конце : Нет
При вычислениях CRC использовались нулевые сэмплы : Да
Интерфейс : Установленный внешний ASPI-интерфейс

Выходной формат : Внутренние WAV-операции
Формат сэмплов : 44.100 Гц; 16 бит; стерео

TOC извлечённого CD

Трек | Старт | Длительность | Начальный сектор | Конечный сектор
---------------------------------------------------------------------
1 | 0:00.00 | 4:21.45 | 0 | 19619
2 | 4:21.45 | 5:23.60 | 19620 | 43904
3 | 9:45.30 | 3:07.72 | 43905 | 58001
4 | 12:53.27 | 2:18.43 | 58002 | 68394
5 | 15:11.70 | 7:16.02 | 68395 | 101096
6 | 22:27.72 | 5:50.33 | 101097 | 127379
7 | 28:18.30 | 4:05.55 | 127380 | 145809
8 | 32:24.10 | 5:22.25 | 145810 | 169984
9 | 37:46.35 | 5:44.60 | 169985 | 195844
10 | 43:31.20 | 4:41.65 | 195845 | 216984
11 | 48:13.10 | 7:53.10 | 216985 | 252469
12 | 56:06.20 | 4:37.00 | 252470 | 273244
13 | 60:43.20 | 2:36.72 | 273245 | 285016

Характеристики диапазона извлечения и сообщения об ошибках

Выбранный диапазон

Имя файла F:\µTorrent Downloads\MY TORRENT\Cirque du Soleil\1998-O\Cirque du Soleil - «O».wav

Пиковый уровень 84.7 %
Качество диапазона 100.0 %
CRC теста C1597C9A
CRC копии C1597C9A
Копирование... OK

Ошибок не произошло

AccurateRip: сводка

Трек 1 точное извлечение (доверие 3) [F41567C4]
Трек 2 точное извлечение (доверие 3) [DFA2F5C1]
Трек 3 точное извлечение (доверие 3) [BD1398BD]
Трек 4 точное извлечение (доверие 3) [DA63904C]
Трек 5 точное извлечение (доверие 3) [D692347E]
Трек 6 точное извлечение (доверие 3) [CF613EEF]
Трек 7 точное извлечение (доверие 3) [BD853415]
Трек 8 точное извлечение (доверие 3) [DC36F8AF]
Трек 9 точное извлечение (доверие 3) [561D1035]
Трек 10 точное извлечение (доверие 3) [39EFD875]
Трек 11 точное извлечение (доверие 3) [C2462FC3]
Трек 12 точное извлечение (доверие 3) [AF2AAB7D]
Трек 13 точное извлечение (доверие 3) [C8D1D43A]

Все треки извлечены точно

Конец отчёта
length: 55 minutes 07 seconds
01. Alegria 4:22
02. Frac's room; Frac and Train; Frac and Giulietta 4:32
03. Love leaves someone behind 4:03
04. Opera; Fleur's trailer 2:58
05. Mirko; Vai vedrai 5:52
06. Love leaves someone behind; Chase; Factory 3:57
07. Hervй 2:08
08. Child in his eyes 4:26
09. Wedding 1:42
10. Irna 2:49
11. Hervй; Giulietta and Fleur 3:53
12. Filet; Make-up; Let love live 3:11
13. Mountain of clothes 4:33
14. Let love live (instrumental) 2:36
15. Let love live 4:03
Exact Audio Copy V0.99 prebeta 5 from 4. May 2009

Отчёт EAC об извлечении, выполненном 29. июня 2009, 9:02

Cirque du soleil / Alegria

Дисковод: HL-DT-STDVDRAM GSA-E10L Adapter: 5 ID: 1

Режим чтения : Достоверность
Использование точного потока : Да
Отключение кэша аудио : Да
Использование указателей C2 : Нет

Коррекция смещения при чтении : 667
Способность читать области Lead-in и Lead-out : Нет
Заполнение пропущенных сэмплов тишиной : Да
Удаление блоков с тишиной в начале и конце : Нет
При вычислениях CRC использовались нулевые сэмплы : Да
Интерфейс : Установленный внешний ASPI-интерфейс

Выходной формат : Пользовательский кодировщик
Выбранный битрейт : 768 kBit/s
Качество : Высокий
Добавление ID3-тэга : Нет
Утилита сжатия : C:\Program Files\Exact Audio Copy\FLAC\FLAC.EXE
Дополнительные параметры : -6 -V -T "ARTIST=%a" -T "TITLE=%t" -T "ALBUM=%g" -T "DATE=%y" -T "TRACKNUMBER=%n" -T "GENRE=%m" -T "COMMENT=%e" %s -o %d

TOC извлечённого CD

Трек | Старт | Длительность | Начальный сектор | Конечный сектор
---------------------------------------------------------------------
1 | 0:00.32 | 4:22.20 | 32 | 19701
2 | 4:22.52 | 4:32.18 | 19702 | 40119
3 | 8:54.70 | 4:03.37 | 40120 | 58381
4 | 12:58.32 | 2:57.50 | 58382 | 71706
5 | 15:56.07 | 5:52.25 | 71707 | 98131
6 | 21:48.32 | 3:57.13 | 98132 | 115919
7 | 25:45.45 | 2:08.10 | 115920 | 125529
8 | 27:53.55 | 4:26.02 | 125530 | 145481
9 | 32:19.57 | 1:42.00 | 145482 | 153131
10 | 34:01.57 | 2:48.53 | 153132 | 165784
11 | 36:50.35 | 3:53.35 | 165785 | 183294
12 | 40:43.70 | 3:10.50 | 183295 | 197594
13 | 43:54.45 | 4:33.37 | 197595 | 218106
14 | 48:28.07 | 2:35.38 | 218107 | 229769
15 | 51:03.45 | 4:03.05 | 229770 | 247999

Характеристики диапазона извлечения и сообщения об ошибках

Выбранный диапазон

Имя файла C:\Documents and Settings\Admin\Мои документы\Моя музыка\CDS\Cirque du soleil - Alegria.wav

Подозрительная позиция 0:55:06

Пиковый уровень 100.0 %
Качество диапазона 99.9 %
CRC теста AFAECB1D
CRC копии AFAECB1D
Копирование завершено

Были ошибки

Конец отчёта
length: 50 minutes 27 seconds
1. Cirque Du Soleil - Stella Errans (4:35)
2. Cirque Du Soleil - Ombra (5:57)
3. Cirque Du Soleil - Spiritual Spiral (4:14)
4. Cirque Du Soleil - Miracula Aeternitatis (5:17)
5. Cirque Du Soleil - Bamboo (1:26)
6. Cirque Du Soleil - Ballare (5:42)
7. Cirque Du Soleil - Ravendhi (4:39)
8. Cirque Du Soleil - Ninkou Latora (5:14)
9. Cirque Du Soleil - Aborigenes Jam (3:08)
10. Cirque Du Soleil - Hinko (5:49)
11. Cirque Du Soleil - Kamande (4:26)
Exact Audio Copy V0.99 prebeta 4 from 23. January 2008

Отчёт EAC об извлечении, выполненном 3. июня 2008, 18:44

Cirque du Soleil / Dralion

Дисковод: HL-DT-STDVDRAM GSA-E10L Adapter: 7 ID: 1

Режим чтения : Достоверность
Использование точного потока : Да
Отключение кэша аудио : Да
Использование указателей C2 : Нет

Коррекция смещения при чтении : 667
Способность читать области Lead-in и Lead-out : Нет
Заполнение пропущенных сэмплов тишиной : Да
Удаление блоков с тишиной в начале и конце : Нет
При вычислениях CRC использовались нулевые сэмплы : Да
Интерфейс : Установленный внешний ASPI-интерфейс

Выходной формат : Внутренние WAV-операции
Формат сэмплов : 44.100 Гц; 16 бит; стерео

TOC извлечённого CD

Трек | Старт | Длительность | Начальный сектор | Конечный сектор
---------------------------------------------------------------------
1 | 0:00.00 | 4:35.47 | 0 | 20671
2 | 4:35.47 | 5:57.35 | 20672 | 47481
3 | 10:33.07 | 4:14.15 | 47482 | 66546
4 | 14:47.22 | 5:17.25 | 66547 | 90346
5 | 20:04.47 | 1:26.20 | 90347 | 96816
6 | 21:30.67 | 5:42.20 | 96817 | 122486
7 | 27:13.12 | 4:39.53 | 122487 | 143464
8 | 31:52.65 | 5:14.25 | 143465 | 167039
9 | 37:07.15 | 3:08.17 | 167040 | 181156
10 | 40:15.32 | 5:49.00 | 181157 | 207331
11 | 46:04.32 | 4:26.05 | 207332 | 227286

Характеристики диапазона извлечения и сообщения об ошибках

Выбранный диапазон

Имя файла F:\µTorrent Downloads\MY TORRENT\Cirque du Soleil\1999-Dralion\Cirque du Soleil - Dralion.wav

Пиковый уровень 100.0 %
Качество диапазона 100.0 %
CRC теста 124BA9D9
CRC копии 124BA9D9
Копирование... OK

Ошибок не произошло

AccurateRip: сводка

Трек 1 точность не определена (достоверность 7) [A54CDD88], AccurateRip вернул [69F99186]
Трек 2 точность не определена (достоверность 7) [166FB311], AccurateRip вернул [BEB2638E]
Трек 3 точность не определена (достоверность 7) [561B7FEB], AccurateRip вернул [01E95B5E]
Трек 4 точность не определена (достоверность 7) [DC5E2B84], AccurateRip вернул [0D9BFB07]
Трек 5 точность не определена (достоверность 7) [BAFC2869], AccurateRip вернул [6CD27766]
Трек 6 точность не определена (достоверность 7) [254204D5], AccurateRip вернул [252BEAF7]
Трек 7 точность не определена (достоверность 7) [672D28B0], AccurateRip вернул [3E02D22C]
Трек 8 точность не определена (достоверность 7) [BEA0C6DC], AccurateRip вернул [03C19EE9]
Трек 9 точность не определена (достоверность 7) [9B317DB4], AccurateRip вернул [D2638265]
Трек 10 точность не определена (достоверность 7) [52FC301A], AccurateRip вернул [6816FC58]
Трек 11 точность не определена (достоверность 6) [45245260], AccurateRip вернул [827F5124]

Ни один трек не прошёл проверки на точность
В вашей базе может быть иной вариант штамповки диска

Конец отчёта
length: 46 minutes 15 seconds
1. Journey of Man (3:38)
2. Overture (1:03)
3. Taiko (1:39)
4. Birth (4:17)
5. The Forest (3:41)
6. In the Beginning (5:03)
7. Youth (4:50)
8. Flying (1:40)
9. Réveil (7:19)
10. Banquine (5:05)
11. Journey of Man (5:01)
12. Trip Hop (2:59)
Exact Audio Copy V0.99 prebeta 4 from 23. January 2008

Отчёт EAC об извлечении, выполненном 4. июня 2008, 19:32

Cirque Du Soleil / Journey of Man

Дисковод: HL-DT-STDVDRAM GSA-E10L Adapter: 7 ID: 1

Режим чтения : Достоверность
Использование точного потока : Да
Отключение кэша аудио : Да
Использование указателей C2 : Нет

Коррекция смещения при чтении : 667
Способность читать области Lead-in и Lead-out : Нет
Заполнение пропущенных сэмплов тишиной : Да
Удаление блоков с тишиной в начале и конце : Нет
При вычислениях CRC использовались нулевые сэмплы : Да
Интерфейс : Установленный внешний ASPI-интерфейс

Выходной формат : Внутренние WAV-операции
Формат сэмплов : 44.100 Гц; 16 бит; стерео

TOC извлечённого CD

Трек | Старт | Длительность | Начальный сектор | Конечный сектор
---------------------------------------------------------------------
1 | 0:00.00 | 3:38.60 | 0 | 16409
2 | 3:38.60 | 1:03.22 | 16410 | 21156
3 | 4:42.07 | 1:39.55 | 21157 | 28636
4 | 6:21.62 | 4:17.65 | 28637 | 47976
5 | 10:39.52 | 3:41.20 | 47977 | 64571
6 | 14:20.72 | 5:03.05 | 64572 | 87301
7 | 19:24.02 | 4:50.38 | 87302 | 109089
8 | 24:14.40 | 1:40.72 | 109090 | 116661
9 | 25:55.37 | 7:19.30 | 116662 | 149616
10 | 33:14.67 | 5:05.45 | 149617 | 172536
11 | 38:20.37 | 5:01.58 | 172537 | 195169
12 | 43:22.20 | 2:59.50 | 195170 | 208644

Характеристики диапазона извлечения и сообщения об ошибках

Выбранный диапазон

Имя файла F:\µTorrent Downloads\MY TORRENT\Cirque du Soleil\1999-Journey of Man\Cirque Du Soleil - Journey of Man.wav

Пиковый уровень 98.8 %
Качество диапазона 100.0 %
CRC теста ADEC7F75
CRC копии ADEC7F75
Копирование... OK

Ошибок не произошло

AccurateRip: сводка

Трек 1 нет в базе данных
Трек 2 нет в базе данных
Трек 3 нет в базе данных
Трек 4 нет в базе данных
Трек 5 нет в базе данных
Трек 6 нет в базе данных
Трек 7 нет в базе данных
Трек 8 нет в базе данных
Трек 9 нет в базе данных
Трек 10 нет в базе данных
Трек 11 нет в базе данных
Трек 12 нет в базе данных

Ни одного трека нет в базе AccurateRip

Конец отчёта
length: 53 minutes 38 seconds
1. Cirque Du Soleil - Once Upon A Time (6:54)
2. Cirque Du Soleil - A Tale (4:17)
3. Cirque Du Soleil - Porte (2:54)
4. Cirque Du Soleil - La Nouba (2:56)
5. Cirque Du Soleil - Distorted (6:34)
6. Cirque Du Soleil - Liama (4:23)
7. Cirque Du Soleil - Queens (6:57)
8. Cirque Du Soleil - À La Lune (6:10)
9. Cirque Du Soleil - Rêve Rouge (2:47)
10. Cirque Du Soleil - Urban (4:54)
11. Cirque Du Soleil - Propel (1:16)
12. Cirque Du Soleil - Jardin Chinois (3:36)
Exact Audio Copy V0.99 prebeta 4 from 23. January 2008

Отчёт EAC об извлечении, выполненном 3. июня 2008, 17:52

Cirque du Soleil / La Nouba

Дисковод: HL-DT-STDVDRAM GSA-E10L Adapter: 7 ID: 1

Режим чтения : Достоверность
Использование точного потока : Да
Отключение кэша аудио : Да
Использование указателей C2 : Нет

Коррекция смещения при чтении : 667
Способность читать области Lead-in и Lead-out : Нет
Заполнение пропущенных сэмплов тишиной : Да
Удаление блоков с тишиной в начале и конце : Нет
При вычислениях CRC использовались нулевые сэмплы : Да
Интерфейс : Установленный внешний ASPI-интерфейс

Выходной формат : Внутренние WAV-операции
Формат сэмплов : 44.100 Гц; 16 бит; стерео

TOC извлечённого CD

Трек | Старт | Длительность | Начальный сектор | Конечный сектор
---------------------------------------------------------------------
1 | 0:00.00 | 6:54.10 | 0 | 31059
2 | 6:54.10 | 4:17.55 | 31060 | 50389
3 | 11:11.65 | 2:54.02 | 50390 | 63441
4 | 14:05.67 | 2:56.30 | 63442 | 76671
5 | 17:02.22 | 6:34.73 | 76672 | 106294
6 | 23:37.20 | 4:23.30 | 106295 | 126049
7 | 28:00.50 | 6:57.22 | 126050 | 157346
8 | 34:57.72 | 6:10.40 | 157347 | 185136
9 | 41:08.37 | 2:47.68 | 185137 | 197729
10 | 43:56.30 | 4:54.15 | 197730 | 219794
11 | 48:50.45 | 1:16.37 | 219795 | 225531
12 | 50:07.07 | 3:36.53 | 225532 | 241784

Характеристики диапазона извлечения и сообщения об ошибках

Выбранный диапазон

Имя файла F:\µTorrent Downloads\MY TORRENT\Cirque du Soleil\1999-La Nouba\Cirque du Soleil - La Nouba.wav

Пиковый уровень 100.0 %
Качество диапазона 100.0 %
CRC теста 7FBF5E7B
CRC копии 7FBF5E7B
Копирование... OK

Ошибок не произошло

AccurateRip: сводка

Трек 1 нет в базе данных
Трек 2 нет в базе данных
Трек 3 нет в базе данных
Трек 4 нет в базе данных
Трек 5 нет в базе данных
Трек 6 нет в базе данных
Трек 7 нет в базе данных
Трек 8 нет в базе данных
Трек 9 нет в базе данных
Трек 10 нет в базе данных
Трек 11 нет в базе данных
Трек 12 нет в базе данных

Ни одного трека нет в базе AccurateRip

Конец отчёта
Solarium (Chill Remix) length: 54 minutes 53 seconds
1. Cirque Du Soleil - Ombra (Ibizarre Remix) (7:43)
2. Cirque Du Soleil - Alegría (A Man Called Adam's Magical Mix) (5:20)
3. Cirque Du Soleil - A Tale (Chilluminati Mix) (6:09)
4. Cirque Du Soleil - El Péndulo (Fenomenon "Northern Comfort Mix") (4:30)
5. Cirque Du Soleil - Africa (Cottonbelly Remix) (4:35)
6. Cirque Du Soleil - Nocturne (Christophe Goze Remix) (5:41)
7. Cirque Du Soleil - Le Rêveur (Thievery Corporation Remix) (4:18)
8. Cirque Du Soleil - Gamelan (Cantoma Remix) (5:33)
9. Cirque Du Soleil - Ombra (Afterlife Mix) (4:56)
10. Cirque Du Soleil - Africa (Banzai Republic "Equator Bound Mix" (6:08)
Exact Audio Copy V0.99 prebeta 4 from 23. January 2008

Отчёт EAC об извлечении, выполненном 5. июня 2008, 10:12

Cirque Du Soleil / Solarium (Chill Remix)

Дисковод: HL-DT-STDVDRAM GSA-E10L Adapter: 4 ID: 1

Режим чтения : Достоверность
Использование точного потока : Да
Отключение кэша аудио : Да
Использование указателей C2 : Нет

Коррекция смещения при чтении : 667
Способность читать области Lead-in и Lead-out : Нет
Заполнение пропущенных сэмплов тишиной : Да
Удаление блоков с тишиной в начале и конце : Нет
При вычислениях CRC использовались нулевые сэмплы : Да
Интерфейс : Установленный внешний ASPI-интерфейс

Выходной формат : Внутренние WAV-операции
Формат сэмплов : 44.100 Гц; 16 бит; стерео

TOC извлечённого CD

Трек | Старт | Длительность | Начальный сектор | Конечный сектор
---------------------------------------------------------------------
1 | 0:00.00 | 7:43.42 | 0 | 34766
2 | 7:43.42 | 5:20.40 | 34767 | 58806
3 | 13:04.07 | 6:09.35 | 58807 | 86516
4 | 19:13.42 | 4:30.57 | 86517 | 106823
5 | 23:44.24 | 4:35.59 | 106824 | 127507
6 | 28:20.08 | 5:41.74 | 127508 | 153156
7 | 34:02.07 | 4:18.15 | 153157 | 172521
8 | 38:20.22 | 5:33.62 | 172522 | 197558
9 | 43:54.09 | 4:56.65 | 197559 | 219823
10 | 48:50.74 | 6:08.29 | 219824 | 247452

Характеристики диапазона извлечения и сообщения об ошибках

Выбранный диапазон

Имя файла F:\µTorrent Downloads\MY TORRENT\Cirque du Soleil\2004-Solarium~Delirium\Cirque Du Soleil - Solarium (Chill Remix).wav

Пиковый уровень 99.8 %
Качество диапазона 99.9 %
CRC теста 41C79E9D
CRC копии 41C79E9D
Копирование... OK

Ошибок не произошло

AccurateRip: сводка

Трек 1 точное извлечение (доверие 5) [8C6C6DC1]
Трек 2 точное извлечение (доверие 5) [31A43E73]
Трек 3 точное извлечение (доверие 5) [A57CB4EF]
Трек 4 точное извлечение (доверие 5) [4E4AAC9F]
Трек 5 точное извлечение (доверие 5) [BBC43E51]
Трек 6 точное извлечение (доверие 5) [602AC5A1]
Трек 7 точное извлечение (доверие 5) [0EC6AD14]
Трек 8 точное извлечение (доверие 5) [46FFA956]
Трек 9 точное извлечение (доверие 5) [EA17A173]
Трек 10 точное извлечение (доверие 5) [5C13E1BD]

Все треки извлечены точно

Конец отчёта
Delirium (Dance Remix) length: 1 hour 2 minutes 7 seconds
1. Cirque Du Soleil - Emballa (Louie Vega featuring Jaffa "Album Mix") (6:22)
2. Cirque Du Soleil - Querer (Julien Jabre Remix) (6:05)
3. Cirque Du Soleil - Kumbalawé (Roger Sanchez Release Mix) (7:51)
4. Cirque Du Soleil - Aborigenes Jam (François K / Eric Kupper "Vocal Mix") (6:42)
5. Cirque Du Soleil - Pokinoï (Sasha Remix) (6:41)
6. Cirque Du Soleil - Africa (Quicksound / Alain Vinet Remix) (8:48)
7. Cirque Du Soleil - Terre Aride (Jori Hulkkonen Remix) (6:10)
8. Cirque Du Soleil - Spiritual Spiral (Carmen Rizzo Remix) (6:44)
9. Cirque Du Soleil - Mer Noire (Tiësto Remix) (6:44)
Exact Audio Copy V0.99 prebeta 4 from 23. January 2008

Отчёт EAC об извлечении, выполненном 5. июня 2008, 10:40

Cirque du Soleil / Delirium (Dance Remix)

Дисковод: HL-DT-STDVDRAM GSA-E10L Adapter: 4 ID: 1

Режим чтения : Достоверность
Использование точного потока : Да
Отключение кэша аудио : Да
Использование указателей C2 : Нет

Коррекция смещения при чтении : 667
Способность читать области Lead-in и Lead-out : Нет
Заполнение пропущенных сэмплов тишиной : Да
Удаление блоков с тишиной в начале и конце : Нет
При вычислениях CRC использовались нулевые сэмплы : Да
Интерфейс : Установленный внешний ASPI-интерфейс

Выходной формат : Внутренние WAV-операции
Формат сэмплов : 44.100 Гц; 16 бит; стерео

TOC извлечённого CD

Трек | Старт | Длительность | Начальный сектор | Конечный сектор
---------------------------------------------------------------------
1 | 0:00.00 | 6:22.46 | 0 | 28695
2 | 6:22.46 | 6:05.04 | 28696 | 56074
3 | 12:27.50 | 7:51.66 | 56075 | 91465
4 | 20:19.41 | 6:42.40 | 91466 | 121655
5 | 27:02.06 | 6:41.05 | 121656 | 151735
6 | 33:43.11 | 8:48.13 | 151736 | 191348
7 | 42:31.24 | 6:10.17 | 191349 | 219115
8 | 48:41.41 | 6:44.18 | 219116 | 249433
9 | 55:25.59 | 6:44.12 | 249434 | 279745

Характеристики диапазона извлечения и сообщения об ошибках

Выбранный диапазон

Имя файла F:\µTorrent Downloads\MY TORRENT\Cirque du Soleil\2004-Solarium~Delirium\Cirque du Soleil - Delirium (Dance Remix).wav

Пиковый уровень 100.0 %
Качество диапазона 100.0 %
CRC теста 05099F94
CRC копии 05099F94
Копирование... OK

Ошибок не произошло

AccurateRip: сводка

Трек 1 точное извлечение (доверие 6) [1724DEBF]
Трек 2 точное извлечение (доверие 6) [BEDEE97D]
Трек 3 точное извлечение (доверие 6) [F3B404C5]
Трек 4 точное извлечение (доверие 6) [9A0061ED]
Трек 5 точное извлечение (доверие 6) [F24A1A32]
Трек 6 точное извлечение (доверие 6) [DD5B60EE]
Трек 7 точное извлечение (доверие 6) [68BE51CB]
Трек 8 точное извлечение (доверие 6) [827B8C0E]
Трек 9 точное извлечение (доверие 6) [6EA5876A]

Все треки извлечены точно

Конец отчёта
length: 57 minutes 36 seconds
1. Cirque Du Soleil - O Makunde (3:06)
2. Cirque Du Soleil - Pageant (2:44)
3. Cirque Du Soleil - Koudamare (3:49)
4. Cirque Du Soleil - Storm (4:15)
5. Cirque Du Soleil - Deep (2:30)
6. Cirque Du Soleil - Shadowplay (3:46)
7. Cirque Du Soleil - Pursuit (5:55)
8. Cirque Du Soleil - Forest (4:16)
9. Cirque Du Soleil - Flight (2:24)
10. Cirque Du Soleil - Threat (3:59)
11. Cirque Du Soleil - Love Dance (3:34)
12. Cirque Du Soleil - Battlefield (4:12)
13. Cirque Du Soleil - Aftermath (2:17)
14. Cirque Du Soleil - If I Could Reach Your Heart (3:33)
15. Cirque Du Soleil - We've Been Waiting So Long (3:28)
16. Cirque Du Soleil - Reach For Me Now (3:48)
Exact Audio Copy V0.99 prebeta 4 from 23. January 2008

Отчёт EAC об извлечении, выполненном 30. мая 2008, 19:03

Cirque du Soleil / KA

Дисковод: HL-DT-STDVDRAM GSA-E10L Adapter: 4 ID: 1

Режим чтения : Достоверность
Использование точного потока : Да
Отключение кэша аудио : Да
Использование указателей C2 : Нет

Коррекция смещения при чтении : 667
Способность читать области Lead-in и Lead-out : Нет
Заполнение пропущенных сэмплов тишиной : Да
Удаление блоков с тишиной в начале и конце : Нет
При вычислениях CRC использовались нулевые сэмплы : Да
Интерфейс : Установленный внешний ASPI-интерфейс

Выходной формат : Внутренние WAV-операции
Формат сэмплов : 44.100 Гц; 16 бит; стерео

TOC извлечённого CD

Трек | Старт | Длительность | Начальный сектор | Конечный сектор
---------------------------------------------------------------------
1 | 0:00.00 | 3:06.65 | 0 | 14014
2 | 3:06.65 | 2:44.41 | 14015 | 26355
3 | 5:51.31 | 3:49.74 | 26356 | 43604
4 | 9:41.30 | 4:15.45 | 43605 | 62774
5 | 13:57.00 | 2:30.33 | 62775 | 74057
6 | 16:27.33 | 3:46.50 | 74058 | 91057
7 | 20:14.08 | 5:55.55 | 91058 | 117737
8 | 26:09.63 | 4:16.51 | 117738 | 136988
9 | 30:26.39 | 2:24.53 | 136989 | 147841
10 | 32:51.17 | 3:59.27 | 147842 | 165793
11 | 36:50.44 | 3:34.64 | 165794 | 181907
12 | 40:25.33 | 4:12.01 | 181908 | 200808
13 | 44:37.34 | 2:17.68 | 200809 | 211151
14 | 46:55.27 | 3:33.42 | 211152 | 227168
15 | 50:28.69 | 3:28.40 | 227169 | 242808
16 | 53:57.34 | 3:48.44 | 242809 | 259952

Характеристики диапазона извлечения и сообщения об ошибках

Выбранный диапазон

Имя файла F:\µTorrent Downloads\MY TORRENT\Cirque du Soleil\2005-KA\Cirque du Soleil - KA.wav

Пиковый уровень 98.8 %
Качество диапазона 100.0 %
CRC теста 1F0696C3
CRC копии 1F0696C3
Копирование... OK

Ошибок не произошло

AccurateRip: сводка

Трек 1 точное извлечение (доверие 8) [792C4E24]
Трек 2 точное извлечение (доверие 8) [9B209B1B]
Трек 3 точное извлечение (доверие 8) [58D723C2]
Трек 4 точное извлечение (доверие 8) [D63173CF]
Трек 5 точное извлечение (доверие 8) [5EC4319C]
Трек 6 точное извлечение (доверие 8) [E4F87E21]
Трек 7 точное извлечение (доверие 8) [BFDB6771]
Трек 8 точное извлечение (доверие 8) [25FAF153]
Трек 9 точное извлечение (доверие 8) [E9C5AFD1]
Трек 10 точное извлечение (доверие 8) [138347B9]
Трек 11 точное извлечение (доверие 8) [A1779E1A]
Трек 12 точное извлечение (доверие 8) [33092095]
Трек 13 точное извлечение (доверие 8) [3CE06335]
Трек 14 точное извлечение (доверие 8) [FF53DC90]
Трек 15 точное извлечение (доверие 8) [FFE65A97]
Трек 16 точное извлечение (доверие 8) [89FCCC8A]

Все треки извлечены точно

Конец отчёта
length: 56 minutes 10 seconds
1. Cirque Du Soleil - Funerale (0:53)
2. Cirque Du Soleil - Ritornare (4:03)
3. Cirque Du Soleil - Reve D'Un Pantin (4:58)
4. Cirque Du Soleil - Les Chevaux A Bottes (0:56)
5. Cirque Du Soleil - Nos Dejo (4:24)
6. Cirque Du Soleil - Alezmer Moment (4:11)
7. Cirque Du Soleil - Prendersi Per Mano (5:09)
8. Cirque Du Soleil - Anneaux (5:43)
9. Cirque Du Soleil - El Cielo Sabra (5:19)
10. Cirque Du Soleil - Fugire (0:35)
11. Cirque Du Soleil - Volo Volando (4:34)
12. Cirque Du Soleil - Un Tierno Y Dulce Chau (0:48)
13. Cirque Du Soleil - Balade Au Bout D'Une Echelle (4:08)
14. Cirque Du Soleil - Garda Lassu (0:48)
15. Cirque Du Soleil - Triangle Tango (4:41)
16. Cirque Du Soleil - Che Finalone (5:00)
Exact Audio Copy V0.99 prebeta 4 from 23. January 2008

Отчёт EAC об извлечении, выполненном 6. ноября 2008, 23:07

Cirque du Soleil / Corteo

Дисковод: HL-DT-STDVDRAM GSA-E10L Adapter: 4 ID: 0

Режим чтения : Достоверность
Использование точного потока : Да
Отключение кэша аудио : Нет
Использование указателей C2 : Нет

Коррекция смещения при чтении : 667
Способность читать области Lead-in и Lead-out : Нет
Заполнение пропущенных сэмплов тишиной : Да
Удаление блоков с тишиной в начале и конце : Нет
При вычислениях CRC использовались нулевые сэмплы : Да
Интерфейс : Установленный внешний ASPI-интерфейс

Выходной формат : Внутренние WAV-операции
Формат сэмплов : 44.100 Гц; 16 бит; стерео

TOC извлечённого CD

Трек | Старт | Длительность | Начальный сектор | Конечный сектор
---------------------------------------------------------------------
1 | 0:00.00 | 0:53.73 | 0 | 4047
2 | 0:53.73 | 4:03.65 | 4048 | 22337
3 | 4:57.63 | 4:58.39 | 22338 | 44726
4 | 9:56.27 | 0:56.70 | 44727 | 48996
5 | 10:53.22 | 4:24.28 | 48997 | 68824
6 | 15:17.50 | 4:11.58 | 68825 | 87707
7 | 19:29.33 | 5:09.05 | 87708 | 110887
8 | 24:38.38 | 5:43.27 | 110888 | 136639
9 | 30:21.65 | 5:19.04 | 136640 | 160568
10 | 35:40.69 | 0:35.05 | 160569 | 163198
11 | 36:15.74 | 4:34.57 | 163199 | 183805
12 | 40:50.56 | 0:48.11 | 183806 | 187416
13 | 41:38.67 | 4:08.03 | 187417 | 206019
14 | 45:46.70 | 0:48.57 | 206020 | 209676
15 | 46:35.52 | 4:41.42 | 209677 | 230793
16 | 51:17.19 | 5:00.57 | 230794 | 253350

Характеристики диапазона извлечения и сообщения об ошибках

Выбранный диапазон

Имя файла F:\µTorrent Downloads\MY TORRENT\Cirque du Soleil\2008-Corteo\Cirque du Soleil - Corteo.wav

Пиковый уровень 98.8 %
Качество диапазона 100.0 %
CRC теста 3DEB9C86
CRC копии 3DEB9C86
Копирование... OK

Ошибок не произошло

AccurateRip: сводка

Трек 1 точное извлечение (доверие 5) [92473FF3]
Трек 2 точное извлечение (доверие 5) [32944803]
Трек 3 точное извлечение (доверие 5) [98EE4E92]
Трек 4 точное извлечение (доверие 5) [2B58FFF1]
Трек 5 точное извлечение (доверие 5) [03362D60]
Трек 6 точное извлечение (доверие 5) [9519003E]
Трек 7 точное извлечение (доверие 5) [AC076B2F]
Трек 8 точное извлечение (доверие 5) [BD791BC0]
Трек 9 точное извлечение (доверие 5) [4E251679]
Трек 10 точное извлечение (доверие 5) [AF77C873]
Трек 11 точное извлечение (доверие 5) [CCE385A9]
Трек 12 точное извлечение (доверие 5) [907C1457]
Трек 13 точное извлечение (доверие 5) [A68212B8]
Трек 14 точное извлечение (доверие 5) [88827B6A]
Трек 15 точное извлечение (доверие 5) [357D4EBB]
Трек 16 точное извлечение (доверие 4) [5768F1AA]

Все треки извлечены точно

Конец отчёта
length: 1 hour 4 minutes 2 seconds
1. Cirque Du Soleil - Cold Flame (3:44)
2. Cirque Du Soleil - Slipping Away (3:46)
3. Cirque Du Soleil - Someone (3:26)
4. Cirque Du Soleil - Too High (3:30)
5. Cirque Du Soleil - Walk On Water (5:12)
6. Cirque Du Soleil - Alone (4:28)
7. Cirque Du Soleil - Climb (6:29)
8. Cirque Du Soleil - La Nova Alegria (4:05)
9. Cirque Du Soleil - Lifeline (3:51)
10. Cirque Du Soleil - Bridge Of Sorrow (4:00)
11. Cirque Du Soleil - One Love (3:18)
12. Cirque Du Soleil - Let Me Fall (5:07)
13. Cirque Du Soleil - Time To Go (4:09)
14. Cirque Du Soleil - Time Flies (5:16)
15. Cirque Du Soleil - Sans Toi (3:41)
Exact Audio Copy V0.99 prebeta 4 from 23. January 2008

Отчёт EAC об извлечении, выполненном 4. июня 2008, 20:53

Cirque du Soleil / Delirium

Дисковод: HL-DT-STDVDRAM GSA-E10L Adapter: 7 ID: 1

Режим чтения : Достоверность
Использование точного потока : Да
Отключение кэша аудио : Да
Использование указателей C2 : Нет

Коррекция смещения при чтении : 667
Способность читать области Lead-in и Lead-out : Нет
Заполнение пропущенных сэмплов тишиной : Да
Удаление блоков с тишиной в начале и конце : Нет
При вычислениях CRC использовались нулевые сэмплы : Да
Интерфейс : Установленный внешний ASPI-интерфейс

Выходной формат : Внутренние WAV-операции
Формат сэмплов : 44.100 Гц; 16 бит; стерео

TOC извлечённого CD

Трек | Старт | Длительность | Начальный сектор | Конечный сектор
---------------------------------------------------------------------
1 | 0:00.00 | 3:44.62 | 0 | 16861
2 | 3:44.62 | 3:46.01 | 16862 | 33812
3 | 7:30.63 | 3:26.68 | 33813 | 49330
4 | 10:57.56 | 3:30.73 | 49331 | 65153
5 | 14:28.54 | 5:12.38 | 65154 | 88591
6 | 19:41.17 | 4:28.02 | 88592 | 108693
7 | 24:09.19 | 6:29.66 | 108694 | 137934
8 | 30:39.10 | 4:05.62 | 137935 | 156371
9 | 34:44.72 | 3:51.54 | 156372 | 173750
10 | 38:36.51 | 4:00.57 | 173751 | 191807
11 | 42:37.33 | 3:18.30 | 191808 | 206687
12 | 45:55.63 | 5:07.33 | 206688 | 229745
13 | 51:03.21 | 4:09.55 | 229746 | 248475
14 | 55:13.01 | 5:16.26 | 248476 | 272201
15 | 60:29.27 | 3:41.72 | 272202 | 288848

Характеристики диапазона извлечения и сообщения об ошибках

Выбранный диапазон

Имя файла F:\µTorrent Downloads\MY TORRENT\Cirque du Soleil\2006-Delirium\Cirque du Soleil - Delirium.wav

Пиковый уровень 100.0 %
Качество диапазона 99.9 %
CRC теста D548BB18
CRC копии D548BB18
Копирование... OK

Ошибок не произошло

AccurateRip: сводка

Трек 1 точное извлечение (доверие 1) [B6D66C32]
Трек 2 точное извлечение (доверие 1) [4B758D51]
Трек 3 точное извлечение (доверие 1) [9A901CE5]
Трек 4 точное извлечение (доверие 1) [6A56200A]
Трек 5 точное извлечение (доверие 1) [C137BF88]
Трек 6 точное извлечение (доверие 1) [9F0EA6F9]
Трек 7 точное извлечение (доверие 1) [C541F8D2]
Трек 8 точное извлечение (доверие 1) [63B1A8FC]
Трек 9 точное извлечение (доверие 1) [C2B81488]
Трек 10 точное извлечение (доверие 1) [683E30E6]
Трек 11 точное извлечение (доверие 1) [582C43D7]
Трек 12 точное извлечение (доверие 1) [E5A77EE6]
Трек 13 точное извлечение (доверие 1) [711CFB03]
Трек 14 точное извлечение (доверие 1) [2A86817A]
Трек 15 точное извлечение (доверие 1) [0A99130F]

Все треки извлечены точно

Конец отчёта
length: 1 hour 8 minutes 20 seconds
1. Cirque Du Soleil - Kooza Dance (3:29)
2. Cirque Du Soleil - Superstar I (2:26)
3. Cirque Du Soleil - L'innocent (5:49)
4. Cirque Du Soleil - Royaume (3:39)
5. Cirque Du Soleil - Junoon (5:31)
6. Cirque Du Soleil - Alambre Alto (4:59)
7. Cirque Du Soleil - 16-Papillon (5:07)
8. Cirque Du Soleil - Pearl (4:07)
9. Cirque Du Soleil - Cabaret Sata (3:13)
10. Cirque Du Soleil - Aankh Micholi (4:27)
11. Cirque Du Soleil - Diables (3:36)
12. Cirque Du Soleil - El Péndulo De La Muerte (3:02)
13. Cirque Du Soleil - Petit-Jaune (1:42)
14. Cirque Du Soleil - Superstar II (3:23)
15. Cirque Du Soleil - Imposteur (1:21)
16. Cirque Du Soleil - Prarthana (4:49)
17. Cirque Du Soleil - Don't Be Afraid (3:45)
18. Cirque Du Soleil - Hum Jaisa Na Dekha (3:55)
Exact Audio Copy V0.99 prebeta 4 from 23. January 2008

Отчёт EAC об извлечении, выполненном 6. ноября 2008, 22:22

Cirque du Soleil / KOOZA

Дисковод: HL-DT-STDVDRAM GSA-E10L Adapter: 4 ID: 0

Режим чтения : Достоверность
Использование точного потока : Да
Отключение кэша аудио : Нет
Использование указателей C2 : Нет

Коррекция смещения при чтении : 667
Способность читать области Lead-in и Lead-out : Нет
Заполнение пропущенных сэмплов тишиной : Да
Удаление блоков с тишиной в начале и конце : Нет
При вычислениях CRC использовались нулевые сэмплы : Да
Интерфейс : Установленный внешний ASPI-интерфейс

Выходной формат : Внутренние WAV-операции
Формат сэмплов : 44.100 Гц; 16 бит; стерео

TOC извлечённого CD

Трек | Старт | Длительность | Начальный сектор | Конечный сектор
---------------------------------------------------------------------
1 | 0:00.00 | 3:29.21 | 0 | 15695
2 | 3:29.21 | 2:26.47 | 15696 | 26692
3 | 5:55.68 | 5:49.56 | 26693 | 52923
4 | 11:45.49 | 3:39.54 | 52924 | 69402
5 | 15:25.28 | 5:31.08 | 69403 | 94235
6 | 20:56.36 | 4:59.44 | 94236 | 116704
7 | 25:56.05 | 5:07.58 | 116705 | 139787
8 | 31:03.63 | 4:07.17 | 139788 | 158329
9 | 35:11.05 | 3:13.16 | 158330 | 172820
10 | 38:24.21 | 4:27.45 | 172821 | 192890
11 | 42:51.66 | 3:36.37 | 192891 | 209127
12 | 46:28.28 | 3:02.32 | 209128 | 222809
13 | 49:30.60 | 1:42.49 | 222810 | 230508
14 | 51:13.34 | 3:23.21 | 230509 | 245754
15 | 54:36.55 | 1:21.17 | 245755 | 251846
16 | 55:57.72 | 4:49.60 | 251847 | 273581
17 | 60:47.57 | 3:45.41 | 273582 | 290497
18 | 64:33.23 | 3:55.38 | 290498 | 308160

Характеристики диапазона извлечения и сообщения об ошибках

Выбранный диапазон

Имя файла F:\µTorrent Downloads\MY TORRENT\Cirque du Soleil\2008-KOOZA\Cirque du Soleil - KOOZA.wav

Пиковый уровень 100.0 %
Качество диапазона 100.0 %
CRC теста 76774437
CRC копии 76774437
Копирование... OK

Ошибок не произошло

AccurateRip: сводка

Трек 1 точное извлечение (доверие 2) [4C84502F]
Трек 2 точное извлечение (доверие 2) [BF537ACA]
Трек 3 точное извлечение (доверие 2) [6FC45CA5]
Трек 4 точное извлечение (доверие 2) [C6B5DC84]
Трек 5 точное извлечение (доверие 2) [827A93B8]
Трек 6 точное извлечение (доверие 2) [BD5DE356]
Трек 7 точное извлечение (доверие 2) [C96DDF7C]
Трек 8 точное извлечение (доверие 2) [6737085C]
Трек 9 точное извлечение (доверие 2) [1454F5C4]
Трек 10 точное извлечение (доверие 2) [B82888DF]
Трек 11 точное извлечение (доверие 2) [13496769]
Трек 12 точное извлечение (доверие 2) [2D4B6F77]
Трек 13 точное извлечение (доверие 2) [C00ADC62]
Трек 14 точное извлечение (доверие 2) [93F62144]
Трек 15 точное извлечение (доверие 2) [C304256C]
Трек 16 точное извлечение (доверие 2) [45B5568F]
Трек 17 точное извлечение (доверие 2) [82CC779F]
Трек 18 точное извлечение (доверие 2) [AB7E0948]

Все треки извлечены точно

Конец отчёта


Трекер:  [ 07-Июл-2011 22:26 ]

  

Скачать .torrent

Размер .torrent файла 48 KB


Размер: 6.11 GB
Хэш (hash) релиза: 0050ade20023d57aa18fcc4664c2d8c0aebe7358

Торренты, похожие на Cirque du Soleil скачать торрент

Форум Название Автор Размер S L Добавлен
Саундтреки к фильмам и мультфильмам (lossless) ·· (Score) Cirque du Soleil - Quidam (Benoit Jutras) - 2001, FLAC (tracks+.cue), lossless Galfimbul 496178837473 MB 0 0 1467547999

15:13

3-Июл-16

Саундтреки к фильмам и мультфильмам (lossless) ·· (Soundtrack / Score) Cirque Du Soleil - Amaluna - 2012, FLAC (tracks), lossless Galfimbul 406591630388 MB 0 0 1361757821

05:03

25-Фев-13

Саундтреки ·· (Soundtrack) Cirque Du Soleil - Amaluna - 2012, FLAC (tracks), lossless Galfimbul 406238816387 MB 0 0 1356622500

18:35

27-Дек-12

Саундтреки ·· (Soundtrack) Cirque Du Soleil - Amaluna - 2012, MP3, V0 Galfimbul 122847241117 MB 0 0 1356814080

23:48

29-Дек-12

Саундтреки ·· (Score) IRIS: Cirque du Soleil (by Danny Elfman) - 2011, FLAC (tracks+.cue), lossless Umakiro 414836006396 MB 0 0 1340106180

14:43

19-Июн-12

Саундтреки к фильмам и мультфильмам (mp3) ·· (Soundtrack) Cirque Du Soleil: Saltimbanco (Rene Dupere) - 2007, MP3 (tracks), 128 kbps Galfimbul 5789445755 MB 0 0 1328193104

17:31

2-Фев-12

Саундтреки к фильмам и мультфильмам (lossless) ·· (Soundtrack) Cirque Du Soleil - Saltimbanco (USA) - 1992, APE (image+.cue), lossless Колян 363575622347 MB 0 0 1292270631

23:03

13-Дек-10

Саундтреки к фильмам и мультфильмам (lossless) ·· (Soundtrack) Cirque Du Soleil - Zumanity - 2004, FLAC (tracks+.cue), lossless Galfimbul 472540865451 MB 0 0 1292268752

22:32

13-Дек-10

Саундтреки к фильмам и мультфильмам (lossless) ·· (Soundtrack) Cirque Du Soleil - 25 (The 25th Anniversary 2-Disc Collection) - 2009, FLAC (tracks+.cue), lossless Galfimbul 763851380728 MB 0 0 1292268579

22:29

13-Дек-10

Саундтреки к фильмам и мультфильмам (lossless) ·· (Soundtrack) Цирк дю Солей: Кортео / Cirque du Soleil: Corteo - 2009 (2005), FLAC (image+.cue), lossless AqvaGen 364328004347 MB 0 0 1292268443

22:27

13-Дек-10

Саундтреки к фильмам и мультфильмам (mp3) ·· (Soundtrack) Cirque du soleil. Delirium - 2007, MP3, 320 kbps Galfimbul 155083344148 MB 0 0 1292266433

21:53

13-Дек-10

Саундтреки к фильмам и мультфильмам (mp3) ·· (Score) Cirque Du Soleil - Zaia (Violaine Corradi) - 2009, MP3 (tracks), 192 kbps Galfimbul 108217824103 MB 0 0 1292265854

21:44

13-Дек-10

Саундтреки к фильмам и мультфильмам (mp3) ·· (Soundtrack) Le Best Of Cirque Du Soleil - 2005, MP3 (tracks), 320 kbps Galfimbul 136921116131 MB 0 0 1292265771

21:42

13-Дек-10

Саундтреки к фильмам и мультфильмам (mp3) ·· (Score) Benoit Jutras (Cirque Du Soleil) - Le Rêve / Le Reve / Сон - 2007, MP3 (tracks), 128 kbps Солнышко 6089782458 MB 0 0 1292265676

21:41

13-Дек-10

Саундтреки к фильмам и мультфильмам (mp3) ·· (Score) Цирк Солнца: Радость / Cirque du Soleil: Alegria (Rene Dupere) - 2005, MP3 (tracks), 320 kbps Galfimbul 159082230152 MB 0 0 1292265458

21:37

13-Дек-10

Саундтреки к фильмам и мультфильмам (mp3) ·· (Score) Цирк солнца: Яйцо / Cirque du Soleil: Ovo (by Berna Ceppas) - 2010, MP3 (tracks), 192 kbps AqvaGen 106403587101 MB 0 0 1292265270

21:34

13-Дек-10

Саундтреки к фильмам и мультфильмам (mp3) ·· (Soundtrack/Discography) Цирк Солнца / Cirque Du Soleil - 1987-2009, MP3, 320 kbps Phoenix 41768330763.89 GB 0 0 1292265013

21:30

13-Дек-10

Еще никто не оставлял запись к записи скачать торрент Cirque du Soleil . Будь первым!

!Обратная связь