Скачать через торрент музыку John Murphy & VA - 28 Days Later - The Soundtrack Album бесплатно без регистрации torrent

Если у вас наблюдаются проблемы со скриншотами, переходом по ссылками, скачиванием торрентов - проблемы в блокировщике рекламы AdBlock. #хорошегоДня!


Статистика раздачи
Размер:  323 MB   |    Зарегистрирован:  6 лет 5 месяцев   |    .torrent скачан:  76 раз   |   
Раздают:  1  
   
Загрузка...
 
Автор Сообщение

Galfimbul

avatar Galfimbul


28 Days Later - The Soundtrack Album

Композитор: John Murphy
Жанр: Electronic, Rock, Alternative Rock, Progressive House, Downtempo, Big Beat, Ambient
Дата релиза: 17 Jun 2003
Производитель диска: US, XL Recordings
Формат: CD, Album, Enhanced, Digipak
Аудио кодек: FLAC
Тип рипа: tracks+.cue
Битрейт аудио: avg. 714 kbps, lossless
Продолжительность: 58:54
Трэклист:
01. John Murphy - The Beginning (02:56)
02. John Murphy - Rage (01:22)
03. John Murphy - The Church (01:17)
04. John Murphy - Jim's Parents (Abide With Me) (02:29) Featuring Perri Alleyne
05. John Murphy - Then There Were 2 (00:43)
06. John Murphy - Tower Block (01:26)
07. John Murphy - Taxi (Ave Maria) (02:09) Featuring Perri Alleyne
08. John Murphy - The Tunnel (01:40)
09. Grandaddy - A.M. 180 (03:20)
10. Brian Eno - An Ending (Ascent) (04:17)
11. John Murphy - No More Films (00:48)
12. John Murphy - Jim's Dream (00:40)
13. John Murphy - In Paradisum (02:12) Featuring The Choir of Trinity College of Cambridge
14. John Murphy - Frank's Death - Soldiers (Requiem in D Minor) (02:39)
15. John Murphy - 'I Promised Them Women' (01:24)
16. John Murphy - The Search for Jim (02:42)
17. John Murphy - Red Dresses (00:49)
18. John Murphy - In the House - In a Heartbeat (04:17)
19. John Murphy - The End (01:55)
20. Blue States - Season Song (04:12)
21. John Murphy - End Credits (01:47)
US Bonus Tracks
22. Blue States - Season Song (Rui Da Silva Remix) (07:38)
23. Charles Gonoud (J.S. Bach) - Taxi (Ave Maria) (Jacknife Lee Remix) (06:15) Featuring Perri Alleyne
 
EAC extraction logfile from 17. March 2007, 22:28 for CDVarious Artists / 28 Days Later

Used drive : SONY DVD RW DRU-710A Adapter: 1 ID: 0Read mode : Secure with NO C2, accurate stream, disable cacheRead offset correction : 12Overread into Lead-In and Lead-Out : No

Used output format : C:\Program Files\Exact Audio Copy\flac.exe (User Defined Encoder) 192 kBit/s Additional command line options : -8 -A tukey(0.25) -A gauss(0.1875) -b 4096 -V -T "artist=%a" -T "title=%t" -T "album=%g" -T "date=%y" -T "tracknumber=%n" -T "genre=%m" %s --sector-align

Other options : Fill up missing offset samples with silence : Yes Delete leading and trailing silent blocks : No Installed external ASPI interface

Track 1 Filename F:\My OiNK torrents\Various Artists - 28 Days Later\01 - The Beginning.wav

Pre-gap length 0:00:02.00

Peak level 100.0 % Track quality 100.0 % Test CRC 335E9870 Copy CRC 335E9870 Copy OK

Track 2 Filename F:\My OiNK torrents\Various Artists - 28 Days Later\02 - Rage.wav

Peak level 100.0 % Track quality 100.0 % Test CRC 4B331D6D Copy CRC 4B331D6D Copy OK

Track 3 Filename F:\My OiNK torrents\Various Artists - 28 Days Later\03 - The Church.wav

Peak level 19.1 % Track quality 100.0 % Test CRC 28BCE4C0 Copy CRC 28BCE4C0 Copy OK

Track 4 Filename F:\My OiNK torrents\Various Artists - 28 Days Later\04 - Jim's Parents (Abide With Me).wav

Peak level 65.4 % Track quality 100.0 % Test CRC 86962B37 Copy CRC 86962B37 Copy OK

Track 5 Filename F:\My OiNK torrents\Various Artists - 28 Days Later\05 - Then There Were 2.wav

Peak level 16.5 % Track quality 99.7 % Test CRC 8BBCB34F Copy CRC 8BBCB34F Copy OK

Track 6 Filename F:\My OiNK torrents\Various Artists - 28 Days Later\06 - Tower Block.wav

Peak level 100.0 % Track quality 100.0 % Test CRC F7157FC9 Copy CRC F7157FC9 Copy OK

Track 7 Filename F:\My OiNK torrents\Various Artists - 28 Days Later\07 - Taxi (Ave Maria).wav

Peak level 99.9 % Track quality 100.0 % Test CRC 1CF5A013 Copy CRC 1CF5A013 Copy OK

Track 8 Filename F:\My OiNK torrents\Various Artists - 28 Days Later\08 - The Tunnel.wav

Peak level 100.0 % Track quality 99.8 % Test CRC 3BC9F1BB Copy CRC 3BC9F1BB Copy OK

Track 9 Filename F:\My OiNK torrents\Various Artists - 28 Days Later\09 - A.M. 180.wav

Peak level 100.0 % Track quality 100.0 % Test CRC A50E849D Copy CRC A50E849D Copy OK

Track 10 Filename F:\My OiNK torrents\Various Artists - 28 Days Later\10 - An Ending (Ascent).wav

Peak level 68.6 % Track quality 100.0 % Test CRC 331EB115 Copy CRC 331EB115 Copy OK

Track 11 Filename F:\My OiNK torrents\Various Artists - 28 Days Later\11 - No More Films.wav

Pre-gap length 0:00:00.50

Peak level 74.3 % Track quality 100.0 % Test CRC 4040FFE7 Copy CRC 4040FFE7 Copy OK

Track 12 Filename F:\My OiNK torrents\Various Artists - 28 Days Later\12 - Jim's Dream.wav

Peak level 67.6 % Track quality 100.0 % Test CRC 44AD10F0 Copy CRC 44AD10F0 Copy OK

Track 13 Filename F:\My OiNK torrents\Various Artists - 28 Days Later\13 - In Paradisum.wav

Peak level 78.8 % Track quality 99.9 % Test CRC 2A800F78 Copy CRC 2A800F78 Copy OK

Track 14 Filename F:\My OiNK torrents\Various Artists - 28 Days Later\14 - Frank's Death - Soldiers (Requiem in D Minor).wav

Peak level 100.0 % Track quality 100.0 % Test CRC F97AED56 Copy CRC F97AED56 Copy OK

Track 15 Filename F:\My OiNK torrents\Various Artists - 28 Days Later\15 - 'I Promised Them Women'.wav

Peak level 50.9 % Track quality 100.0 % Test CRC 7605F788 Copy CRC 7605F788 Copy OK

Track 16 Filename F:\My OiNK torrents\Various Artists - 28 Days Later\16 - The Search for Jim.wav

Peak level 95.3 % Track quality 100.0 % Test CRC B4FD88BE Copy CRC B4FD88BE Copy OK

Track 17 Filename F:\My OiNK torrents\Various Artists - 28 Days Later\17 - Red Dresses.wav

Peak level 55.7 % Track quality 100.0 % Test CRC 393E27C1 Copy CRC 393E27C1 Copy OK

Track 18 Filename F:\My OiNK torrents\Various Artists - 28 Days Later\18 - In the House - In a Heartbeat.wav

Peak level 94.1 % Track quality 100.0 % Test CRC 2242222C Copy CRC 2242222C Copy OK

Track 19 Filename F:\My OiNK torrents\Various Artists - 28 Days Later\19 - The End.wav

Pre-gap length 0:00:00.49

Peak level 75.5 % Track quality 100.0 % Test CRC 72E6EB1D Copy CRC 72E6EB1D Copy OK

Track 20 Filename F:\My OiNK torrents\Various Artists - 28 Days Later\20 - Season Song.wav

Pre-gap length 0:00:00.49

Peak level 100.0 % Track quality 100.0 % Test CRC B4821DB2 Copy CRC B4821DB2 Copy OK

Track 21 Filename F:\My OiNK torrents\Various Artists - 28 Days Later\21 - End Credits.wav

Peak level 99.4 % Track quality 100.0 % Test CRC B5E9B9D4 Copy CRC B5E9B9D4 Copy OK

No errors occured

End of status report
 
--------------------------------------------------------------------- John Murphy & VA - 28 Days Later---------------------------------------------------------------------

Label................: XL RecordingsCatalog#.............: XLCD 168Format...............: CD, Album, Enhanced, DigipakCountry..............: USReleased.............: 17 Jun 2003Genre................: Electronic, RockStyle................: Alternative Rock, Progressive House, Downtempo, Big Beat, AmbientNotes................: Tracks 22 & 23 are labeled "US Bonus Tracks".

Ripper...............: Exact Audio Copy (Secure mode) & SONY DVD RW DRU-710ACodec................: Free Lossless Audio Codec (FLAC)Version..............: reference libFLAC 1.1.2 20050205Quality..............: Lossless, (avg. compression: 49 %)Channels.............: Stereo / 44100 HZ / 16 BitTags.................: VorbisComment

Duration.............: 58:46Number of Songs......: 23Cover(s) Included....: Front, Back, Disc, Inside

--------------------------------------------------------------------- Tracklisting---------------------------------------------------------------------

01. (02:56) John Murphy - The Beginning02. (01:22) John Murphy - Rage03. (01:17) John Murphy - The Church04. (02:29) John Murphy - Jim's Parents (Abide With Me)05. (00:42) John Murphy - Then There Were 206. (01:26) John Murphy - Tower Block07. (02:09) John Murphy - Taxi (Ave Maria)08. (01:40) John Murphy - The Tunnel09. (03:20) Grandaddy - A.M. 18010. (04:17) Brian Eno - An Ending (Ascent)11. (00:48) John Murphy - No More Films12. (00:40) John Murphy - Jim's Dream13. (02:12) John Murphy - In Paradisum14. (02:39) John Murphy - Frank's Death - Soldiers (Requiem in D Minor)15. (01:24) John Murphy - 'I Promised Them Women'16. (02:41) John Murphy - The Search for Jim17. (00:49) John Murphy - Red Dresses18. (04:17) John Murphy - In the House - In a Heartbeat19. (01:55) John Murphy - The End20. (04:12) Blue States - Season Song21. (01:47) John Murphy - End Credits22. (07:38) Blue States - Season Song (Rui Da Silva Remix)23. (06:15) Charles Gonoud (J.S. Bach) - Taxi (Ave Maria) (Jacknife Lee Remix)

Playing Time.........: 00:58:46Total Size...........: 301.04 MB


Трекер:  [ 07-Июл-2011 22:24 ]

  

Скачать .torrent

Размер .torrent файла 15 KB


Размер: 323 MB
Хэш (hash) релиза: 80fb0f822eb66b719d795f94997b13133950523a

Еще никто не оставлял запись к записи скачать торрент John Murphy & VA - 28 Days Later - The Soundtrack Album . Будь первым!

!Обратная связь