Скачать через торрент музыку Пианино The Piano — Original Music from the Film by Jane Campion — Michael Nyman — 1993, FLAC бесплатно без регистрации torrent

Если у вас наблюдаются проблемы со скриншотами, переходом по ссылками, скачиванием торрентов - проблемы в блокировщике рекламы AdBlock. #хорошегоДня!


Статистика раздачи
Размер:  291 MB   |    Зарегистрирован:  6 лет 5 месяцев   |    .torrent скачан:  49 раз   |   
Раздают:  1  
   
Загрузка...
 
Автор Сообщение

Galfimbul

avatar Galfimbul


The Piano
Original Music from the Film by Jane Campion
composed by
Michael Nyman

Жанр: Score
Год выпуска диска: 1993
Производитель диска: Великобритания (Virgin Records)
Аудио кодек: FLAC
Тип рипа: tracks+.cue
Битрейт аудио: lossless
Продолжительность: 1:00:38
01. To The Edge Of The Earth 4:06
02.
Big My Secret 2:53
03.
A Wild And Distant Shore 5:52
04.
The Heart Asks Pleasure First 1:37
05.
Here To There 1:02
06.
The Promise 4:16
07.
A Bed Of Ferns 0:48
08.
The Fling 1:30
09.
The Scent Of Love 4:19
10.
Deep Into The Forest 3:01
11.
The Mood That Passes Through You 1:14
12.
Lost And Found 2:27
13.
The Embrace 2:37
14.
Little Impulse 2:13
15.
The Sacrifice 2:50
16.
I Clipped Your Wing 4:37
17.
The Wounded 2:30
18.
All Imperfect Things 4:04
19.
Dreams Of A Journey 5:32
20.
The Heart Asks Pleasure First / The Promise (Edit) 3:12
 
Exact Audio Copy V0.99 prebeta 4 from 23. January 2008

EAC extraction logfile from 26. January 2009, 13:58

Michael Nyman / The Piano (original music from the film by Jane Campion)

Used drive : PHILIPS PBDV1660P1 Adapter: 0 ID: 0

Read mode : SecureUtilize accurate stream : YesDefeat audio cache : YesMake use of C2 pointers : No

Read offset correction : 618Overread into Lead-In and Lead-Out : NoFill up missing offset samples with silence : YesDelete leading and trailing silent blocks : NoNull samples used in CRC calculations : YesUsed interface : Native Win32 interface for Win NT & 2000Gap handling : Appended to previous track

Used output format : User Defined EncoderSelected bitrate : 768 kBit/sQuality : HighAdd ID3 tag : NoCommand line compressor : C:\Program Files\Exact Audio Copy\FLAC\FLAC.EXEAdditional command line options : -V -8 -T "artist=%a" -T "title=%t" -T "album=%g" -T "date=%y" -T "tracknumber=%n" -T "genre=%m" %s

TOC of the extracted CD

Track | Start | Length | Start sector | End sector --------------------------------------------------------- 1 | 0:00.00 | 4:05.42 | 0 | 18416 2 | 4:05.42 | 2:52.50 | 18417 | 31366 3 | 6:58.17 | 5:52.23 | 31367 | 57789 4 | 12:50.40 | 1:36.42 | 57790 | 65031 5 | 14:27.07 | 1:02.08 | 65032 | 69689 6 | 15:29.15 | 4:16.37 | 69690 | 88926 7 | 19:45.52 | 0:48.30 | 88927 | 92556 8 | 20:34.07 | 1:29.43 | 92557 | 99274 9 | 22:03.50 | 4:18.55 | 99275 | 118679 10 | 26:22.30 | 3:01.25 | 118680 | 132279 11 | 29:23.55 | 1:13.50 | 132280 | 137804 12 | 30:37.30 | 2:27.00 | 137805 | 148829 13 | 33:04.30 | 2:37.07 | 148830 | 160611 14 | 35:41.37 | 2:12.53 | 160612 | 170564 15 | 37:54.15 | 2:50.15 | 170565 | 183329 16 | 40:44.30 | 4:36.45 | 183330 | 204074 17 | 45:21.00 | 2:30.07 | 204075 | 215331 18 | 47:51.07 | 4:03.58 | 215332 | 233614 19 | 51:54.65 | 5:31.55 | 233615 | 258494 20 | 57:26.45 | 3:11.65 | 258495 | 272884

Track 1

Filename 01 - To The Edge Of The Earth.wav

Pre-gap length 0:00:02.00

Peak level 54.0 % Track quality 100.0 % Test CRC 12F9CA3A Copy CRC 12F9CA3A Accurately ripped (confidence 9) [2984BD5A] Copy OK

Track 2

Filename 02 - Big My Secret.wav

Pre-gap length 0:00:01.73

Peak level 48.9 % Track quality 99.9 % Test CRC 9BAACB22 Copy CRC 9BAACB22 Accurately ripped (confidence 9) [A3D86B32] Copy OK

Track 3

Filename 03 - A Wild And Distant Shore.wav

Pre-gap length 0:00:02.16

Peak level 92.5 % Track quality 99.9 % Test CRC D1F84FEB Copy CRC D1F84FEB Accurately ripped (confidence 9) [8CD8F1C3] Copy OK

Track 4

Filename 04 - The Heart Asks Pleasure First.wav

Pre-gap length 0:00:02.19

Peak level 54.7 % Track quality 100.0 % Test CRC E76097D6 Copy CRC E76097D6 Accurately ripped (confidence 9) [6C3D3CB0] Copy OK

Track 5

Filename 05 - Here To There.wav

Pre-gap length 0:00:02.59

Peak level 59.9 % Track quality 99.8 % Test CRC 2E1E207E Copy CRC 2E1E207E Accurately ripped (confidence 9) [1129828B] Copy OK

Track 6

Filename 06 - The Promise.wav

Pre-gap length 0:00:02.15

Peak level 80.2 % Track quality 100.0 % Test CRC 6443E99B Copy CRC 6443E99B Accurately ripped (confidence 9) [AD228819] Copy OK

Track 7

Filename 07 - A Bed Of Ferns.wav

Pre-gap length 0:00:02.11

Peak level 42.2 % Track quality 100.0 % Test CRC 64EF81FE Copy CRC 64EF81FE Accurately ripped (confidence 9) [D411573F] Copy OK

Track 8

Filename 08 - The Fling.wav

Pre-gap length 0:00:02.73

Peak level 40.6 % Track quality 100.0 % Test CRC BC25B5CC Copy CRC BC25B5CC Accurately ripped (confidence 9) [5B53C2E0] Copy OK

Track 9

Filename 09 - The Scent Of Love.wav

Pre-gap length 0:00:02.34

Peak level 68.1 % Track quality 100.0 % Test CRC F257C4DE Copy CRC F257C4DE Accurately ripped (confidence 9) [2176B9D3] Copy OK

Track 10

Filename 10 - Deep Into The Forest.wav

Pre-gap length 0:00:02.13

Peak level 97.7 % Track quality 100.0 % Test CRC 52C0AD76 Copy CRC 52C0AD76 Accurately ripped (confidence 9) [78BB61AA] Copy OK

Track 11

Filename 11 - The Mood That Passes Through You.wav

Pre-gap length 0:00:02.32

Peak level 42.3 % Track quality 100.0 % Test CRC E974B7E0 Copy CRC E974B7E0 Accurately ripped (confidence 9) [E9EBD663] Copy OK

Track 12

Filename 12 - Lost And Found.wav

Pre-gap length 0:00:02.69

Peak level 85.2 % Track quality 100.0 % Test CRC 4DDB8053 Copy CRC 4DDB8053 Accurately ripped (confidence 9) [FA699EBF] Copy OK

Track 13

Filename 13 - The Embrace.wav

Pre-gap length 0:00:02.59

Peak level 50.7 % Track quality 100.0 % Test CRC B3B8F8E9 Copy CRC B3B8F8E9 Accurately ripped (confidence 9) [4E12DD1E] Copy OK

Track 14

Filename 14 - Little Impulse.wav

Pre-gap length 0:00:03.08

Peak level 57.1 % Track quality 100.0 % Test CRC A37203C2 Copy CRC A37203C2 Accurately ripped (confidence 9) [DE784A1B] Copy OK

Track 15

Filename 15 - The Sacrifice.wav

Pre-gap length 0:00:02.26

Peak level 51.9 % Track quality 100.0 % Test CRC 63B6E417 Copy CRC 63B6E417 Accurately ripped (confidence 9) [D5CE55BC] Copy OK

Track 16

Filename 16 - I Clipped Your Wing.wav

Pre-gap length 0:00:02.11

Peak level 78.8 % Track quality 99.9 % Test CRC B6F8DA19 Copy CRC B6F8DA19 Accurately ripped (confidence 8) [F87808C4] Copy OK

Track 17

Filename 17 - The Wounded.wav

Pre-gap length 0:00:02.34

Peak level 30.1 % Track quality 99.9 % Test CRC EE72BE7C Copy CRC EE72BE7C Accurately ripped (confidence 8) [CCA47667] Copy OK

Track 18

Filename 18 - All Imperfect Things.wav

Pre-gap length 0:00:02.66

Peak level 64.4 % Track quality 100.0 % Test CRC B8CF9170 Copy CRC B8CF9170 Accurately ripped (confidence 8) [B6D4FF60] Copy OK

Track 19

Filename 19 - Dreams Of A Journey.wav

Pre-gap length 0:00:01.71

Peak level 78.6 % Track quality 99.9 % Test CRC C03E7263 Copy CRC C03E7263 Accurately ripped (confidence 9) [B7630982] Copy OK

Track 20

Filename 20 - The Heart Asks Pleasure First,The Promise (Edit).wav

Pre-gap length 0:00:02.01

Peak level 100.0 % Track quality 100.0 % Test CRC 9283B2DE Copy CRC 9283B2DE Accurately ripped (confidence 9) [3C02BD76] Copy OK

All tracks accurately ripped

No errors occurred

End of status report


Трекер:  [ 07-Июл-2011 22:24 ]

  

Скачать .torrent

Размер .torrent файла 26 KB


Размер: 291 MB
Хэш (hash) релиза: 8610d4ee6b3476a660649ce4504333b3cfa5e181

Еще никто не оставлял запись к записи скачать торрент Пианино The Piano — Original Music from the Film by Jane Campion — Michael Nyman — 1993, FLAC . Будь первым!

!Обратная связь