Скачать через торрент музыку Блудливая Калифорния Californication: Season 2 - 2009 бесплатно без регистрации torrent

Если у вас наблюдаются проблемы со скриншотами, переходом по ссылками, скачиванием торрентов - проблемы в блокировщике рекламы AdBlock. #хорошегоДня!


Статистика раздачи
Размер:  322 MB   |    Зарегистрирован:  6 лет 11 месяцев   |    .torrent скачан:  53 раза   |   
Раздают:  1  
   
Загрузка...
 
Автор Сообщение

AqvaGen


Блудливая Калифорния / Californication: Season 2

Жанр: Soundtrack
Год выпуска диска: 2009
Производитель диска: Lakeshore Records
Аудио кодек: FLAC
Тип рипа: tracks+.cue
Битрейт аудио: lossless
Продолжительность: 00:47:15

01 - Poets & Pornstars - Rock & Roll (03:48)
02 - Rob Zombie - Go To California (03:26)
03 - Warren Zevon - My Shit's Fucked Up (02:47)
04 - Sheryl Crow - Behind Blue Eyes (03:54)
05 - Alberta Cross - Low Men (02:45)
06 - Jorge Calderon - Keep Me In Your Heart (04:55)
07 - Shaw Blades - California Dreamin' (02:44)
08 - Lions - Can You Hear Me (03:31)
09 - Mark Kozelek - Metropol 47 (03:14)
10 - Neil Nathan - Do Ya (03:55)
11 - The Basics - Have Love Will Travel (02:32)
12 - Nick Cave - Moonland (03:56)
13 - The Stereotypes - New Situation (03:34)
14 - Brent Amaker & The Rodeo - You Call Me The Devil (02:29)

 
Exact Audio Copy V0.99 prebeta 5 from 4. May 2009

EAC extraction logfile from 23. November 2009, 15:49

Various / Californication Season 2

Used drive : HL-DT-STDVDRAM GSA-H10L Adapter: 0 ID: 0

Read mode : SecureUtilize accurate stream : YesDefeat audio cache : YesMake use of C2 pointers : No

Read offset correction : 667Overread into Lead-In and Lead-Out : NoFill up missing offset samples with silence : YesDelete leading and trailing silent blocks : NoNull samples used in CRC calculations : YesUsed interface : Native Win32 interface for Win NT & 2000Gap handling : Appended to previous track

Used output format : User Defined EncoderSelected bitrate : 320 kBit/sQuality : HighAdd ID3 tag : NoCommand line compressor : C:\Program Files (x86)\Exact Audio Copy\FLAC\FLAC.EXEAdditional command line options : -V -8 -T "artist=%a" -T "title=%t" -T "album=%g" -T "date=%y" -T "tracknumber=%n" -T "genre=%m" %s

TOC of the extracted CD

Track | Start | Length | Start sector | End sector --------------------------------------------------------- 1 | 0:00.00 | 3:48.08 | 0 | 17107 2 | 3:48.08 | 3:26.35 | 17108 | 32592 3 | 7:14.43 | 2:47.14 | 32593 | 45131 4 | 10:01.57 | 3:54.30 | 45132 | 62711 5 | 13:56.12 | 2:44.43 | 62712 | 75054 6 | 16:40.55 | 4:55.05 | 75055 | 97184 7 | 21:35.60 | 2:43.52 | 97185 | 109461 8 | 24:19.37 | 3:31.22 | 109462 | 125308 9 | 27:50.59 | 3:13.53 | 125309 | 139836 10 | 31:04.37 | 3:55.23 | 139837 | 157484 11 | 34:59.60 | 2:31.73 | 157485 | 168882 12 | 37:31.58 | 3:55.38 | 168883 | 186545 13 | 41:27.21 | 3:33.58 | 186546 | 202578 14 | 45:01.04 | 2:29.15 | 202579 | 213768

Track 1

Filename C:\Various - Californication Season 2\01 - Rock & Roll (Poets & Pornstars).wav

Pre-gap length 0:00:02.00

Peak level 97.7 % Track quality 99.9 % Test CRC AB1818CF Copy CRC AB1818CF Track not present in AccurateRip database Copy OK

Track 2

Filename C:\Various - Californication Season 2\02 - Go To California (Rob Zombie).wav

Peak level 97.7 % Track quality 100.0 % Test CRC FE0A90B9 Copy CRC FE0A90B9 Track not present in AccurateRip database Copy OK

Track 3

Filename C:\Various - Californication Season 2\03 - My Shit's Fucked Up (Warren Zevon).wav

Pre-gap length 0:00:01.05

Peak level 97.7 % Track quality 100.0 % Test CRC 15BE5E05 Copy CRC 15BE5E05 Track not present in AccurateRip database Copy OK

Track 4

Filename C:\Various - Californication Season 2\04 - Behind Blue Eyes (Sheryl Crow).wav

Pre-gap length 0:00:01.44

Peak level 97.7 % Track quality 100.0 % Test CRC 984FF053 Copy CRC 984FF053 Track not present in AccurateRip database Copy OK

Track 5

Filename C:\Various - Californication Season 2\05 - Low Men (Alberta Cross).wav

Pre-gap length 0:00:01.01

Peak level 97.7 % Track quality 100.0 % Test CRC 9034DF6D Copy CRC 9034DF6D Track not present in AccurateRip database Copy OK

Track 6

Filename C:\Various - Californication Season 2\06 - Keep Me In Your Heart (Jorge Calderon).wav

Pre-gap length 0:00:01.84

Peak level 97.7 % Track quality 100.0 % Test CRC 456FEE9E Copy CRC 456FEE9E Track not present in AccurateRip database Copy OK

Track 7

Filename C:\Various - Californication Season 2\07 - California Dreamin' (Shaw Blades).wav

Pre-gap length 0:00:01.25

Peak level 97.7 % Track quality 99.9 % Test CRC FA3F5C56 Copy CRC FA3F5C56 Track not present in AccurateRip database Copy OK

Track 8

Filename C:\Various - Californication Season 2\08 - Can You Hear Me (Lions).wav

Pre-gap length 0:00:01.09

Peak level 97.7 % Track quality 100.0 % Test CRC 68B925DC Copy CRC 68B925DC Track not present in AccurateRip database Copy OK

Track 9

Filename C:\Various - Californication Season 2\09 - Metropol 47 (Mark Kozelek).wav

Pre-gap length 0:00:01.20

Peak level 97.7 % Track quality 100.0 % Test CRC A4849D8D Copy CRC A4849D8D Track not present in AccurateRip database Copy OK

Track 10

Filename C:\Various - Californication Season 2\10 - Do Ya (Neil Nathan).wav

Pre-gap length 0:00:01.26

Peak level 97.7 % Track quality 100.0 % Test CRC B552FE84 Copy CRC B552FE84 Track not present in AccurateRip database Copy OK

Track 11

Filename C:\Various - Californication Season 2\11 - Have Love Will Travel (The Basics).wav

Pre-gap length 0:00:01.56

Peak level 97.7 % Track quality 100.0 % Test CRC 868B7C18 Copy CRC 868B7C18 Track not present in AccurateRip database Copy OK

Track 12

Filename C:\Various - Californication Season 2\12 - Moonland (Nick Cave).wav

Pre-gap length 0:00:01.10

Peak level 97.7 % Track quality 100.0 % Test CRC C5A7D62D Copy CRC C5A7D62D Track not present in AccurateRip database Copy OK

Track 13

Filename C:\Various - Californication Season 2\13 - New Situation (The Stereotypes).wav

Pre-gap length 0:00:01.21

Peak level 97.7 % Track quality 100.0 % Test CRC 8C4FECFA Copy CRC 8C4FECFA Track not present in AccurateRip database Copy OK

Track 14

Filename C:\Various - Californication Season 2\14 - You Call Me The Devil (Brent Amaker & The Rodeo).wav

Pre-gap length 0:00:01.13

Peak level 97.7 % Track quality 100.0 % Test CRC 1E638C35 Copy CRC 1E638C35 Track not present in AccurateRip database Copy OK

None of the tracks are present in the AccurateRip database

No errors occurred

End of status report
 
REM GENRE SoundtrackREM DATE 2009REM DISCID AA0B220EREM COMMENT "ExactAudioCopy v0.99pb5"FILE "01 - Rock & Roll (Poets & Pornstars).wav" WAVE TRACK 01 AUDIO INDEX 01 00:00:00FILE "02 - Go To California (Rob Zombie).wav" WAVE TRACK 02 AUDIO INDEX 01 00:00:00 TRACK 03 AUDIO INDEX 00 03:25:31FILE "03 - My Shit's Fucked Up (Warren Zevon).wav" WAVE INDEX 01 00:00:00 TRACK 04 AUDIO INDEX 00 02:45:56FILE "04 - Behind Blue Eyes (Sheryl Crow).wav" WAVE INDEX 01 00:00:00 TRACK 05 AUDIO INDEX 00 03:53:29FILE "05 - Low Men (Alberta Cross).wav" WAVE INDEX 01 00:00:00 TRACK 06 AUDIO INDEX 00 02:42:55FILE "06 - Keep Me In Your Heart (Jorge Calderon).wav" WAVE INDEX 01 00:00:00 TRACK 07 AUDIO INDEX 00 04:53:61FILE "07 - California Dreamin' (Shaw Blades).wav" WAVE INDEX 01 00:00:00 TRACK 08 AUDIO INDEX 00 02:42:45FILE "08 - Can You Hear Me (Lions).wav" WAVE INDEX 01 00:00:00 TRACK 09 AUDIO INDEX 00 03:30:07FILE "09 - Metropol 47 (Mark Kozelek).wav" WAVE INDEX 01 00:00:00 TRACK 10 AUDIO INDEX 00 03:12:33FILE "10 - Do Ya (Neil Nathan).wav" WAVE INDEX 01 00:00:00 TRACK 11 AUDIO INDEX 00 03:53:56FILE "11 - Have Love Will Travel (The Basics).wav" WAVE INDEX 01 00:00:00 TRACK 12 AUDIO INDEX 00 02:30:65FILE "12 - Moonland (Nick Cave).wav" WAVE INDEX 01 00:00:00 TRACK 13 AUDIO INDEX 00 03:54:22FILE "13 - New Situation (The Stereotypes).wav" WAVE INDEX 01 00:00:00 TRACK 14 AUDIO INDEX 00 03:32:48FILE "14 - You Call Me The Devil (Brent Amaker & The Rodeo).wav" WAVE INDEX 01 00:00:00



Трекер:  [ 19-Дек-2010 16:38 ]

  

Скачать .torrent

Размер .torrent файла 14 KB


Размер: 322 MB
Хэш (hash) релиза: 59d30037ef8d5f401d616426a9a35e5fd0b3b2d2

bot

Топик был перенесен в форум Саундтреки к фильмам и мультфильмам (lossless)

Перенес AqvaGen

Хотите добавить комментарий к записи скачать торрент Блудливая Калифорния Californication: Season 2 - 2009

!Обратная связь