Скачать через торрент музыку The Fifth Element Пятый Элемент бесплатно без регистрации torrent

Если у вас наблюдаются проблемы со скриншотами, переходом по ссылками, скачиванием торрентов - проблемы в блокировщике рекламы AdBlock. #хорошегоДня!


Статистика раздачи
Размер:  351 MB   |    Зарегистрирован:  6 лет 5 месяцев   |    .torrent скачан:  56 раз   |   
Раздают:  1  
   
Загрузка...
 
Автор Сообщение

Galfimbul

avatar Galfimbul


The Fifth Element / Пятый Элемент (Eric Serra)

Жанр: Score
Год выпуска диска: 1997
Производитель диска: La Marguerite Publishing / Gaumont / Virgin. Made in Holland (7243 8 44399 2 7)
Аудио кодек: WAVPack
Тип рипа: image+.cue
Битрейт аудио: lossless
Продолжительность: 1:02:53

Трэклист:
01. Little Light Of Love
02. Mondoshawan
03. Timecrash
04. Korben Dallas
05. Koolen
06. Akta
07. Leeloo
08. Five Millenia Later
09. Plavalaguna
10. Ruby Rap
11. Heat
12. Badaboom
13. Mangalores
14. Lucia Di Lammermoor
15. The Diva Dance
16. Leeloominai
17. A Bomb In The Hotel
18. Mina Hinoo
19. No Cash No Trash
20. Radiowaves
21. Human Nature
22. Pictures Of War
23. Lakta Ligunai
24. Protect Life
25. Little Light Of Love (end titles version)
26. Aknot! Wot? (bonus track)

в сам wv файл вшит log и cue.
также log и cue выложены отдельно
 
Exact Audio Copy V0.99 prebeta 5 from 4. May 2009

EAC extraction logfile from 17. June 2009, 1:08

Eric Serra / The Fifth Element

Used drive : PLEXTOR CD-R PREMIUM Adapter: 0 ID: 0

Read mode : SecureUtilize accurate stream : YesDefeat audio cache : YesMake use of C2 pointers : No

Read offset correction : 30Overread into Lead-In and Lead-Out : NoFill up missing offset samples with silence : YesDelete leading and trailing silent blocks : NoNull samples used in CRC calculations : YesUsed interface : Installed external ASPI interface

Used output format : Internal WAV RoutinesSample format : 44.100 Hz; 16 Bit; Stereo

TOC of the extracted CD

Track | Start | Length | Start sector | End sector --------------------------------------------------------- 1 | 0:00.00 | 4:50.30 | 0 | 21779 2 | 4:50.30 | 4:01.27 | 21780 | 39881 3 | 8:51.57 | 1:49.68 | 39882 | 48124 4 | 10:41.50 | 1:43.22 | 48125 | 55871 5 | 12:24.72 | 0:55.00 | 55872 | 59996 6 | 13:19.72 | 1:51.18 | 59997 | 68339 7 | 15:11.15 | 4:55.55 | 68340 | 90519 8 | 20:06.70 | 3:13.45 | 90520 | 105039 9 | 23:20.40 | 1:47.72 | 105040 | 113136 10 | 25:08.37 | 1:56.08 | 113137 | 121844 11 | 27:04.45 | 2:55.45 | 121845 | 135014 12 | 30:00.15 | 1:13.27 | 135015 | 140516 13 | 31:13.42 | 1:08.13 | 140517 | 145629 14 | 32:21.55 | 3:10.22 | 145630 | 159901 15 | 35:32.02 | 1:33.08 | 159902 | 166884 16 | 37:05.10 | 1:42.12 | 166885 | 174546 17 | 38:47.22 | 2:15.35 | 174547 | 184706 18 | 41:02.57 | 0:54.52 | 184707 | 188808 19 | 41:57.34 | 1:05.68 | 188809 | 193751 20 | 43:03.27 | 2:32.35 | 193752 | 205186 21 | 45:35.62 | 2:02.40 | 205187 | 214376 22 | 47:38.27 | 1:20.40 | 214377 | 220416 23 | 48:58.67 | 4:13.68 | 220417 | 239459 24 | 53:12.60 | 2:32.60 | 239460 | 250919 25 | 55:45.45 | 3:33.00 | 250920 | 266894 26 | 59:18.45 | 3:34.53 | 266895 | 282997 27 | 65:25.23 | 7:18.43 | 294398 | 327290

Range status and errors

Selected range

Filename C:\temp\OST - Eric Serra - (1997) The Fifth Element\Eric Serra - The Fifth Element.wav

Peak level 98.8 % Range quality 100.0 % Test CRC A696DD47 Copy CRC A696DD47 Copy OK

No errors occurred

AccurateRip summary

Track 1 accurately ripped (confidence 56) [D9A7ACE6]Track 2 accurately ripped (confidence 55) [F5B2654C]Track 3 accurately ripped (confidence 57) [3A78EB05]Track 4 accurately ripped (confidence 57) [021C5AA8]Track 5 accurately ripped (confidence 57) [0A7409BE]Track 6 accurately ripped (confidence 57) [3F5A72BB]Track 7 accurately ripped (confidence 56) [3DF8B8FE]Track 8 accurately ripped (confidence 58) [B9E92923]Track 9 accurately ripped (confidence 57) [639AB856]Track 10 accurately ripped (confidence 57) [ACA3CDC9]Track 11 accurately ripped (confidence 57) [01894D65]Track 12 accurately ripped (confidence 56) [C679D58F]Track 13 accurately ripped (confidence 55) [9B2F2F4B]Track 14 accurately ripped (confidence 58) [2DFFAA27]Track 15 accurately ripped (confidence 57) [BDBEE2B4]Track 16 accurately ripped (confidence 57) [A173F4A1]Track 17 accurately ripped (confidence 57) [150DCD18]Track 18 accurately ripped (confidence 57) [8711D500]Track 19 accurately ripped (confidence 57) [1FDF94B0]Track 20 accurately ripped (confidence 57) [7F1EE989]Track 21 accurately ripped (confidence 57) [66427BB1]Track 22 accurately ripped (confidence 57) [54F93C62]Track 23 accurately ripped (confidence 56) [00BEADE3]Track 24 accurately ripped (confidence 56) [0B8D0816]Track 25 accurately ripped (confidence 56) [F0E833E6]Track 26 accurately ripped (confidence 56) [A9383F64]

All tracks accurately ripped

End of status report


Трекер:  [ 07-Июл-2011 22:22 ]

  

Скачать .torrent

Размер .torrent файла 29 KB


Размер: 351 MB
Хэш (hash) релиза: b50f1f711e706e63bb6981d067b9867269b96311

Торренты, похожие на The Fifth Element Пятый Элемент скачать торрент

Форум Название Автор Размер S L Добавлен
Саундтреки к фильмам и мультфильмам (mp3) ·· (Score) The Fifth Element / Пятый элемент [Complete Score, 2 CD] (Eric Serra) - 1997, MP3 (tracks), 320 kbps Galfimbul 336396389321 MB 0 0 1292265074

21:31

13-Дек-10

Еще никто не оставлял запись к записи скачать торрент The Fifth Element Пятый Элемент . Будь первым!

!Обратная связь