Скачать через торрент музыку The Big Lebowski Большой Лебовски - 1998, WAVPack бесплатно без регистрации torrent

Если у вас наблюдаются проблемы со скриншотами, переходом по ссылками, скачиванием торрентов - проблемы в блокировщике рекламы AdBlock. #хорошегоДня!


Статистика раздачи
Размер:  297 MB   |    Зарегистрирован:  6 лет 5 месяцев   |    .torrent скачан:  60 раз   |   
Раздают:  1  
   
Загрузка...
 
Автор Сообщение

Galfimbul

avatar Galfimbul


The Big Lebowski / Большой Лебовски

Жанр: Soundtrack
Год выпуска: 1998
Формат: WAVPack (image + .cue)
Битрейт аудио: lossless
Продолжительность: 00:51:47
Трэклист:
01. Bob Dylan - The Man In Me (3:08)
02. Captain Beefheart - Her Eyes Are A Blue Million Miles (2:54)
03. Elvis Costello - My Mood Swings (2:10)
04. Yma Sumac - Ataypura (3:03)
05. Piero Piccioni - Traffic Boom (3:15)
06. Nina Simone - I Got It Bad And That Ain't Good (4:07)
07. Moondog With Orchestra - Stamping Ground (5:11)
08. Kenny Rogers & The First Edition - Just Dropped In (To See What Condition My Condition Was In) (3:20)
09. Meredith Monk - Walking Song (2:55)
10. From The Opera 'Die tote Stadt' - Glück das mir verblieb (5:07)
11. Henry Mancini - Lujon (2:38)
12. Gipsy Kings - Hotel California (5:47)
13. Carter Burwell - Technopop (3:21)
14. Townes Van Zandt - Dead Flowers (4:46)
Exact Audio Copy V0.99 prebeta 1 from 25. May 2007

EAC extraction logfile from 14. September 2007, 14:29

Various / The Big Lebowski (OST)

Used drive : Optiarc DVD RW AD-7170A Adapter: 1 ID: 0

Read mode : Secure
Utilize accurate stream : Yes
Defeat audio cache : Yes
Make use of C2 pointers : No

Read offset correction : 48
Overread into Lead-In and Lead-Out : No
Fill up missing offset samples with silence : Yes
Delete leading and trailing silent blocks : No
Used interface : Installed external ASPI interface

Used output format : Internal WAV Routines
Sample format : 44.100 Hz; 16 Bit; Stereo

TOC of the extracted CD

Track | Start | Length | Start sector | End sector
---------------------------------------------------------
1 | 0:00.00 | 3:08.25 | 0 | 14124
2 | 3:08.25 | 2:54.07 | 14125 | 27181
3 | 6:02.32 | 2:10.18 | 27182 | 36949
4 | 8:12.50 | 3:03.25 | 36950 | 50699
5 | 11:16.00 | 3:15.35 | 50700 | 65359
6 | 14:31.35 | 4:07.00 | 65360 | 83884
7 | 18:38.35 | 5:11.30 | 83885 | 107239
8 | 23:49.65 | 3:20.60 | 107240 | 122299
9 | 27:10.50 | 2:55.57 | 122300 | 135481
10 | 30:06.32 | 5:07.63 | 135482 | 158569
11 | 35:14.20 | 2:38.25 | 158570 | 170444
12 | 37:52.45 | 5:47.25 | 170445 | 196494
13 | 43:39.70 | 3:21.00 | 196495 | 211569
14 | 47:00.70 | 4:46.30 | 211570 | 233049

Range status and errors

Selected range

Filename M:\Various - The Big Lebowski (OST).wav

Peak level 98.8 %
Range quality 100.0 %
Copy CRC C025C8AF
Copy OK

No errors occurred

End of status report


Трекер:  [ 07-Июл-2011 22:54 ]

  

Скачать .torrent

Размер .torrent файла 12 KB


Размер: 297 MB
Хэш (hash) релиза: 34f5e60b964c482e7f2ea8757467e3e5c5c2e292

Еще никто не оставлял запись к записи скачать торрент The Big Lebowski Большой Лебовски - 1998, WAVPack . Будь первым!

!Обратная связь