Скачать через торрент музыку Mr. & Mrs. Smith Мистер и миссис Смит бесплатно без регистрации torrent

Если у вас наблюдаются проблемы со скриншотами, переходом по ссылками, скачиванием торрентов - проблемы в блокировщике рекламы AdBlock. #хорошегоДня!


Статистика раздачи
Размер:  432 MB   |    Зарегистрирован:  6 лет 5 месяцев   |    .torrent скачан:  83 раза   |   
Раздают:  1  
   
Загрузка...
 
Автор Сообщение

Galfimbul

avatar Galfimbul


Mr. & Mrs. Smith / Мистер и миссис Смит


Жанр: Soundtrack
Год выпуска диска: 2005
Производитель диска: USA
Аудио кодек: FLAC
Тип рипа: tracks+.cue
Битрейт аудио: lossless
Продолжительность: 01:05:49



Треклист:

01. Love Stinks (3:37)
Performed by The J. Geils Band

02. Nothin' But a Good Time (3:45)
Performed by Poison

03. Tainted Love (2:42)
Performed by Soft Cell

04. Baby, Baby (3:15)
Performed by Alana D

05. Express Yourself (Mocean Worker Remix) (4:32)
Performed by Charles Wright & The Watts 103rd Street Rhythm Band

06. Mondo Bongo (6:13)
Performed by Joe Strummer & The Mescaleros

07. Lay Lady Lay (4:39)
Performed by Magnet featuring Gemma Hayes

08. I'll Melt With You (4:03)
Performed by Nouvelle Vague

09. Nobody Does It Better (4:57)
Performed by 8mm

10. Let's Never Stop Falling in Love (3:02)
Performed by Pink Martini

11. Assassin's Tango (4:02)
Performed by John Powell

12. Used to Love Her (But I Had to Kill Her) (2:37)
Performed by Voodoo Glow Skulls

13. You Are My Sunshine (2:22)
Performed by Stine J.

14. You've Lost That Lovin Feeling (3:42)
Performed by The Righteous Brothers

15. Making Love Out of Nothing at All (5:42)
Performed by Air Supply

16. You Give Love a Bad Name (3:18)
Performed by Atreyu

17. Love Will Keep Us Together (3:23)
Performed by Captain & Tennille



Источник: Waffles.fm
 
Exact Audio Copy V0.99 prebeta 3 from 28. July 2007

EAC extraction logfile from 24. May 2008, 23:36

Various / Mr. & Mrs. Smith

Used drive : HL-DT-STDVD+RW GCA-4040N Adapter: 1 ID: 0

Read mode : SecureUtilize accurate stream : YesDefeat audio cache : YesMake use of C2 pointers : No

Read offset correction : 48Overread into Lead-In and Lead-Out : NoFill up missing offset samples with silence : YesDelete leading and trailing silent blocks : NoNull samples used in CRC calculations : YesUsed interface : Native Win32 interface for Win NT & 2000Gap handling : Appended to previous track

Used output format : User Defined EncoderSelected bitrate : 192 kBit/sQuality : HighAdd ID3 tag : NoCommand line compressor : C:\Program Files\Exact Audio Copy\Flac\flac.exeAdditional command line options : -V -8 -T "artist=%a" -T "title=%t" -T "album=%g" -T "date=%y" -T "tracknumber=%n" -T "genre=%m" %s

TOC of the extracted CD

Track | Start | Length | Start sector | End sector --------------------------------------------------------- 1 | 0:00.00 | 3:36.46 | 0 | 16245 2 | 3:36.46 | 3:44.55 | 16246 | 33100 3 | 7:21.26 | 2:41.68 | 33101 | 45243 4 | 10:03.19 | 3:14.68 | 45244 | 59861 5 | 13:18.12 | 4:31.64 | 59862 | 80250 6 | 17:50.01 | 6:13.18 | 80251 | 108243 7 | 24:03.19 | 4:39.23 | 108244 | 129191 8 | 28:42.42 | 4:02.60 | 129192 | 147401 9 | 32:45.27 | 4:56.39 | 147402 | 169640 10 | 37:41.66 | 3:01.64 | 169641 | 183279 11 | 40:43.55 | 4:02.06 | 183280 | 201435 12 | 44:45.61 | 2:36.45 | 201436 | 213180 13 | 47:22.31 | 2:22.22 | 213181 | 223852 14 | 49:44.53 | 3:42.21 | 223853 | 240523 15 | 53:26.74 | 5:41.43 | 240524 | 266141 16 | 59:08.42 | 3:18.05 | 266142 | 280996 17 | 62:26.47 | 3:22.62 | 280997 | 296208

Track 1

Filename C:\UTorrent\Mr. & Mrs. Smith - 2005\01 - The J. Geils Band - Love Stinks.wav

Pre-gap length 0:00:02.00

Peak level 95.8 % Track quality 100.0 % Test CRC B43AED79 Copy CRC B43AED79 Accurately ripped (confidence 6) [B3F3A06E] Copy OK

Track 2

Filename C:\UTorrent\Mr. & Mrs. Smith - 2005\02 - Poison - Nothin' But a Good Time.wav

Pre-gap length 0:00:00.88

Peak level 100.0 % Track quality 100.0 % Test CRC ED8B771E Copy CRC ED8B771E Accurately ripped (confidence 6) [FDF0F7A9] Copy OK

Track 3

Filename C:\UTorrent\Mr. & Mrs. Smith - 2005\03 - Soft Cell - Tainted Love.wav

Peak level 97.8 % Track quality 100.0 % Test CRC 00C5FEEE Copy CRC 00C5FEEE Accurately ripped (confidence 6) [12C86FDF] Copy OK

Track 4

Filename C:\UTorrent\Mr. & Mrs. Smith - 2005\04 - Alana D - Baby, Baby.wav

Pre-gap length 0:00:01.98

Peak level 98.8 % Track quality 99.9 % Test CRC B2C2391A Copy CRC B2C2391A Accurately ripped (confidence 6) [0E120404] Copy OK

Track 5

Filename C:\UTorrent\Mr. & Mrs. Smith - 2005\05 - Charles Wright & The Watts 103rd Street Rhythm Band - Express Yourself (Mocean Worker Remix).wav

Pre-gap length 0:00:01.98

Peak level 76.9 % Track quality 100.0 % Test CRC C51D549A Copy CRC C51D549A Accurately ripped (confidence 6) [0BCED636] Copy OK

Track 6

Filename C:\UTorrent\Mr. & Mrs. Smith - 2005\06 - Joe Strummer & The Mescaleros - Mondo Bongo.wav

Pre-gap length 0:00:01.98

Peak level 98.1 % Track quality 99.9 % Test CRC 3849C2BB Copy CRC 3849C2BB Accurately ripped (confidence 6) [83BF2ADE] Copy OK

Track 7

Filename C:\UTorrent\Mr. & Mrs. Smith - 2005\07 - Magnet featuring Gemma Hayes - Lay Lady Lay.wav

Peak level 90.1 % Track quality 100.0 % Test CRC 23B6FE5E Copy CRC 23B6FE5E Accurately ripped (confidence 6) [380AF69C] Copy OK

Track 8

Filename C:\UTorrent\Mr. & Mrs. Smith - 2005\08 - Nouvelle Vague - I'll Melt With You.wav

Pre-gap length 0:00:01.98

Peak level 91.3 % Track quality 100.0 % Test CRC 18A76FAF Copy CRC 18A76FAF Accurately ripped (confidence 6) [E97345D5] Copy OK

Track 9

Filename C:\UTorrent\Mr. & Mrs. Smith - 2005\09 - 8mm - Nobody Does It Better.wav

Pre-gap length 0:00:01.98

Peak level 98.8 % Track quality 99.9 % Test CRC B40C4C34 Copy CRC B40C4C34 Accurately ripped (confidence 6) [99AE306C] Copy OK

Track 10

Filename C:\UTorrent\Mr. & Mrs. Smith - 2005\10 - Pink Martini - Let's Never Stop Falling in Love.wav

Peak level 98.8 % Track quality 100.0 % Test CRC 81EFAF48 Copy CRC 81EFAF48 Accurately ripped (confidence 6) [7C56E111] Copy OK

Track 11

Filename C:\UTorrent\Mr. & Mrs. Smith - 2005\11 - John Powell - Assassin's Tango.wav

Pre-gap length 0:00:01.98

Peak level 98.8 % Track quality 99.9 % Test CRC 6B7BA470 Copy CRC 6B7BA470 Accurately ripped (confidence 6) [0EF79CBD] Copy OK

Track 12

Filename C:\UTorrent\Mr. & Mrs. Smith - 2005\12 - Voodoo Glow Skulls - Used to Love Her (But I Had to Kill Her).wav

Peak level 81.7 % Track quality 100.0 % Test CRC B34376AA Copy CRC B34376AA Accurately ripped (confidence 6) [7EDF9C32] Copy OK

Track 13

Filename C:\UTorrent\Mr. & Mrs. Smith - 2005\13 - Stine J. - You Are My Sunshine.wav

Peak level 74.3 % Track quality 100.0 % Test CRC 87A84DA3 Copy CRC 87A84DA3 Accurately ripped (confidence 6) [6DEF73A0] Copy OK

Track 14

Filename C:\UTorrent\Mr. & Mrs. Smith - 2005\14 - The Righteous Brothers - You've Lost That Lovin Feeling.wav

Peak level 98.8 % Track quality 100.0 % Test CRC 0BD20DE1 Copy CRC 0BD20DE1 Accurately ripped (confidence 6) [C64A702A] Copy OK

Track 15

Filename C:\UTorrent\Mr. & Mrs. Smith - 2005\15 - Air Supply - Making Love Out of Nothing at All.wav

Peak level 100.0 % Track quality 100.0 % Test CRC 468743B5 Copy CRC 468743B5 Accurately ripped (confidence 6) [7E30CF29] Copy OK

Track 16

Filename C:\UTorrent\Mr. & Mrs. Smith - 2005\16 - Atreyu - You Give Love a Bad Name.wav

Peak level 89.0 % Track quality 100.0 % Test CRC 7ECF8D6F Copy CRC 7ECF8D6F Accurately ripped (confidence 6) [7854FF7E] Copy OK

Track 17

Filename C:\UTorrent\Mr. & Mrs. Smith - 2005\17 - Captain & Tennille - Love Will Keep Us Together.wav

Peak level 98.8 % Track quality 100.0 % Test CRC CB05445D Copy CRC CB05445D Accurately ripped (confidence 6) [86D8976C] Copy OK

All tracks accurately ripped

No errors occurred

End of status report
 
[Verification date: 29.12.2009 11:39:48][Disc ID: 00291e95-020a2cfe-f60f6d11]Track [ CRC ] Status 01 [b3f3a06e] (10/10) Accurately ripped as in pressing(s) #1 02 [fdf0f7a9] (10/10) Accurately ripped as in pressing(s) #1 03 [12c86fdf] (10/10) Accurately ripped as in pressing(s) #1 04 [0e120404] (10/10) Accurately ripped as in pressing(s) #1 05 [0bced636] (10/10) Accurately ripped as in pressing(s) #1 06 [83bf2ade] (10/10) Accurately ripped as in pressing(s) #1 07 [380af69c] (10/10) Accurately ripped as in pressing(s) #1 08 [e97345d5] (10/10) Accurately ripped as in pressing(s) #1 09 [99ae306c] (10/10) Accurately ripped as in pressing(s) #1 10 [7c56e111] (10/10) Accurately ripped as in pressing(s) #1 11 [0ef79cbd] (10/10) Accurately ripped as in pressing(s) #1 12 [7edf9c32] (10/10) Accurately ripped as in pressing(s) #1 13 [6def73a0] (10/10) Accurately ripped as in pressing(s) #1 14 [c64a702a] (10/10) Accurately ripped as in pressing(s) #1 15 [7e30cf29] (10/10) Accurately ripped as in pressing(s) #1 16 [7854ff7e] (10/10) Accurately ripped as in pressing(s) #1 17 [86d8976c] (10/10) Accurately ripped as in pressing(s) #1

Track [ CRC32 ] [W/O NULL] [ LOG ] -- [1CD87C8B] [D80F9404] 01 [B43AED79] [B28D4CF6] CRC32 02 [ED8B771E] [BDF6B0B9] CRC32 03 [00C5FEEE] [F68332F3] CRC32 04 [B2C2391A] [59F4244D] CRC32 05 [C51D549A] [B154C373] CRC32 06 [3849C2BB] [82BB96BC] CRC32 07 [23B6FE5E] [632A6FF7] CRC32 08 [18A76FAF] [3E8E26E6] CRC32 09 [B40C4C34] [033CFE4C] CRC32 10 [81EFAF48] [15F9C01A] CRC32 11 [6B7BA470] [3E52022D] CRC32 12 [B34376AA] [AE4F3E51] CRC32 13 [87A84DA3] [1C4D0874] CRC32 14 [0BD20DE1] [EEF01C59] CRC32 15 [468743B5] [D539C64B] CRC32 16 [7ECF8D6F] [9969F391] CRC32 17 [CB05445D] [0E7E5716] CRC32

Enjoy!


Трекер:  [ 07-Июл-2011 22:54 ]

  

Скачать .torrent

Размер .torrent файла 19 KB


Размер: 432 MB
Хэш (hash) релиза: 783b98cb6b7fcc5f97412e3befe7e3fc122deeb9

Еще никто не оставлял запись к записи скачать торрент Mr. & Mrs. Smith Мистер и миссис Смит . Будь первым!

!Обратная связь