Скачать через торрент музыку Braveheart Храброе Сердце бесплатно без регистрации torrent

Если у вас наблюдаются проблемы со скриншотами, переходом по ссылками, скачиванием торрентов - проблемы в блокировщике рекламы AdBlock. #хорошегоДня!


Статистика раздачи
Размер:  339 MB   |    Зарегистрирован:  6 лет 5 месяцев   |    .torrent скачан:  65 раз   |   
Раздают:  1  
   
Загрузка...
 
Автор Сообщение

Galfimbul

avatar Galfimbul


Braveheart / Храброе Сердце

Жанр: Score
Композитор: James Horner
Год выпуска диска: 1995
Производитель диска: США
Аудио кодек: FLAC
Тип рипа: tracks + .cue
Битрейт аудио: lossless
Продолжительность: 1:17:54
Источник: What.CD

Треклист:

01 - James Horner - Main Title (2:50)
02 - James Horner - A Gift Of A Thistle (1:38)
03 - James Horner - Wallace Courts Murron (4:26)
04 - James Horner - The Secret Wedding (6:33)
05 - James Horner - Attack On Murron (3:00)
06 - James Horner - Revenge (6:25)
07 - James Horner - Murron's Burial (2:13)
08 - James Horner - Making Plans / Gathering The Clans (1:53)
09 - James Horner - "Sons Of Scotland" (6:18)
10 - James Horner - The Battle Of Stirling (5:58)
11 - James Horner - For The Love Of A Princess (4:08)
12 - James Horner - Falkirk (4:04)
13 - James Horner - Betrayal & Desolation (7:48)
14 - James Horner - Mornay's Dream (1:17)
15 - James Horner - The Legend Spreads (1:09)
16 - James Horner - The Princess Pleads For Wallace's Life (3:37)
17 - James Horner - "Freedom" / The Execution / Bannockburn (7:22)
18 - James Horner - End Credits (7:16)
 
Exact Audio Copy V0.99 prebeta 4 from 23. January 2008

EAC extraction logfile from 10. June 2008, 17:24

London Symphony Orchestra & James Horner / Braveheart (Original Motion Picture Soundtrack)

Used drive : TSSTcorpDVD-ROM TS-H352C Adapter: 1 ID: 1

Read mode : SecureUtilize accurate stream : YesDefeat audio cache : YesMake use of C2 pointers : No

Read offset correction : 6Overread into Lead-In and Lead-Out : NoFill up missing offset samples with silence : YesDelete leading and trailing silent blocks : NoNull samples used in CRC calculations : YesUsed interface : Installed external ASPI interfaceGap handling : Appended to previous track

Used output format : User Defined EncoderSelected bitrate : 192 kBit/sQuality : HighAdd ID3 tag : NoCommand line compressor : C:\Program Files\TotalAudioConverter\flac.exeAdditional command line options : -8 -A tukey(0.25) -A gauss(0.1875) -b 4096 -V -T "artist=%a" -T "title=%t" -T "album=%g" -T "date=%y" -T "tracknumber=%n" -T "genre=%m" %s --sector-align

TOC of the extracted CD

Track | Start | Length | Start sector | End sector --------------------------------------------------------- 1 | 0:00.32 | 2:50.03 | 32 | 12784 2 | 2:50.35 | 1:37.65 | 12785 | 20124 3 | 4:28.25 | 4:25.52 | 20125 | 40051 4 | 8:54.02 | 6:32.55 | 40052 | 69506 5 | 15:26.57 | 2:59.48 | 69507 | 82979 6 | 18:26.30 | 6:24.67 | 82980 | 111846 7 | 24:51.22 | 2:12.48 | 111847 | 121794 8 | 27:03.70 | 1:53.27 | 121795 | 130296 9 | 28:57.22 | 6:18.25 | 130297 | 158671 10 | 35:15.47 | 5:57.63 | 158672 | 185509 11 | 41:13.35 | 4:07.40 | 185510 | 204074 12 | 45:21.00 | 4:04.37 | 204075 | 222411 13 | 49:25.37 | 7:47.38 | 222412 | 257474 14 | 57:13.00 | 1:16.55 | 257475 | 263229 15 | 58:29.55 | 1:08.72 | 263230 | 268401 16 | 59:38.52 | 3:37.03 | 268402 | 284679 17 | 63:15.55 | 7:22.20 | 284680 | 317849 18 | 70:38.00 | 7:16.00 | 317850 | 350549

Track 1

Filename N:\Music\Braveheart\01 - Main Title.wav

Pre-gap length 0:00:02.42

Peak level 28.0 % Track quality 100.0 % Test CRC 22B713A0 Copy CRC 22B713A0 Copy OK

Track 2

Filename N:\Music\Braveheart\02 - A Gift of a Thistle.wav

Peak level 19.5 % Track quality 100.0 % Test CRC BBB54284 Copy CRC BBB54284 Copy OK

Track 3

Filename N:\Music\Braveheart\03 - Wallace Courts Murron.wav

Peak level 52.5 % Track quality 100.0 % Test CRC B4C67746 Copy CRC B4C67746 Copy OK

Track 4

Filename N:\Music\Braveheart\04 - The Secret Wedding.wav

Peak level 37.7 % Track quality 100.0 % Test CRC 255BDC98 Copy CRC 255BDC98 Copy OK

Track 5

Filename N:\Music\Braveheart\05 - Attack on Murron.wav

Peak level 90.9 % Track quality 99.9 % Test CRC FE14B4D9 Copy CRC FE14B4D9 Copy OK

Track 6

Filename N:\Music\Braveheart\06 - Revenge.wav

Peak level 89.2 % Track quality 100.0 % Test CRC AE150772 Copy CRC AE150772 Copy OK

Track 7

Filename N:\Music\Braveheart\07 - Murron's Burial.wav

Peak level 35.8 % Track quality 100.0 % Test CRC F6D42942 Copy CRC F6D42942 Copy OK

Track 8

Filename N:\Music\Braveheart\08 - Making Plans, Gathering the Clans.wav

Peak level 96.3 % Track quality 100.0 % Test CRC 0F812729 Copy CRC 0F812729 Copy OK

Track 9

Filename N:\Music\Braveheart\09 - 'Sons of Scotland'.wav

Peak level 82.9 % Track quality 100.0 % Test CRC 695E27E6 Copy CRC 695E27E6 Copy OK

Track 10

Filename N:\Music\Braveheart\10 - The Battle of Stirling.wav

Peak level 90.9 % Track quality 100.0 % Test CRC C805832E Copy CRC C805832E Copy OK

Track 11

Filename N:\Music\Braveheart\11 - For the Love of a Princess.wav

Peak level 55.2 % Track quality 100.0 % Test CRC 716CCB06 Copy CRC 716CCB06 Copy OK

Track 12

Filename N:\Music\Braveheart\12 - Falkirk.wav

Peak level 90.9 % Track quality 100.0 % Test CRC BD896DAB Copy CRC BD896DAB Copy OK

Track 13

Filename N:\Music\Braveheart\13 - Betrayal & Desolation.wav

Peak level 90.9 % Track quality 100.0 % Test CRC 7A463837 Copy CRC 7A463837 Copy OK

Track 14

Filename N:\Music\Braveheart\14 - Mornay's Dream.wav

Peak level 90.9 % Track quality 100.0 % Test CRC 05FB4170 Copy CRC 05FB4170 Copy OK

Track 15

Filename N:\Music\Braveheart\15 - The Legend Spreads.wav

Peak level 92.8 % Track quality 100.0 % Test CRC D1C7DAB4 Copy CRC D1C7DAB4 Copy OK

Track 16

Filename N:\Music\Braveheart\16 - The Princess Pleads for Wallace's Life.wav

Peak level 22.3 % Track quality 100.0 % Test CRC 9756FD77 Copy CRC 9756FD77 Copy OK

Track 17

Filename N:\Music\Braveheart\17 - Freedom, The Execution, Bannockburn.wav

Peak level 90.9 % Track quality 100.0 % Test CRC C03265F5 Copy CRC C03265F5 Copy OK

Track 18

Filename N:\Music\Braveheart\18 - End Credits.wav

Peak level 41.1 % Track quality 99.9 % Test CRC 0542C517 Copy CRC 0542C517 Copy OK

No errors occurred

End of status report
 
REM GENRE SoundtrackREM DATE 1995REM DISCID 04124212REM COMMENT "ExactAudioCopy v0.99pb4"PERFORMER "London Symphony Orchestra & James Horner"TITLE "Braveheart (Original Motion Picture Soundtrack)"FILE "01 - Main Title.wav" WAVE TRACK 01 AUDIO TITLE "Main Title" PERFORMER "London Symphony Orchestra & James Horner" PREGAP 00:00:32 INDEX 01 00:00:00FILE "02 - A Gift of a Thistle.wav" WAVE TRACK 02 AUDIO TITLE "A Gift of a Thistle" PERFORMER "London Symphony Orchestra & James Horner" INDEX 01 00:00:00FILE "03 - Wallace Courts Murron.wav" WAVE TRACK 03 AUDIO TITLE "Wallace Courts Murron" PERFORMER "London Symphony Orchestra & James Horner" INDEX 01 00:00:00FILE "04 - The Secret Wedding.wav" WAVE TRACK 04 AUDIO TITLE "The Secret Wedding" PERFORMER "London Symphony Orchestra & James Horner" INDEX 01 00:00:00FILE "05 - Attack on Murron.wav" WAVE TRACK 05 AUDIO TITLE "Attack on Murron" PERFORMER "London Symphony Orchestra & James Horner" INDEX 01 00:00:00FILE "06 - Revenge.wav" WAVE TRACK 06 AUDIO TITLE "Revenge" PERFORMER "London Symphony Orchestra & James Horner" INDEX 01 00:00:00FILE "07 - Murron's Burial.wav" WAVE TRACK 07 AUDIO TITLE "Murron's Burial" PERFORMER "London Symphony Orchestra & James Horner" INDEX 01 00:00:00FILE "08 - Making Plans, Gathering the Clans.wav" WAVE TRACK 08 AUDIO TITLE "Making Plans, Gathering the Clans" PERFORMER "London Symphony Orchestra & James Horner" INDEX 01 00:00:00FILE "09 - 'Sons of Scotland'.wav" WAVE TRACK 09 AUDIO TITLE "'Sons of Scotland'" PERFORMER "London Symphony Orchestra & James Horner" INDEX 01 00:00:00FILE "10 - The Battle of Stirling.wav" WAVE TRACK 10 AUDIO TITLE "The Battle of Stirling" PERFORMER "London Symphony Orchestra & James Horner" INDEX 01 00:00:00FILE "11 - For the Love of a Princess.wav" WAVE TRACK 11 AUDIO TITLE "For the Love of a Princess" PERFORMER "London Symphony Orchestra & James Horner" INDEX 01 00:00:00FILE "12 - Falkirk.wav" WAVE TRACK 12 AUDIO TITLE "Falkirk" PERFORMER "London Symphony Orchestra & James Horner" INDEX 01 00:00:00FILE "13 - Betrayal & Desolation.wav" WAVE TRACK 13 AUDIO TITLE "Betrayal & Desolation" PERFORMER "London Symphony Orchestra & James Horner" INDEX 01 00:00:00FILE "14 - Mornay's Dream.wav" WAVE TRACK 14 AUDIO TITLE "Mornay's Dream" PERFORMER "London Symphony Orchestra & James Horner" INDEX 01 00:00:00FILE "15 - The Legend Spreads.wav" WAVE TRACK 15 AUDIO TITLE "The Legend Spreads" PERFORMER "London Symphony Orchestra & James Horner" INDEX 01 00:00:00FILE "16 - The Princess Pleads for Wallace's Life.wav" WAVE TRACK 16 AUDIO TITLE "The Princess Pleads for Wallace's Life" PERFORMER "London Symphony Orchestra & James Horner" INDEX 01 00:00:00FILE "17 - Freedom, The Execution, Bannockburn.wav" WAVE TRACK 17 AUDIO TITLE "Freedom, The Execution, Bannockburn" PERFORMER "London Symphony Orchestra & James Horner" INDEX 01 00:00:00FILE "18 - End Credits.wav" WAVE TRACK 18 AUDIO TITLE "End Credits" PERFORMER "London Symphony Orchestra & James Horner" INDEX 01 00:00:00


Трекер:  [ 07-Июл-2011 22:53 ]

  

Скачать .torrent

Размер .torrent файла 15 KB


Размер: 339 MB
Хэш (hash) релиза: 82628b4977a905c4c5c440a02412f3f27e4ccb51

Торренты, похожие на Braveheart Храброе Сердце скачать торрент

Форум Название Автор Размер S L Добавлен
Саундтреки к фильмам и мультфильмам (lossless) ·· (Score) Храброе сердце / Braveheart (More Music from Breavheart) (James Horner) - 1997 (1995), FLAC (tracks+.cue), lossless Galfimbul 332100765317 MB 0 0 1292268771

22:32

13-Дек-10

Саундтреки к фильмам и мультфильмам (mp3) ·· (Score) Храброе Сердце / Braveheart (by James Horner) - 1995, MP3 (tracks), 320 kbps Galfimbul 194164610185 MB 0 0 1292265787

21:43

13-Дек-10

Еще никто не оставлял запись к записи скачать торрент Braveheart Храброе Сердце . Будь первым!

!Обратная связь