Скачать через торрент музыку Tarantino - Антология бесплатно без регистрации torrent

Если у вас наблюдаются проблемы со скриншотами, переходом по ссылками, скачиванием торрентов - проблемы в блокировщике рекламы AdBlock. #хорошегоДня!


Статистика раздачи
Размер:  1.16 GB   |    Зарегистрирован:  6 лет 5 месяцев   |    .torrent скачан:  59 раз   |   
Раздают:  1  
   
Загрузка...
 
Автор Сообщение

Galfimbul

avatar Galfimbul


Tarantino - Антология [3 CD]

Жанр: Soundtrack
Год выпуска диска: 2008
Аудио кодек: APE
Тип рипа: image+.cue
Битрейт аудио: lossless
Продолжительность: 03.17.28
01. Pumpkin and Hunny Bunny / Misirlou - Dick Dale & His Del-Tones
02. Jungle Boogie - Kool & The Gang
03. Let's Stay Together - Al Green
04. Lonesome Town - Ricky Nelson
05. Son of a Preacher Man - Dusty Springfield
06. Zed's Dead, Baby / Bullwinkle, Pt. 2 - The Centurions
07. Jack Rabbit Slims Twist Contest / You Never Can Tell - Chuck Berry
08. Girl, You'll Be a Woman Soon - Urge Overkill
09. Bring Out the Gimp / Comanche - The Revels
10. Flowers on the Wall - The Statler Brothers
11. Surf Rider - The Lively Ones
12. Ezekiel 25.17 - Samuel L. Jackson
13. Rumble - Link Wray & His Ray Men
14. And Now Little Green Bag - Dialogue extract performed by Steven Wright
15. Little Green Bag - The George Baker Selection
16. Hooked On A Feeling - Blue Swede
17. I Gotcha - Joe Tex
18. Fool For Love - Sandy Rogers
19. Stuck In The Middle With You - Stealers Wheel
20. Harvest Moon - Bedlam
21. Coconut - Harry Nilsson
22. You Belong To Me - Bob Dylan
23. Sweet Jane - Cowboy Junkies
24. The Future - Leonard Cohen
Exact Audio Copy V0.99 prebeta 4 from 23. January 2008

Отчёт EAC об извлечении, выполненном 11. марта 2009, 17:24

Tarantino / Tarantino's Antology CD 1

Дисковод: TSSTcorpCDDVDW SH-S203D Adapter: 0 ID: 1

Режим чтения : Достоверность
Использование точного потока : Да
Отключение кэша аудио : Да
Использование указателей C2 : Нет

Коррекция смещения при чтении : 6
Способность читать области Lead-in и Lead-out : Нет
Заполнение пропущенных сэмплов тишиной : Да
Удаление блоков с тишиной в начале и конце : Нет
При вычислениях CRC использовались нулевые сэмплы : Да
Интерфейс : Встроенный Win32-интерфейс для Win NT/2000

Выходной формат : Внутренние WAV-операции
Формат сэмплов : 44.100 Гц; 16 бит; стерео

TOC извлечённого CD

Трек | Старт | Длительность | Начальный сектор | Конечный сектор
---------------------------------------------------------------------
1 | 0:00.00 | 2:29.56 | 0 | 11230
2 | 2:29.56 | 3:07.34 | 11231 | 25289
3 | 5:37.15 | 3:17.65 | 25290 | 40129
4 | 8:55.05 | 2:15.51 | 40130 | 50305
5 | 11:10.56 | 2:28.33 | 50306 | 61438
6 | 13:39.14 | 2:31.72 | 61439 | 72835
7 | 16:11.11 | 3:14.50 | 72836 | 87435
8 | 19:25.61 | 3:12.29 | 87436 | 101864
9 | 22:38.15 | 2:14.18 | 101865 | 111932
10 | 24:52.33 | 2:25.40 | 111933 | 122847
11 | 27:17.73 | 3:21.66 | 122848 | 137988
12 | 30:39.64 | 0:54.04 | 137989 | 142042
13 | 31:33.68 | 2:27.08 | 142043 | 153075
14 | 34:01.01 | 0:17.31 | 153076 | 154381
15 | 34:18.32 | 3:17.40 | 154382 | 169196
16 | 37:35.72 | 2:55.52 | 169197 | 182373
17 | 40:31.49 | 2:29.47 | 182374 | 193595
18 | 43:01.21 | 3:27.34 | 193596 | 209154
19 | 46:28.55 | 3:25.66 | 209155 | 224595
20 | 49:54.46 | 2:40.02 | 224596 | 236597
21 | 52:34.48 | 3:49.14 | 236598 | 253786
22 | 56:23.62 | 3:11.47 | 253787 | 268158
23 | 59:35.34 | 3:25.04 | 268159 | 283537
24 | 63:00.38 | 3:49.19 | 283538 | 300731

Характеристики диапазона извлечения и сообщения об ошибках

Выбранный диапазон

Имя файла D:\Tarantino - Tarantino's Antology CD 1.wav

Пиковый уровень 100.0 %
Качество диапазона 100.0 %
CRC копии 3FE22DDC
Копирование... OK

Ошибок не произошло

Конец отчёта
01 - Waiting For The Miracle - Leonard Cohen
02 - Back In Baby’s Arms - Patsy Cline
03 - Dark Night - The Blasters
04 - Foolish Heart - The Mavericks
05 - Dengue Woman Blues - Jimmie Vaughan
06 - Torquay - The Leftovers
07 - Angry Cockroaches (Cucarachas Enojadas) - Tito And Tarantula
08 - Mary Had A Little Lamb - Stevie Ray Vaughan And Double Trouble
09 - After Dark - Tito And Tarantula
10 - Cancion Del Mariachi (Morena De Mi Corazon) - Los Lobos feat. Antonio Banderas
11 - Six Blade Knife - Dire Straits
12 - Jack The Ripper - Link Wray & His Ray Men
13 - Strange Face Of Love - Tito & Tarantula
14 - Bucho's Gracias - Navajas Attacks - Los Lobos
15 - Bella - Carlos Santana
16 - Back ToThe House That Love Built - Tito & Tarantula
Exact Audio Copy V0.99 prebeta 4 from 23. January 2008

Отчёт EAC об извлечении, выполненном 11. марта 2009, 19:23

Tarantino / Tarantino's Antology CD 2

Дисковод: TSSTcorpCDDVDW SH-S203D Adapter: 0 ID: 1

Режим чтения : Достоверность
Использование точного потока : Да
Отключение кэша аудио : Да
Использование указателей C2 : Нет

Коррекция смещения при чтении : 6
Способность читать области Lead-in и Lead-out : Нет
Заполнение пропущенных сэмплов тишиной : Да
Удаление блоков с тишиной в начале и конце : Нет
При вычислениях CRC использовались нулевые сэмплы : Да
Интерфейс : Встроенный Win32-интерфейс для Win NT/2000

Выходной формат : Внутренние WAV-операции
Формат сэмплов : 44.100 Гц; 16 бит; стерео

TOC извлечённого CD

Трек | Старт | Длительность | Начальный сектор | Конечный сектор
---------------------------------------------------------------------
1 | 0:00.00 | 3:45.14 | 0 | 16888
2 | 3:45.14 | 2:06.25 | 16889 | 26363
3 | 5:51.39 | 3:50.31 | 26364 | 43644
4 | 9:41.70 | 3:33.56 | 43645 | 59675
5 | 13:15.51 | 6:25.61 | 59676 | 88611
6 | 19:41.37 | 2:43.45 | 88612 | 100881
7 | 22:25.07 | 5:16.69 | 100882 | 124650
8 | 27:42.01 | 4:17.09 | 124651 | 143934
9 | 31:59.10 | 4:13.13 | 143935 | 162922
10 | 36:12.23 | 2:08.36 | 162923 | 172558
11 | 38:20.59 | 4:35.37 | 172559 | 193220
12 | 42:56.21 | 2:32.43 | 193221 | 204663
13 | 45:28.64 | 5:52.17 | 204664 | 231080
14 | 51:21.06 | 3:57.66 | 231081 | 248921
15 | 55:18.72 | 4:30.04 | 248922 | 269175
16 | 59:49.01 | 4:40.11 | 269176 | 290186

Характеристики диапазона извлечения и сообщения об ошибках

Выбранный диапазон

Имя файла D:\Tarantino - Tarantino's Antology CD 2.wav

Пиковый уровень 100.0 %
Качество диапазона 100.0 %
CRC копии A23C3454
Копирование... OK

Ошибок не произошло

Конец отчёта
01 - A Little Bitty Tear - Burl Ives
02 - Graceland - Charlie Sexton
03 - (Love Is) The Tender Trap - Robert Palmer
04 - Vertigogo - Combustible Edision
05 - Street life - Randy Crawford
06 - Across 110th Street - Bobby Womack
07 - Bang Bang - Nancy Sinatra
08 - Al Hirt - Green Hornet
09 - Battle without Honor - Tomoyasu Hotei
10 - Don't let me be misunderstood - Santa Esmeralda
11 - The Flower of Carnage - Meiko Kaji
12 - The lonely Shepherd - Zamfir
13 - Urami Bushi - Meiko Kaji
14 - Goodnight Moon - Shivaree
15 - Black Betty - Rem Jam
16 - El talisman - Rosana
17 - El Punal Y El Corazon - Cafe Tacuba
Exact Audio Copy V0.99 prebeta 4 from 23. January 2008

Отчёт EAC об извлечении, выполненном 11. марта 2009, 19:41

Tarantino / Tarantino's Antology CD 3

Дисковод: TSSTcorpCDDVDW SH-S203D Adapter: 0 ID: 1

Режим чтения : Достоверность
Использование точного потока : Да
Отключение кэша аудио : Да
Использование указателей C2 : Нет

Коррекция смещения при чтении : 6
Способность читать области Lead-in и Lead-out : Нет
Заполнение пропущенных сэмплов тишиной : Да
Удаление блоков с тишиной в начале и конце : Нет
При вычислениях CRC использовались нулевые сэмплы : Да
Интерфейс : Встроенный Win32-интерфейс для Win NT/2000

Выходной формат : Внутренние WAV-операции
Формат сэмплов : 44.100 Гц; 16 бит; стерео

TOC извлечённого CD

Трек | Старт | Длительность | Начальный сектор | Конечный сектор
---------------------------------------------------------------------
1 | 0:00.00 | 2:04.46 | 0 | 9345
2 | 2:04.46 | 3:25.72 | 9346 | 24792
3 | 5:30.43 | 2:35.45 | 24793 | 36462
4 | 8:06.13 | 4:17.68 | 36463 | 55805
5 | 12:24.06 | 4:16.28 | 55806 | 75033
6 | 16:40.34 | 3:50.00 | 75034 | 92283
7 | 20:30.34 | 2:41.46 | 92284 | 104404
8 | 23:12.05 | 2:19.55 | 104405 | 114884
9 | 25:31.60 | 2:30.45 | 114885 | 126179
10 | 28:02.30 | 10:30.28 | 126180 | 173457
11 | 38:32.58 | 3:53.34 | 173458 | 190966
12 | 42:26.17 | 4:22.37 | 190967 | 210653
13 | 46:48.54 | 6:29.53 | 210654 | 239881
14 | 53:18.32 | 4:05.62 | 239882 | 258318
15 | 57:24.19 | 2:29.48 | 258319 | 269541
16 | 59:53.67 | 3:37.26 | 269542 | 285842
17 | 63:31.18 | 4:21.26 | 285843 | 305443

Характеристики диапазона извлечения и сообщения об ошибках

Выбранный диапазон

Имя файла D:\Tarantino - Tarantino's Antology CD 3.wav

Пиковый уровень 100.0 %
Качество диапазона 100.0 %
CRC копии 8088E6A1
Копирование... OK

Ошибок не произошло

Конец отчёта


Трекер:  [ 07-Июл-2011 22:48 ]

  

Скачать .torrent

Размер .torrent файла 13 KB


Размер: 1.16 GB
Хэш (hash) релиза: d58a5ac2daf4c80e507ddc670e253dfce39dcc1e

Торренты, похожие на Tarantino - Антология скачать торрент

Форум Название Автор Размер S L Добавлен
Саундтреки к фильмам и мультфильмам (mp3) ·· (Soundtrack) Tarantino - Антология [3 CD] - 2008, MP3 (tracks), 320 kbps Galfimbul 474302696452 MB 0 0 1292265579

21:39

13-Дек-10

Еще никто не оставлял запись к записи скачать торрент Tarantino - Антология . Будь первым!

!Обратная связь