Скачать через торрент музыку Queen Of The Damned - Music From The Motion Picture - 2002, FLAC бесплатно без регистрации torrent

Если у вас наблюдаются проблемы со скриншотами, переходом по ссылками, скачиванием торрентов - проблемы в блокировщике рекламы AdBlock. #хорошегоДня!


Статистика раздачи
Размер:  439 MB   |    Зарегистрирован:  6 лет 11 месяцев   |    .torrent скачан:  55 раз   |   
Раздают:  1  
   
Загрузка...
 
Автор Сообщение

AqvaGen


Queen Of The Damned - Music From The Motion Picture

Жанр: sountrack
Год выпуска диска: 2002
Производитель диска: USA
Аудио кодек: FLAC
Тип рипа: tracks+.cue
Битрейт аудио: lossless
Продолжительность: 01:00:00
Трэклист:
01. Wayne Static of Static-X - Not Meant for Me \ 04:09
02. David Draiman of Disturbed - Forsaken \ 03:39
03. Chester Bennington of Linkin Park - System \ 05:03
04. Deftones - Change (In the House of Flies) \ 04:59
05. Marilyn Manson - Redeemer \ 04:19
06. Papa Roach - Dead Cell \ 03:07
07. Godhead - Penetrate \ 04:18
08. Jay Gordon of Orgy - Slept So Long \ 05:29
09. Disturbed - Down With the Sickness \ 04:38
10. Static-X - Cold \ 02:58
11. Earshot - Headstrong \ 04:55
12. Dry Cell - Body Crumbles \ 03:07
13. Tricky - Excess \ 04:43
14. Kidneythieves - Before I'm Dead \ 04:36
 
EAC extraction logfile from 12. April 2008, 4:03 for CDVarious Artists / Queen of the Damned

Used drive : LITE-ON DVDRW SHM-165P6S Adapter: 4 ID: 1Read mode : Secure with NO C2, accurate stream, disable cacheRead offset correction : 6Overread into Lead-In and Lead-Out : No

Used output format : C:\Program Files\FLAC\flac.exe (User Defined Encoder) 128 kBit/s Additional command line options : -V -8 -T "artist=%a" -T "title=%t" -T "album=%g" -T "date=%y" -T "tracknumber=%n" -T "genre=%m" %s

Other options : Fill up missing offset samples with silence : Yes Delete leading and trailing silent blocks : No Installed external ASPI interface

Track 1 Filename G:\My Flac Rips\V\Various - Queen Of The Damned Soundtrack - Music From The Motion Picture - (2002) {FLAC]\01 - Wayne Static of Static-X - Not Meant for Me.wav

Pre-gap length 0:00:02.00

Peak level 98.8 % Track quality 100.0 % Test CRC E0FB250D Copy CRC E0FB250D Copy OK

Track 2 Filename G:\My Flac Rips\V\Various - Queen Of The Damned Soundtrack - Music From The Motion Picture - (2002) {FLAC]\02 - David Draiman of Disturbed - Forsaken.wav

Peak level 98.8 % Track quality 100.0 % Test CRC 0894CA8F Copy CRC 0894CA8F Copy OK

Track 3 Filename G:\My Flac Rips\V\Various - Queen Of The Damned Soundtrack - Music From The Motion Picture - (2002) {FLAC]\03 - Chester Bennington of Linkin Park - System.wav

Peak level 99.4 % Track quality 100.0 % Test CRC BC2BE218 Copy CRC BC2BE218 Copy OK

Track 4 Filename G:\My Flac Rips\V\Various - Queen Of The Damned Soundtrack - Music From The Motion Picture - (2002) {FLAC]\04 - Deftones - Change (In the House of Flies).wav

Peak level 100.0 % Track quality 99.9 % Test CRC 6B77D5C6 Copy CRC 6B77D5C6 Copy OK

Track 5 Filename G:\My Flac Rips\V\Various - Queen Of The Damned Soundtrack - Music From The Motion Picture - (2002) {FLAC]\05 - Marilyn Manson - Redeemer.wav

Peak level 98.8 % Track quality 100.0 % Test CRC 177AA951 Copy CRC 177AA951 Copy OK

Track 6 Filename G:\My Flac Rips\V\Various - Queen Of The Damned Soundtrack - Music From The Motion Picture - (2002) {FLAC]\06 - Papa Roach - Dead Cell.wav

Peak level 98.8 % Track quality 100.0 % Test CRC 0A02ABB8 Copy CRC 0A02ABB8 Copy OK

Track 7 Filename G:\My Flac Rips\V\Various - Queen Of The Damned Soundtrack - Music From The Motion Picture - (2002) {FLAC]\07 - Godhead - Penetrate.wav

Peak level 97.7 % Track quality 100.0 % Test CRC 4D1A6E4D Copy CRC 4D1A6E4D Copy OK

Track 8 Filename G:\My Flac Rips\V\Various - Queen Of The Damned Soundtrack - Music From The Motion Picture - (2002) {FLAC]\08 - Jay Gordon of Orgy - Slept So Long.wav

Peak level 98.8 % Track quality 100.0 % Test CRC 019B473C Copy CRC 019B473C Copy OK

Track 9 Filename G:\My Flac Rips\V\Various - Queen Of The Damned Soundtrack - Music From The Motion Picture - (2002) {FLAC]\09 - Disturbed - Down With the Sickness.wav

Peak level 91.2 % Track quality 100.0 % Test CRC C2755CD0 Copy CRC C2755CD0 Copy OK

Track 10 Filename G:\My Flac Rips\V\Various - Queen Of The Damned Soundtrack - Music From The Motion Picture - (2002) {FLAC]\10 - Static-X - Cold.wav

Peak level 89.1 % Track quality 100.0 % Test CRC 64D9FE42 Copy CRC 64D9FE42 Copy OK

Track 11 Filename G:\My Flac Rips\V\Various - Queen Of The Damned Soundtrack - Music From The Motion Picture - (2002) {FLAC]\11 - Earshot - Headstrong.wav

Peak level 98.8 % Track quality 100.0 % Test CRC 2DC45631 Copy CRC 2DC45631 Copy OK

Track 12 Filename G:\My Flac Rips\V\Various - Queen Of The Damned Soundtrack - Music From The Motion Picture - (2002) {FLAC]\12 - Dry Cell - Body Crumbles.wav

Peak level 98.8 % Track quality 100.0 % Test CRC AE291FF8 Copy CRC AE291FF8 Copy OK

Track 13 Filename G:\My Flac Rips\V\Various - Queen Of The Damned Soundtrack - Music From The Motion Picture - (2002) {FLAC]\13 - Tricky - Excess.wav

Peak level 99.8 % Track quality 100.0 % Test CRC 1564DBFE Copy CRC 1564DBFE Copy OK

Track 14 Filename G:\My Flac Rips\V\Various - Queen Of The Damned Soundtrack - Music From The Motion Picture - (2002) {FLAC]\14 - Kidneythieves - Before I'm Dead.wav

Peak level 98.8 % Track quality 100.0 % Test CRC 47AE601B Copy CRC 47AE601B Copy OK

No errors occured

End of status report


Трекер:  [ 21-Дек-2010 14:57 ]

  

Скачать .torrent

Размер .torrent файла 19 KB


Размер: 439 MB
Хэш (hash) релиза: 0193a706827a13d143c0cf57bed78d2586264506

bot

Топик был перенесен в форум Саундтреки к фильмам и мультфильмам (lossless)

Перенес AqvaGen

Хотите добавить комментарий к записи скачать торрент Queen Of The Damned - Music From The Motion Picture - 2002, FLAC

!Обратная связь