Lexx: The Series torrent

, , - AdBlock. #!


368 MB   |    :  6 5    |    .torrent :  46    |   
1  
   
...
 

Galfimbul

avatar Galfimbul


/ Lexx: The Series
Original Soundtrack from the Sci-Fi Series
Music by Marty Simon


: Score | : 2001 | : Crescendo
: FLAC | : tracks+.cue | : lossless
: 01:08:12
: WhatCD

01. Opening Theme - Season 3 [01:02]
02. 790 Quote (from Brizon) [00:18]
03. Prince to Lexx (from Fire and Water) [02:20]
04. All He Wants is Sex (from Stan's Trial) [02:38]
05. Angel Song (from Nook) [01:38]
06. A Walk in the Desert (from Battle) [04:15]
07. Seduction (from Love Grows) [00:58]
08. Wild, Wild Lexx [03:42]
09. Galley (from Love Grows) [02:41]
10. Opening Theme: Season 2 - Version 1 [01:03]
11. Holograms (from Loveliner) [02:54]
12. The Search (from Girltown) [03:09]
13. Xey's Dream (from The Web/The Net) [04:13]
14. Garden (from Garden) [06:33]
15. Lexx Hungry (from Fire and Water) [00:17]
16. Into the Garden (from Garden) [01:36]
17. Lyekka/Potato Hoe (from Lyekka) [04:58]
18. Gondola Ride (from May) [04:47]
19. Mantrid Medley (from Mantrid) [03:49]
20. Prince Theme (Season Three Reprise) [02:01]
21. Medieval Dance (from Nook) [01:38]
22. Girl Awakes/Norb Launch (from 791/Norb) [01:48]
23. The Xev Show (from Lafftrack) [00:32]
24. Demented Chase (from Lafftrack) [02:28]
25. Yo-A-O/I'm Leaving (from Terminal) [01:06]
26. Zev Dies (from Terminal) [02:23]
27. Final Scene [01:42]
28. Opening Theme Season 2 - Version 2 [01:27]
 
Exact Audio Copy V0.99 prebeta 4 from 23. January 2008

EAC extraction logfile from 11. May 2010, 8:18

Marty Simon / Lexx: The Series (Original Soundtrack from the Sci-Fi Series)

Used drive : HL-DT-STDVDRAM GSA-H10N Adapter: 0 ID: 0

Read mode : SecureUtilize accurate stream : YesDefeat audio cache : YesMake use of C2 pointers : No

Read offset correction : 667Overread into Lead-In and Lead-Out : NoFill up missing offset samples with silence : YesDelete leading and trailing silent blocks : NoNull samples used in CRC calculations : YesUsed interface : Native Win32 interface for Win NT & 2000Gap handling : Appended to previous track

Used output format : User Defined EncoderSelected bitrate : 128 kBit/sQuality : HighAdd ID3 tag : NoCommand line compressor : C:\Program Files\FLAC\flac.exeAdditional command line options : -V -8 -T "artist=%a" -T "title=%t" -T "album=%g" -T "date=%y" -T "tracknumber=%n" -T "genre=%m" %s

TOC of the extracted CD

Track | Start | Length | Start sector | End sector --------------------------------------------------------- 1 | 0:00.01 | 1:02.26 | 1 | 4676 2 | 1:02.27 | 0:18.01 | 4677 | 6027 3 | 1:20.28 | 2:20.65 | 6028 | 16592 4 | 3:41.18 | 2:38.31 | 16593 | 28473 5 | 6:19.49 | 1:38.35 | 28474 | 35858 6 | 7:58.09 | 4:15.41 | 35859 | 55024 7 | 12:13.50 | 0:58.63 | 55025 | 59437 8 | 13:12.38 | 3:42.62 | 59438 | 76149 9 | 16:55.25 | 2:41.60 | 76150 | 88284 10 | 19:37.10 | 1:03.57 | 88285 | 93066 11 | 20:40.67 | 2:54.62 | 93067 | 106178 12 | 23:35.54 | 3:09.74 | 106179 | 120427 13 | 26:45.53 | 4:13.35 | 120428 | 139437 14 | 30:59.13 | 6:33.55 | 139438 | 168967 15 | 37:32.68 | 0:17.26 | 168968 | 170268 16 | 37:50.19 | 1:36.63 | 170269 | 177531 17 | 39:27.07 | 4:58.59 | 177532 | 199940 18 | 44:25.66 | 4:47.38 | 199941 | 221503 19 | 49:13.29 | 3:49.70 | 221504 | 238748 20 | 53:03.24 | 2:01.05 | 238749 | 247828 21 | 55:04.29 | 1:38.70 | 247829 | 255248 22 | 56:43.24 | 1:48.44 | 255249 | 263392 23 | 58:31.68 | 0:32.42 | 263393 | 265834 24 | 59:04.35 | 2:28.71 | 265835 | 277005 25 | 61:33.31 | 1:06.39 | 277006 | 281994 26 | 62:39.70 | 2:23.00 | 281995 | 292719 27 | 65:02.70 | 1:42.53 | 292720 | 300422 28 | 66:45.48 | 1:27.06 | 300423 | 306953

Track 1

Filename H:\EAC\Marty Simon - 2001 - Lexx- The Series (Original Soundtrack from the Sci-Fi Series)\01 - Opening Theme - Season 3.wav

Pre-gap length 0:00:02.01

Peak level 91.0 % Track quality 100.0 % Test CRC 294CAF75 Copy CRC 294CAF75 Cannot be verified as accurate (confidence 1) [AEC7930F], AccurateRip returned [2D4844E7] Copy OK

Track 2

Filename H:\EAC\Marty Simon - 2001 - Lexx- The Series (Original Soundtrack from the Sci-Fi Series)\02 - 790 Quote (from Brizon).wav

Peak level 44.1 % Track quality 100.0 % Test CRC 7E9A80CC Copy CRC 7E9A80CC Cannot be verified as accurate (confidence 1) [1D3E5CBE], AccurateRip returned [07A34376] Copy OK

Track 3

Filename H:\EAC\Marty Simon - 2001 - Lexx- The Series (Original Soundtrack from the Sci-Fi Series)\03 - Prince to Lexx (from Fire and Water).wav

Peak level 100.0 % Track quality 100.0 % Test CRC 3D424B87 Copy CRC 3D424B87 Cannot be verified as accurate (confidence 1) [4A2FAED8], AccurateRip returned [44465C78] Copy OK

Track 4

Filename H:\EAC\Marty Simon - 2001 - Lexx- The Series (Original Soundtrack from the Sci-Fi Series)\04 - All He Wants is Sex (from Stan's Trial).wav

Peak level 100.0 % Track quality 99.9 % Test CRC 2EE9D1AC Copy CRC 2EE9D1AC Cannot be verified as accurate (confidence 1) [EE098505], AccurateRip returned [0FA58575] Copy OK

Track 5

Filename H:\EAC\Marty Simon - 2001 - Lexx- The Series (Original Soundtrack from the Sci-Fi Series)\05 - Angel Song (from Nook).wav

Peak level 63.1 % Track quality 100.0 % Test CRC 8E879223 Copy CRC 8E879223 Cannot be verified as accurate (confidence 1) [4C5D44C2], AccurateRip returned [DD15F25A] Copy OK

Track 6

Filename H:\EAC\Marty Simon - 2001 - Lexx- The Series (Original Soundtrack from the Sci-Fi Series)\06 - A Walk in the Desert (from Battle).wav

Peak level 93.2 % Track quality 100.0 % Test CRC 0F9B3D35 Copy CRC 0F9B3D35 Cannot be verified as accurate (confidence 1) [C0F831DD], AccurateRip returned [23C5BA75] Copy OK

Track 7

Filename H:\EAC\Marty Simon - 2001 - Lexx- The Series (Original Soundtrack from the Sci-Fi Series)\07 - Seduction (from Love Grows).wav

Peak level 82.5 % Track quality 100.0 % Test CRC 6304398A Copy CRC 6304398A Cannot be verified as accurate (confidence 1) [645307FC], AccurateRip returned [A4E60DFC] Copy OK

Track 8

Filename H:\EAC\Marty Simon - 2001 - Lexx- The Series (Original Soundtrack from the Sci-Fi Series)\08 - Wild, Wild Lexx.wav

Peak level 94.6 % Track quality 99.9 % Test CRC C0ADBA8F Copy CRC C0ADBA8F Cannot be verified as accurate (confidence 1) [02829FEC], AccurateRip returned [85FDA9CC] Copy OK

Track 9

Filename H:\EAC\Marty Simon - 2001 - Lexx- The Series (Original Soundtrack from the Sci-Fi Series)\09 - Galley (from Love Grows).wav

Peak level 100.0 % Track quality 100.0 % Test CRC 5CD3629E Copy CRC 5CD3629E Cannot be verified as accurate (confidence 1) [EA121D20], AccurateRip returned [68EC2790] Copy OK

Track 10

Filename H:\EAC\Marty Simon - 2001 - Lexx- The Series (Original Soundtrack from the Sci-Fi Series)\10 - Opening Theme- Season 2 - Version 1.wav

Peak level 96.7 % Track quality 99.8 % Test CRC 25C4C150 Copy CRC 25C4C150 Cannot be verified as accurate (confidence 1) [86B29EF4], AccurateRip returned [02FC9CF4] Copy OK

Track 11

Filename H:\EAC\Marty Simon - 2001 - Lexx- The Series (Original Soundtrack from the Sci-Fi Series)\11 - Holograms (from Loveliner).wav

Peak level 88.5 % Track quality 100.0 % Test CRC 4BD9F11B Copy CRC 4BD9F11B Cannot be verified as accurate (confidence 1) [40650DBE], AccurateRip returned [91100ACE] Copy OK

Track 12

Filename H:\EAC\Marty Simon - 2001 - Lexx- The Series (Original Soundtrack from the Sci-Fi Series)\12 - The Search (from Girltown).wav

Peak level 92.3 % Track quality 100.0 % Test CRC 690CEFB9 Copy CRC 690CEFB9 Cannot be verified as accurate (confidence 1) [DE0B4D30], AccurateRip returned [6A965D08] Copy OK

Track 13

Filename H:\EAC\Marty Simon - 2001 - Lexx- The Series (Original Soundtrack from the Sci-Fi Series)\13 - Xey's Dream (from The Web,The Net).wav

Peak level 81.0 % Track quality 100.0 % Test CRC 5034F7AF Copy CRC 5034F7AF Cannot be verified as accurate (confidence 1) [1A906F3C], AccurateRip returned [FFC092A4] Copy OK

Track 14

Filename H:\EAC\Marty Simon - 2001 - Lexx- The Series (Original Soundtrack from the Sci-Fi Series)\14 - Garden (from Garden).wav

Peak level 96.7 % Track quality 100.0 % Test CRC 841EA61A Copy CRC 841EA61A Cannot be verified as accurate (confidence 1) [BC342E27], AccurateRip returned [ED8AD6E7] Copy OK

Track 15

Filename H:\EAC\Marty Simon - 2001 - Lexx- The Series (Original Soundtrack from the Sci-Fi Series)\15 - Lexx Hungry (from Fire and Water).wav

Peak level 41.2 % Track quality 100.0 % Test CRC D755058A Copy CRC D755058A Cannot be verified as accurate (confidence 1) [A0C6E22C], AccurateRip returned [71E61011] Copy OK

Track 16

Filename H:\EAC\Marty Simon - 2001 - Lexx- The Series (Original Soundtrack from the Sci-Fi Series)\16 - Into the Garden (from Garden).wav

Peak level 53.5 % Track quality 100.0 % Test CRC A7BD7561 Copy CRC A7BD7561 Cannot be verified as accurate (confidence 1) [0458DC44], AccurateRip returned [3AA7D23F] Copy OK

Track 17

Filename H:\EAC\Marty Simon - 2001 - Lexx- The Series (Original Soundtrack from the Sci-Fi Series)\17 - Lyekka,Potato Hoe (from Lyekka).wav

Peak level 85.7 % Track quality 100.0 % Test CRC 43855AC0 Copy CRC 43855AC0 Cannot be verified as accurate (confidence 1) [77E28091], AccurateRip returned [C34D7D41] Copy OK

Track 18

Filename H:\EAC\Marty Simon - 2001 - Lexx- The Series (Original Soundtrack from the Sci-Fi Series)\18 - Gondola Ride (from May).wav

Peak level 92.0 % Track quality 100.0 % Test CRC 09178200 Copy CRC 09178200 Cannot be verified as accurate (confidence 1) [1B6EA503], AccurateRip returned [1B82ADCB] Copy OK

Track 19

Filename H:\EAC\Marty Simon - 2001 - Lexx- The Series (Original Soundtrack from the Sci-Fi Series)\19 - Mantrid Medley (from Mantrid).wav

Peak level 92.2 % Track quality 100.0 % Test CRC 0AAAFF46 Copy CRC 0AAAFF46 Cannot be verified as accurate (confidence 1) [51BCFF4E], AccurateRip returned [30670746] Copy OK

Track 20

Filename H:\EAC\Marty Simon - 2001 - Lexx- The Series (Original Soundtrack from the Sci-Fi Series)\20 - Prince Theme (Season Three Reprise).wav

Peak level 86.8 % Track quality 100.0 % Test CRC 4AD3CAB7 Copy CRC 4AD3CAB7 Cannot be verified as accurate (confidence 1) [92BE826D], AccurateRip returned [D433EABD] Copy OK

Track 21

Filename H:\EAC\Marty Simon - 2001 - Lexx- The Series (Original Soundtrack from the Sci-Fi Series)\21 - Medieval Dance (from Nook).wav

Peak level 49.9 % Track quality 99.8 % Test CRC BF37F144 Copy CRC BF37F144 Cannot be verified as accurate (confidence 1) [F2AD95D5], AccurateRip returned [0651240D] Copy OK

Track 22

Filename H:\EAC\Marty Simon - 2001 - Lexx- The Series (Original Soundtrack from the Sci-Fi Series)\22 - Girl Awakes,Norb Launch (from 791,Norb).wav

Peak level 68.4 % Track quality 99.9 % Test CRC EFA1D4B2 Copy CRC EFA1D4B2 Cannot be verified as accurate (confidence 1) [C1DF693C], AccurateRip returned [9262FE74] Copy OK

Track 23

Filename H:\EAC\Marty Simon - 2001 - Lexx- The Series (Original Soundtrack from the Sci-Fi Series)\23 - The Xev Show (from Lafftrack).wav

Peak level 71.2 % Track quality 99.6 % Test CRC 7CF61D59 Copy CRC 7CF61D59 Cannot be verified as accurate (confidence 1) [BFE81E7E], AccurateRip returned [9C63D5DB] Copy OK

Track 24

Filename H:\EAC\Marty Simon - 2001 - Lexx- The Series (Original Soundtrack from the Sci-Fi Series)\24 - Demented Chase (from Lafftrack).wav

Peak level 89.7 % Track quality 100.0 % Test CRC 1332EBA8 Copy CRC 1332EBA8 Cannot be verified as accurate (confidence 1) [95A045C2], AccurateRip returned [861618B7] Copy OK

Track 25

Filename H:\EAC\Marty Simon - 2001 - Lexx- The Series (Original Soundtrack from the Sci-Fi Series)\25 - Yo-A-O,I'm Leaving (from Terminal).wav

Peak level 38.8 % Track quality 100.0 % Test CRC 83516D67 Copy CRC 83516D67 Cannot be verified as accurate (confidence 1) [33C0A0EB], AccurateRip returned [13FA0BF1] Copy OK

Track 26

Filename H:\EAC\Marty Simon - 2001 - Lexx- The Series (Original Soundtrack from the Sci-Fi Series)\26 - Zev Dies (from Terminal).wav

Peak level 76.0 % Track quality 100.0 % Test CRC CDBEE12A Copy CRC CDBEE12A Cannot be verified as accurate (confidence 1) [F0F86ADE], AccurateRip returned [07F7979E] Copy OK

Track 27

Filename H:\EAC\Marty Simon - 2001 - Lexx- The Series (Original Soundtrack from the Sci-Fi Series)\27 - Final Scene.wav

Peak level 88.6 % Track quality 100.0 % Test CRC 33B064D0 Copy CRC 33B064D0 Cannot be verified as accurate (confidence 1) [C9564BE5], AccurateRip returned [4E783375] Copy OK

Track 28

Filename H:\EAC\Marty Simon - 2001 - Lexx- The Series (Original Soundtrack from the Sci-Fi Series)\28 - Opening Theme Season 2 - Version 2.wav

Peak level 100.0 % Track quality 100.0 % Test CRC F1C1B1A2 Copy CRC F1C1B1A2 Cannot be verified as accurate (confidence 1) [69F4AC5F], AccurateRip returned [5BA3230F] Copy OK

No tracks could be verified as accurateYou may have a different pressing from the one(s) in the database

No errors occurred

End of status report
 
REM GENRE SoundtrackREM DATE 2001REM DISCID 8A0FFC1CREM COMMENT "ExactAudioCopy v0.99pb4"PERFORMER "Marty Simon"TITLE "Lexx: The Series (Original Soundtrack from the Sci-Fi Series)"FILE "Marty Simon - 2001 - Lexx- The Series (Original Soundtrack from the Sci-Fi Series)\01 - Opening Theme - Season 3.wav" WAVE TRACK 01 AUDIO TITLE "Opening Theme - Season 3" PERFORMER "Marty Simon" FLAGS DCP PREGAP 00:00:01 INDEX 01 00:00:00FILE "Marty Simon - 2001 - Lexx- The Series (Original Soundtrack from the Sci-Fi Series)\02 - 790 Quote (from Brizon).wav" WAVE TRACK 02 AUDIO TITLE "790 Quote (from Brizon)" PERFORMER "Marty Simon" FLAGS DCP INDEX 01 00:00:00FILE "Marty Simon - 2001 - Lexx- The Series (Original Soundtrack from the Sci-Fi Series)\03 - Prince to Lexx (from Fire and Water).wav" WAVE TRACK 03 AUDIO TITLE "Prince to Lexx (from Fire and Water)" PERFORMER "Marty Simon" FLAGS DCP INDEX 01 00:00:00FILE "Marty Simon - 2001 - Lexx- The Series (Original Soundtrack from the Sci-Fi Series)\04 - All He Wants is Sex (from Stan's Trial).wav" WAVE TRACK 04 AUDIO TITLE "All He Wants is Sex (from Stan's Trial)" PERFORMER "Marty Simon" FLAGS DCP INDEX 01 00:00:00FILE "Marty Simon - 2001 - Lexx- The Series (Original Soundtrack from the Sci-Fi Series)\05 - Angel Song (from Nook).wav" WAVE TRACK 05 AUDIO TITLE "Angel Song (from Nook)" PERFORMER "Marty Simon" FLAGS DCP INDEX 01 00:00:00FILE "Marty Simon - 2001 - Lexx- The Series (Original Soundtrack from the Sci-Fi Series)\06 - A Walk in the Desert (from Battle).wav" WAVE TRACK 06 AUDIO TITLE "A Walk in the Desert (from Battle)" PERFORMER "Marty Simon" FLAGS DCP INDEX 01 00:00:00FILE "Marty Simon - 2001 - Lexx- The Series (Original Soundtrack from the Sci-Fi Series)\07 - Seduction (from Love Grows).wav" WAVE TRACK 07 AUDIO TITLE "Seduction (from Love Grows)" PERFORMER "Marty Simon" FLAGS DCP INDEX 01 00:00:00FILE "Marty Simon - 2001 - Lexx- The Series (Original Soundtrack from the Sci-Fi Series)\08 - Wild, Wild Lexx.wav" WAVE TRACK 08 AUDIO TITLE "Wild, Wild Lexx" PERFORMER "Marty Simon" FLAGS DCP INDEX 01 00:00:00FILE "Marty Simon - 2001 - Lexx- The Series (Original Soundtrack from the Sci-Fi Series)\09 - Galley (from Love Grows).wav" WAVE TRACK 09 AUDIO TITLE "Galley (from Love Grows)" PERFORMER "Marty Simon" FLAGS DCP INDEX 01 00:00:00FILE "Marty Simon - 2001 - Lexx- The Series (Original Soundtrack from the Sci-Fi Series)\10 - Opening Theme- Season 2 - Version 1.wav" WAVE TRACK 10 AUDIO TITLE "Opening Theme: Season 2 - Version 1" PERFORMER "Marty Simon" FLAGS DCP INDEX 01 00:00:00FILE "Marty Simon - 2001 - Lexx- The Series (Original Soundtrack from the Sci-Fi Series)\11 - Holograms (from Loveliner).wav" WAVE TRACK 11 AUDIO TITLE "Holograms (from Loveliner)" PERFORMER "Marty Simon" FLAGS DCP INDEX 01 00:00:00FILE "Marty Simon - 2001 - Lexx- The Series (Original Soundtrack from the Sci-Fi Series)\12 - The Search (from Girltown).wav" WAVE TRACK 12 AUDIO TITLE "The Search (from Girltown)" PERFORMER "Marty Simon" FLAGS DCP INDEX 01 00:00:00FILE "Marty Simon - 2001 - Lexx- The Series (Original Soundtrack from the Sci-Fi Series)\13 - Xey's Dream (from The Web,The Net).wav" WAVE TRACK 13 AUDIO TITLE "Xey's Dream (from The Web/The Net)" PERFORMER "Marty Simon" FLAGS DCP INDEX 01 00:00:00FILE "Marty Simon - 2001 - Lexx- The Series (Original Soundtrack from the Sci-Fi Series)\14 - Garden (from Garden).wav" WAVE TRACK 14 AUDIO TITLE "Garden (from Garden)" PERFORMER "Marty Simon" FLAGS DCP INDEX 01 00:00:00FILE "Marty Simon - 2001 - Lexx- The Series (Original Soundtrack from the Sci-Fi Series)\15 - Lexx Hungry (from Fire and Water).wav" WAVE TRACK 15 AUDIO TITLE "Lexx Hungry (from Fire and Water)" PERFORMER "Marty Simon" FLAGS DCP INDEX 01 00:00:00FILE "Marty Simon - 2001 - Lexx- The Series (Original Soundtrack from the Sci-Fi Series)\16 - Into the Garden (from Garden).wav" WAVE TRACK 16 AUDIO TITLE "Into the Garden (from Garden)" PERFORMER "Marty Simon" FLAGS DCP INDEX 01 00:00:00FILE "Marty Simon - 2001 - Lexx- The Series (Original Soundtrack from the Sci-Fi Series)\17 - Lyekka,Potato Hoe (from Lyekka).wav" WAVE TRACK 17 AUDIO TITLE "Lyekka/Potato Hoe (from Lyekka)" PERFORMER "Marty Simon" FLAGS DCP INDEX 01 00:00:00FILE "Marty Simon - 2001 - Lexx- The Series (Original Soundtrack from the Sci-Fi Series)\18 - Gondola Ride (from May).wav" WAVE TRACK 18 AUDIO TITLE "Gondola Ride (from May)" PERFORMER "Marty Simon" FLAGS DCP INDEX 01 00:00:00FILE "Marty Simon - 2001 - Lexx- The Series (Original Soundtrack from the Sci-Fi Series)\19 - Mantrid Medley (from Mantrid).wav" WAVE TRACK 19 AUDIO TITLE "Mantrid Medley (from Mantrid)" PERFORMER "Marty Simon" FLAGS DCP INDEX 01 00:00:00FILE "Marty Simon - 2001 - Lexx- The Series (Original Soundtrack from the Sci-Fi Series)\20 - Prince Theme (Season Three Reprise).wav" WAVE TRACK 20 AUDIO TITLE "Prince Theme (Season Three Reprise)" PERFORMER "Marty Simon" FLAGS DCP INDEX 01 00:00:00FILE "Marty Simon - 2001 - Lexx- The Series (Original Soundtrack from the Sci-Fi Series)\21 - Medieval Dance (from Nook).wav" WAVE TRACK 21 AUDIO TITLE "Medieval Dance (from Nook)" PERFORMER "Marty Simon" FLAGS DCP INDEX 01 00:00:00FILE "Marty Simon - 2001 - Lexx- The Series (Original Soundtrack from the Sci-Fi Series)\22 - Girl Awakes,Norb Launch (from 791,Norb).wav" WAVE TRACK 22 AUDIO TITLE "Girl Awakes/Norb Launch (from 791/Norb)" PERFORMER "Marty Simon" FLAGS DCP INDEX 01 00:00:00FILE "Marty Simon - 2001 - Lexx- The Series (Original Soundtrack from the Sci-Fi Series)\23 - The Xev Show (from Lafftrack).wav" WAVE TRACK 23 AUDIO TITLE "The Xev Show (from Lafftrack)" PERFORMER "Marty Simon" FLAGS DCP INDEX 01 00:00:00FILE "Marty Simon - 2001 - Lexx- The Series (Original Soundtrack from the Sci-Fi Series)\24 - Demented Chase (from Lafftrack).wav" WAVE TRACK 24 AUDIO TITLE "Demented Chase (from Lafftrack)" PERFORMER "Marty Simon" FLAGS DCP INDEX 01 00:00:00FILE "Marty Simon - 2001 - Lexx- The Series (Original Soundtrack from the Sci-Fi Series)\25 - Yo-A-O,I'm Leaving (from Terminal).wav" WAVE TRACK 25 AUDIO TITLE "Yo-A-O/I'm Leaving (from Terminal)" PERFORMER "Marty Simon" FLAGS DCP INDEX 01 00:00:00FILE "Marty Simon - 2001 - Lexx- The Series (Original Soundtrack from the Sci-Fi Series)\26 - Zev Dies (from Terminal).wav" WAVE TRACK 26 AUDIO TITLE "Zev Dies (from Terminal)" PERFORMER "Marty Simon" FLAGS DCP INDEX 01 00:00:00FILE "Marty Simon - 2001 - Lexx- The Series (Original Soundtrack from the Sci-Fi Series)\27 - Final Scene.wav" WAVE TRACK 27 AUDIO TITLE "Final Scene" PERFORMER "Marty Simon" FLAGS DCP INDEX 01 00:00:00FILE "Marty Simon - 2001 - Lexx- The Series (Original Soundtrack from the Sci-Fi Series)\28 - Opening Theme Season 2 - Version 2.wav" WAVE TRACK 28 AUDIO TITLE "Opening Theme Season 2 - Version 2" PERFORMER "Marty Simon" FLAGS DCP INDEX 01 00:00:00
 
REM GENRE SoundtrackREM DATE 2001REM DISCID 8A0FFC1CREM COMMENT "ExactAudioCopy v0.99pb4"PERFORMER "Marty Simon"TITLE "Lexx: The Series (Original Soundtrack from the Sci-Fi Series)"FILE "01 - Opening Theme - Season 3.wav" WAVE TRACK 01 AUDIO TITLE "Opening Theme - Season 3" PERFORMER "Marty Simon" FLAGS DCP PREGAP 00:00:01 INDEX 01 00:00:00FILE "02 - 790 Quote (from Brizon).wav" WAVE TRACK 02 AUDIO TITLE "790 Quote (from Brizon)" PERFORMER "Marty Simon" FLAGS DCP INDEX 01 00:00:00FILE "03 - Prince to Lexx (from Fire and Water).wav" WAVE TRACK 03 AUDIO TITLE "Prince to Lexx (from Fire and Water)" PERFORMER "Marty Simon" FLAGS DCP INDEX 01 00:00:00FILE "04 - All He Wants is Sex (from Stan's Trial).wav" WAVE TRACK 04 AUDIO TITLE "All He Wants is Sex (from Stan's Trial)" PERFORMER "Marty Simon" FLAGS DCP INDEX 01 00:00:00FILE "05 - Angel Song (from Nook).wav" WAVE TRACK 05 AUDIO TITLE "Angel Song (from Nook)" PERFORMER "Marty Simon" FLAGS DCP INDEX 01 00:00:00FILE "06 - A Walk in the Desert (from Battle).wav" WAVE TRACK 06 AUDIO TITLE "A Walk in the Desert (from Battle)" PERFORMER "Marty Simon" FLAGS DCP INDEX 01 00:00:00FILE "07 - Seduction (from Love Grows).wav" WAVE TRACK 07 AUDIO TITLE "Seduction (from Love Grows)" PERFORMER "Marty Simon" FLAGS DCP INDEX 01 00:00:00FILE "08 - Wild, Wild Lexx.wav" WAVE TRACK 08 AUDIO TITLE "Wild, Wild Lexx" PERFORMER "Marty Simon" FLAGS DCP INDEX 01 00:00:00FILE "09 - Galley (from Love Grows).wav" WAVE TRACK 09 AUDIO TITLE "Galley (from Love Grows)" PERFORMER "Marty Simon" FLAGS DCP INDEX 01 00:00:00FILE "10 - Opening Theme- Season 2 - Version 1.wav" WAVE TRACK 10 AUDIO TITLE "Opening Theme: Season 2 - Version 1" PERFORMER "Marty Simon" FLAGS DCP INDEX 01 00:00:00FILE "11 - Holograms (from Loveliner).wav" WAVE TRACK 11 AUDIO TITLE "Holograms (from Loveliner)" PERFORMER "Marty Simon" FLAGS DCP INDEX 01 00:00:00FILE "12 - The Search (from Girltown).wav" WAVE TRACK 12 AUDIO TITLE "The Search (from Girltown)" PERFORMER "Marty Simon" FLAGS DCP INDEX 01 00:00:00FILE "13 - Xey's Dream (from The Web,The Net).wav" WAVE TRACK 13 AUDIO TITLE "Xey's Dream (from The Web/The Net)" PERFORMER "Marty Simon" FLAGS DCP INDEX 01 00:00:00FILE "14 - Garden (from Garden).wav" WAVE TRACK 14 AUDIO TITLE "Garden (from Garden)" PERFORMER "Marty Simon" FLAGS DCP INDEX 01 00:00:00FILE "15 - Lexx Hungry (from Fire and Water).wav" WAVE TRACK 15 AUDIO TITLE "Lexx Hungry (from Fire and Water)" PERFORMER "Marty Simon" FLAGS DCP INDEX 01 00:00:00FILE "16 - Into the Garden (from Garden).wav" WAVE TRACK 16 AUDIO TITLE "Into the Garden (from Garden)" PERFORMER "Marty Simon" FLAGS DCP INDEX 01 00:00:00FILE "17 - Lyekka,Potato Hoe (from Lyekka).wav" WAVE TRACK 17 AUDIO TITLE "Lyekka/Potato Hoe (from Lyekka)" PERFORMER "Marty Simon" FLAGS DCP INDEX 01 00:00:00FILE "18 - Gondola Ride (from May).wav" WAVE TRACK 18 AUDIO TITLE "Gondola Ride (from May)" PERFORMER "Marty Simon" FLAGS DCP INDEX 01 00:00:00FILE "19 - Mantrid Medley (from Mantrid).wav" WAVE TRACK 19 AUDIO TITLE "Mantrid Medley (from Mantrid)" PERFORMER "Marty Simon" FLAGS DCP INDEX 01 00:00:00FILE "20 - Prince Theme (Season Three Reprise).wav" WAVE TRACK 20 AUDIO TITLE "Prince Theme (Season Three Reprise)" PERFORMER "Marty Simon" FLAGS DCP INDEX 01 00:00:00FILE "21 - Medieval Dance (from Nook).wav" WAVE TRACK 21 AUDIO TITLE "Medieval Dance (from Nook)" PERFORMER "Marty Simon" FLAGS DCP INDEX 01 00:00:00FILE "22 - Girl Awakes,Norb Launch (from 791,Norb).wav" WAVE TRACK 22 AUDIO TITLE "Girl Awakes/Norb Launch (from 791/Norb)" PERFORMER "Marty Simon" FLAGS DCP INDEX 01 00:00:00FILE "23 - The Xev Show (from Lafftrack).wav" WAVE TRACK 23 AUDIO TITLE "The Xev Show (from Lafftrack)" PERFORMER "Marty Simon" FLAGS DCP INDEX 01 00:00:00FILE "24 - Demented Chase (from Lafftrack).wav" WAVE TRACK 24 AUDIO TITLE "Demented Chase (from Lafftrack)" PERFORMER "Marty Simon" FLAGS DCP INDEX 01 00:00:00FILE "25 - Yo-A-O,I'm Leaving (from Terminal).wav" WAVE TRACK 25 AUDIO TITLE "Yo-A-O/I'm Leaving (from Terminal)" PERFORMER "Marty Simon" FLAGS DCP INDEX 01 00:00:00FILE "26 - Zev Dies (from Terminal).wav" WAVE TRACK 26 AUDIO TITLE "Zev Dies (from Terminal)" PERFORMER "Marty Simon" FLAGS DCP INDEX 01 00:00:00FILE "27 - Final Scene.wav" WAVE TRACK 27 AUDIO TITLE "Final Scene" PERFORMER "Marty Simon" FLAGS DCP INDEX 01 00:00:00FILE "28 - Opening Theme Season 2 - Version 2.wav" WAVE TRACK 28 AUDIO TITLE "Opening Theme Season 2 - Version 2" PERFORMER "Marty Simon" FLAGS DCP INDEX 01 00:00:00
 
AUDIOCHECKER v1.2 - by Dester - opdester@freemail.hu~~~~~~~~~~~~~~~~~

01 -===- H:\EAC\Marty Simon - 2001 - Lexx- The Series (Original Soundtrack from the Sci-Fi Series)\01 - Opening Theme - Season 3.flac Extracted successfully Conclusion: This track looks like CDDA with probability 100%

02 -===- H:\EAC\Marty Simon - 2001 - Lexx- The Series (Original Soundtrack from the Sci-Fi Series)\02 - 790 Quote (from Brizon).flac Extracted successfully Conclusion: This track looks like CDDA with probability 100%

03 -===- H:\EAC\Marty Simon - 2001 - Lexx- The Series (Original Soundtrack from the Sci-Fi Series)\03 - Prince to Lexx (from Fire and Water).flac Extracted successfully Conclusion: This track looks like CDDA with probability 100%

04 -===- H:\EAC\Marty Simon - 2001 - Lexx- The Series (Original Soundtrack from the Sci-Fi Series)\04 - All He Wants is Sex (from Stan's Trial).flac Extracted successfully Conclusion: This track looks like CDDA with probability 100%

05 -===- H:\EAC\Marty Simon - 2001 - Lexx- The Series (Original Soundtrack from the Sci-Fi Series)\05 - Angel Song (from Nook).flac Extracted successfully Conclusion: This track looks like CDDA with probability 100%

06 -===- H:\EAC\Marty Simon - 2001 - Lexx- The Series (Original Soundtrack from the Sci-Fi Series)\06 - A Walk in the Desert (from Battle).flac Extracted successfully Conclusion: This track looks like CDDA with probability 100%

07 -===- H:\EAC\Marty Simon - 2001 - Lexx- The Series (Original Soundtrack from the Sci-Fi Series)\07 - Seduction (from Love Grows).flac Extracted successfully Conclusion: This track looks like CDDA with probability 100%

08 -===- H:\EAC\Marty Simon - 2001 - Lexx- The Series (Original Soundtrack from the Sci-Fi Series)\08 - Wild, Wild Lexx.flac Extracted successfully Conclusion: This track looks like CDDA with probability 99%

09 -===- H:\EAC\Marty Simon - 2001 - Lexx- The Series (Original Soundtrack from the Sci-Fi Series)\09 - Galley (from Love Grows).flac Extracted successfully Conclusion: This track looks like CDDA with probability 100%

10 -===- H:\EAC\Marty Simon - 2001 - Lexx- The Series (Original Soundtrack from the Sci-Fi Series)\10 - Opening Theme- Season 2 - Version 1.flac Extracted successfully Conclusion: This track looks like CDDA with probability 100%

11 -===- H:\EAC\Marty Simon - 2001 - Lexx- The Series (Original Soundtrack from the Sci-Fi Series)\11 - Holograms (from Loveliner).flac Extracted successfully Conclusion: This track looks like CDDA with probability 85%

12 -===- H:\EAC\Marty Simon - 2001 - Lexx- The Series (Original Soundtrack from the Sci-Fi Series)\12 - The Search (from Girltown).flac Extracted successfully Conclusion: This track looks like CDDA with probability 100%

13 -===- H:\EAC\Marty Simon - 2001 - Lexx- The Series (Original Soundtrack from the Sci-Fi Series)\13 - Xey's Dream (from The Web,The Net).flac Extracted successfully Conclusion: This track looks like CDDA with probability 100%

14 -===- H:\EAC\Marty Simon - 2001 - Lexx- The Series (Original Soundtrack from the Sci-Fi Series)\14 - Garden (from Garden).flac Extracted successfully Conclusion: This track looks like CDDA with probability 100%

15 -===- H:\EAC\Marty Simon - 2001 - Lexx- The Series (Original Soundtrack from the Sci-Fi Series)\15 - Lexx Hungry (from Fire and Water).flac Extracted successfully Conclusion: This track looks like CDDA with probability 100%

16 -===- H:\EAC\Marty Simon - 2001 - Lexx- The Series (Original Soundtrack from the Sci-Fi Series)\16 - Into the Garden (from Garden).flac Extracted successfully Conclusion: This track looks like CDDA with probability 100%

17 -===- H:\EAC\Marty Simon - 2001 - Lexx- The Series (Original Soundtrack from the Sci-Fi Series)\17 - Lyekka,Potato Hoe (from Lyekka).flac Extracted successfully Conclusion: This track looks like CDDA with probability 100%

18 -===- H:\EAC\Marty Simon - 2001 - Lexx- The Series (Original Soundtrack from the Sci-Fi Series)\18 - Gondola Ride (from May).flac Extracted successfully Conclusion: This track looks like CDDA with probability 99%

19 -===- H:\EAC\Marty Simon - 2001 - Lexx- The Series (Original Soundtrack from the Sci-Fi Series)\19 - Mantrid Medley (from Mantrid).flac Extracted successfully Conclusion: This track looks like CDDA with probability 100%

20 -===- H:\EAC\Marty Simon - 2001 - Lexx- The Series (Original Soundtrack from the Sci-Fi Series)\20 - Prince Theme (Season Three Reprise).flac Extracted successfully Conclusion: This track looks like CDDA with probability 100%

21 -===- H:\EAC\Marty Simon - 2001 - Lexx- The Series (Original Soundtrack from the Sci-Fi Series)\21 - Medieval Dance (from Nook).flac Extracted successfully Conclusion: This track looks like CDDA with probability 100%

22 -===- H:\EAC\Marty Simon - 2001 - Lexx- The Series (Original Soundtrack from the Sci-Fi Series)\22 - Girl Awakes,Norb Launch (from 791,Norb).flac Extracted successfully Conclusion: This track looks like CDDA with probability 99%

23 -===- H:\EAC\Marty Simon - 2001 - Lexx- The Series (Original Soundtrack from the Sci-Fi Series)\23 - The Xev Show (from Lafftrack).flac Extracted successfully Conclusion: This track looks like CDDA with probability 100%

24 -===- H:\EAC\Marty Simon - 2001 - Lexx- The Series (Original Soundtrack from the Sci-Fi Series)\24 - Demented Chase (from Lafftrack).flac Extracted successfully Conclusion: This track looks like CDDA with probability 99%

25 -===- H:\EAC\Marty Simon - 2001 - Lexx- The Series (Original Soundtrack from the Sci-Fi Series)\25 - Yo-A-O,I'm Leaving (from Terminal).flac Extracted successfully Conclusion: This track looks like CDDA with probability 100%

26 -===- H:\EAC\Marty Simon - 2001 - Lexx- The Series (Original Soundtrack from the Sci-Fi Series)\26 - Zev Dies (from Terminal).flac Extracted successfully Conclusion: This track looks like CDDA with probability 100%

27 -===- H:\EAC\Marty Simon - 2001 - Lexx- The Series (Original Soundtrack from the Sci-Fi Series)\27 - Final Scene.flac Extracted successfully Conclusion: This track looks like CDDA with probability 100%

28 -===- H:\EAC\Marty Simon - 2001 - Lexx- The Series (Original Soundtrack from the Sci-Fi Series)\28 - Opening Theme Season 2 - Version 2.flac Extracted successfully Conclusion: This track looks like CDDA with probability 100%


 ·  , , FAQ-
:  [ 07--2011 22:46 ]

  

.torrent

.torrent 31 KB


: 368 MB
(hash) : d409b38aaf7d1e4a4a58d4416553acd1b419125a
··
...

Lexx: The Series . !

!