Скачать через торрент музыку Eddie Vedder - Into The Wild - 2007, APE бесплатно без регистрации torrent

Если у вас наблюдаются проблемы со скриншотами, переходом по ссылками, скачиванием торрентов - проблемы в блокировщике рекламы AdBlock. #хорошегоДня!


Статистика раздачи
Размер:  168 MB   |    Зарегистрирован:  6 лет 5 месяцев   |    .torrent скачан:  46 раз   |   
Раздают:  1  
   
Загрузка...
 
Автор Сообщение

Galfimbul

avatar Galfimbul


Eddie Vedder - Into The Wild: Music For The M [Soundtrack]

Страна: USA
Жанр: Rock
Год выпуска: 2007
Формат: APE (image + .cue)
Битрейт аудио: lossless
Продолжительность: 33 minutes 4 seconds
Трэклист:
1. Eddie Vedder - Setting Forth (1:37)
2. Eddie Vedder - No Ceiling (1:34)
3. Eddie Vedder - Far Behind (2:15)
4. Eddie Vedder - Rise (2:36)
5. Eddie Vedder - Long Nights (2:31)
6. Eddie Vedder - Tuolumne (1:00)
7. Eddie Vedder - Hard Sun (5:22)
8. Eddie Vedder - Society (3:56)
9. Eddie Vedder - The Wolf (1:32)
10. Eddie Vedder - End Of The Road (3:19)
11. Eddie Vedder - Guaranteed (7:22)
Доп. информация:
Exact Audio Copy V0.99 prebeta 3 from 28. July 2007

Отчёт EAC об извлечении, выполненном 15. ноября 2007, 1:02

Eddie Vedder / Into The Wild (Music from the Motion Picture)

Дисковод: Optiarc DVD RW AD-7173A Adapter: 3 ID: 0

Режим чтения : Достоверность
Использование точного потока : Да
Отключение кэша аудио : Да
Использование указателей C2 : Нет

Коррекция смещения при чтении : 48
Способность читать области Lead-in и Lead-out : Нет
Заполнение пропущенных сэмплов тишиной : Да
Удаление блоков с тишиной в начале и конце : Нет
При вычислениях CRC использовались нулевые сэмплы : Нет
Интерфейс : Встроенный Win32-интерфейс для Win NT/2000

Выходной формат : Внутренние WAV-операции
Формат сэмплов : 44.100 Гц; 16 бит; стерео

TOC извлечённого CD

Трек | Старт | Длительность | Начальный сектор | Конечный сектор
---------------------------------------------------------------------
1 | 0:00.00 | 1:37.65 | 0 | 7339
2 | 1:37.65 | 1:34.04 | 7340 | 14393
3 | 3:11.69 | 2:15.24 | 14394 | 24542
4 | 5:27.18 | 2:36.34 | 24543 | 36276
5 | 8:03.52 | 2:31.58 | 36277 | 47659
6 | 10:35.35 | 1:00.23 | 47660 | 52182
7 | 11:35.58 | 5:22.06 | 52183 | 76338
8 | 16:57.64 | 3:56.23 | 76339 | 94061
9 | 20:54.12 | 1:32.23 | 94062 | 100984
10 | 22:26.35 | 3:19.66 | 100985 | 115975
11 | 25:46.26 | 7:22.42 | 115976 | 149167

Характеристики диапазона извлечения и сообщения об ошибках

Выбранный диапазон

Имя файла D:\Music\PEARL JAM\E.V. - Into the Wild\Eddie Vedder - Into The Wild (Music from the Motion Picture).wav

Пиковый уровень 100.0 %
Качество диапазона 100.0 %
CRC копии 0A34F156
Копирование... OK

Ошибок не произошло

AccurateRip: сводка

Трек 1 точное извлечение (доверие 12) [DCDA5639]
Трек 2 точное извлечение (доверие 12) [1270F6A3]
Трек 3 точное извлечение (доверие 12) [CE281571]
Трек 4 точное извлечение (доверие 12) [D68D5B67]
Трек 5 точное извлечение (доверие 12) [CE734B7C]
Трек 6 точное извлечение (доверие 12) [DC6CF5A1]
Трек 7 точное извлечение (доверие 12) [507D95FF]
Трек 8 точное извлечение (доверие 12) [B0B96754]
Трек 9 точное извлечение (доверие 12) [3A62D2FF]
Трек 10 точное извлечение (доверие 12) [87B29690]
Трек 11 точное извлечение (доверие 12) [36942672]

Все треки извлечены точно

Конец отчёта


Трекер:  [ 07-Июл-2011 22:45 ]

  

Скачать .torrent

Размер .torrent файла 746 B


Размер: 168 MB
Хэш (hash) релиза: 22310b2e5f6a212bd90215a546c9def4d138ca89

Еще никто не оставлял запись к записи скачать торрент Eddie Vedder - Into The Wild - 2007, APE . Будь первым!

!Обратная связь