Скачать через торрент музыку Human Traffic В отрыв - 1999, FLAC бесплатно без регистрации torrent

Если у вас наблюдаются проблемы со скриншотами, переходом по ссылками, скачиванием торрентов - проблемы в блокировщике рекламы AdBlock. #хорошегоДня!


Статистика раздачи
Размер:  992 MB   |    Зарегистрирован:  6 лет 5 месяцев   |    .torrent скачан:  65 раз   |   
Раздают:  1  
   
Загрузка...
 
Автор Сообщение

Galfimbul

avatar Galfimbul


Human Traffic / В отрыв

Жанр: OST
Год выпуска диска: 1999
Производитель диска: Germany
Аудио кодек: FLAC
Тип рипа: image+.cue
Битрейт аудио: lossless
Продолжительность: 1:18:31 + 1:15:36

Трэклист:

101. The Weekend Has Landed
102. CJ Bolland - It Ain't Gonna Be Me
103. Fatboy Slim - Build It Up, Tear It Down
104. Moff's Lyrical Miracle Madness (Human Traffic Theme)
105. Jacknife Lee - Cookies
106. Lucid - Scared
107. Spliff Politics
108. Position Normal - Bucket Wipe
109. Hip Hop Intro
110. Grim - My Last Request
111. Hip Hop Outro
112. Public Enemy - You're Gonna Get Yours
113. Death In Vegas - Dirt
114. Jungle Intro
115. Dillinja - Never Believe
116. First Born - The Mood Club
117. What Was I Talking About?
118. William Orbit - Ogive
119. Interfearence - All Day
120. Deadly Avenger - King Titos Gloves
121. Comedown Sermon
122. Orbital - Belfast
123. Matthew Herbert & Robert Mello - Human Traffic Theme

201. Star Wars Theory
202. Armand Van Helden feat. Roland Clark - Flowerz
203. Brother Brown feat. Frank'ee - Under The Water
204. Pete Heller - Atlanta
205. Quake - Push It
206. Durango - 5:55
207. Thee Maddkatt Courtship - My Fellow Boppers
208. The Age of Love - The Age of Love
209. Energy 52 - Cafe Del Mar '98
210. Liquid Child - Diving Faces
211. System F - Out of the Blue
212. Carl Cox - The Latin Theme
213. Underworld - Kittens
214. Quake - Dark Air
215. CJ Bolland - The Tingler
216. We're All In This Together (plus score music)
217. Primal Scream - Come Together

Доп. информация:
Информация о релизе: http://www.discogs.com/Various-Human-Traffic/release/36331
 
Exact Audio Copy V0.99 prebeta 3 from 28. July 2007

Отчёт EAC об извлечении, выполненном 27. марта 2009, 11:25

Various / Human Traffic Soundtrack (disc 1 of 2)

Дисковод: PIONEER DVD-RW DVR-112D Adapter: 0 ID: 0

Режим чтения : ДостоверностьИспользование точного потока : ДаОтключение кэша аудио : ДаИспользование указателей C2 : Нет

Коррекция смещения при чтении : 48Способность читать области Lead-in и Lead-out : НетЗаполнение пропущенных сэмплов тишиной : ДаУдаление блоков с тишиной в начале и конце : НетПри вычислениях CRC использовались нулевые сэмплы : ДаИнтерфейс : Встроенный Win32-интерфейс для Win NT/2000

Выходной формат : Внутренние WAV-операцииФормат сэмплов : 44.100 Гц; 16 бит; стерео

TOC извлечённого CD

Трек | Старт | Длительность | Начальный сектор | Конечный сектор --------------------------------------------------------------------- 1 | 0:00.00 | 0:38.17 | 0 | 2866 2 | 0:38.17 | 3:44.68 | 2867 | 19734 3 | 4:23.10 | 5:02.15 | 19735 | 42399 4 | 9:25.25 | 0:49.60 | 42400 | 46134 5 | 10:15.10 | 4:54.30 | 46135 | 68214 6 | 15:09.40 | 6:13.20 | 68215 | 96209 7 | 21:22.60 | 0:16.05 | 96210 | 97414 8 | 21:38.65 | 1:52.12 | 97415 | 105826 9 | 23:31.02 | 0:40.70 | 105827 | 108896 10 | 24:11.72 | 3:02.13 | 108897 | 122559 11 | 27:14.10 | 0:28.52 | 122560 | 124711 12 | 27:42.62 | 4:04.05 | 124712 | 143016 13 | 31:46.67 | 3:51.10 | 143017 | 160351 14 | 35:38.02 | 0:10.70 | 160352 | 161171 15 | 35:48.72 | 5:59.38 | 161172 | 188134 16 | 41:48.35 | 4:09.52 | 188135 | 206861 17 | 45:58.12 | 1:53.70 | 206862 | 215406 18 | 47:52.07 | 6:41.23 | 215407 | 245504 19 | 54:33.30 | 6:14.72 | 245505 | 273626 20 | 60:48.27 | 4:52.50 | 273627 | 295576 21 | 65:41.02 | 0:59.03 | 295577 | 300004 22 | 66:40.05 | 7:56.42 | 300005 | 335746 23 | 74:36.47 | 3:54.53 | 335747 | 353349

Характеристики диапазона извлечения и сообщения об ошибках

Выбранный диапазон

Имя файла E:\Temp\SOUND\WAV\Various - Human Traffic Soundtrack (disc 1 of 2).wav

Пиковый уровень 97.7 % Качество диапазона 99.9 % CRC копии 3F74CF55 Копирование... OK

Ошибок не произошло

Конец отчёта
 
Exact Audio Copy V0.99 prebeta 3 from 28. July 2007

Отчёт EAC об извлечении, выполненном 27. марта 2009, 12:47

Various / Human Traffic Soundtrack (disc 2 of 2)

Дисковод: PIONEER DVD-RW DVR-112D Adapter: 0 ID: 0

Режим чтения : ДостоверностьИспользование точного потока : ДаОтключение кэша аудио : ДаИспользование указателей C2 : Нет

Коррекция смещения при чтении : 48Способность читать области Lead-in и Lead-out : НетЗаполнение пропущенных сэмплов тишиной : ДаУдаление блоков с тишиной в начале и конце : НетПри вычислениях CRC использовались нулевые сэмплы : ДаИнтерфейс : Встроенный Win32-интерфейс для Win NT/2000

Выходной формат : Внутренние WAV-операцииФормат сэмплов : 44.100 Гц; 16 бит; стерео

TOC извлечённого CD

Трек | Старт | Длительность | Начальный сектор | Конечный сектор --------------------------------------------------------------------- 1 | 0:00.00 | 0:31.67 | 0 | 2391 2 | 0:31.67 | 9:00.68 | 2392 | 42959 3 | 9:32.60 | 4:22.50 | 42960 | 62659 4 | 13:55.35 | 5:46.50 | 62660 | 88659 5 | 19:42.10 | 3:38.05 | 88660 | 105014 6 | 23:20.15 | 2:59.07 | 105015 | 118446 7 | 26:19.22 | 5:13.35 | 118447 | 141956 8 | 31:32.57 | 5:45.13 | 141957 | 167844 9 | 37:17.70 | 4:57.35 | 167845 | 190154 10 | 42:15.30 | 5:22.02 | 190155 | 214306 11 | 47:37.32 | 5:50.23 | 214307 | 240579 12 | 53:27.55 | 5:22.20 | 240580 | 264749 13 | 58:50.00 | 5:20.27 | 264750 | 288776 14 | 64:10.27 | 2:32.48 | 288777 | 300224 15 | 66:43.00 | 3:05.10 | 300225 | 314109 16 | 69:48.10 | 0:22.22 | 314110 | 315781 17 | 70:10.32 | 5:25.53 | 315782 | 340209

Характеристики диапазона извлечения и сообщения об ошибках

Выбранный диапазон

Имя файла E:\Temp\SOUND\WAV\Various - Human Traffic Soundtrack (disc 2 of 2).wav

Пиковый уровень 97.7 % Качество диапазона 100.0 % CRC копии 59A9AE1B Копирование... OK

Ошибок не произошло

Конец отчёта
 
01 -===- E:\Temp\SOUND\FLAC\01. The Weekend Has Landed.flac Extracted successfully Conclusion: This track looks like CDDA with probability 100%

02 -===- E:\Temp\SOUND\FLAC\02. It Ain't Gonna Be Me.flac Extracted successfully Conclusion: This track looks like CDDA with probability 100%

03 -===- E:\Temp\SOUND\FLAC\03. Build It Up, Tear It Down.flac Extracted successfully Conclusion: This track looks like CDDA with probability 100%

04 -===- E:\Temp\SOUND\FLAC\04. Human Traffic Theme.flac Extracted successfully Conclusion: This track looks like CDDA with probability 100%

05 -===- E:\Temp\SOUND\FLAC\05. Cookies.flac Extracted successfully Conclusion: This track looks like CDDA with probability 100%

06 -===- E:\Temp\SOUND\FLAC\06. Scared.flac Extracted successfully Conclusion: This track looks like CDDA with probability 99%

07 -===- E:\Temp\SOUND\FLAC\07. Spliff Politics.flac Extracted successfully Conclusion: This track looks like CDDA with probability 100%

08 -===- E:\Temp\SOUND\FLAC\08. Bucket Wipe.flac Extracted successfully Conclusion: This track looks like CDDA with probability 100%

09 -===- E:\Temp\SOUND\FLAC\09. Hip Hop Intro.flac Extracted successfully Conclusion: This track looks like CDDA with probability 100%

10 -===- E:\Temp\SOUND\FLAC\10. My Last Request.flac Extracted successfully Conclusion: This track looks like CDDA with probability 100%

11 -===- E:\Temp\SOUND\FLAC\11. Hip Hop Outro.flac Extracted successfully Conclusion: This track looks like CDDA with probability 100%

12 -===- E:\Temp\SOUND\FLAC\12. You're Gonna Get Yours.flac Extracted successfully Conclusion: This track looks like CDDA with probability 100%

13 -===- E:\Temp\SOUND\FLAC\13. Dirt.flac Extracted successfully Conclusion: This track looks like CDDA with probability 100%

14 -===- E:\Temp\SOUND\FLAC\14. Jungle Intro.flac Extracted successfully Conclusion: This track looks like CDDA with probability 100%

15 -===- E:\Temp\SOUND\FLAC\15. Never Believe.flac Extracted successfully Conclusion: This track looks like CDDA with probability 99%

16 -===- E:\Temp\SOUND\FLAC\16. The Mood Club.flac Extracted successfully Conclusion: This track looks like CDDA with probability 99%

17 -===- E:\Temp\SOUND\FLAC\17. What Was I Talking About_.flac Extracted successfully Conclusion: This track looks like CDDA with probability 100%

18 -===- E:\Temp\SOUND\FLAC\18. Ogive.flac Extracted successfully Conclusion: This track looks like CDDA with probability 100%

19 -===- E:\Temp\SOUND\FLAC\19. All Day.flac Extracted successfully Conclusion: This track looks like CDDA with probability 100%

20 -===- E:\Temp\SOUND\FLAC\20. King Tito's Gloves.flac Extracted successfully Conclusion: This track looks like CDDA with probability 100%

21 -===- E:\Temp\SOUND\FLAC\21. Comedown Sermon.flac Extracted successfully Conclusion: This track looks like CDDA with probability 100%

22 -===- E:\Temp\SOUND\FLAC\22. Belfast.flac Extracted successfully Conclusion: This track looks like CDDA with probability 100%

23 -===- E:\Temp\SOUND\FLAC\23. Human Traffic Theme.flac Extracted successfully Conclusion: This track looks like CDDA with probability 100%
 
01 -===- E:\Temp\SOUND\FLAC\01. Star Wars Theory.flac Extracted successfully Conclusion: This track looks like CDDA with probability 100%

02 -===- E:\Temp\SOUND\FLAC\02. Flowerz Feat. Roland Clark.flac Extracted successfully Conclusion: This track looks like CDDA with probability 100%

03 -===- E:\Temp\SOUND\FLAC\03. Under The Water.flac Extracted successfully Conclusion: This track looks like CDDA with probability 100%

04 -===- E:\Temp\SOUND\FLAC\04. Atlanta.flac Extracted successfully Conclusion: This track looks like CDDA with probability 100%

05 -===- E:\Temp\SOUND\FLAC\05. Push It.flac Extracted successfully Conclusion: This track looks like CDDA with probability 99%

06 -===- E:\Temp\SOUND\FLAC\06. 5_55.flac Extracted successfully Conclusion: This track looks like CDDA with probability 100%

07 -===- E:\Temp\SOUND\FLAC\07. My Fellow Boppers.flac Extracted successfully Conclusion: This track looks like CDDA with probability 100%

08 -===- E:\Temp\SOUND\FLAC\08. The Age Of Love.flac Extracted successfully Conclusion: This track looks like CDDA with probability 100%

09 -===- E:\Temp\SOUND\FLAC\09. Cafe Del Mar'98.flac Extracted successfully Conclusion: This track looks like CDDA with probability 100%

10 -===- E:\Temp\SOUND\FLAC\10. Diving Faces.flac Extracted successfully Conclusion: This track looks like CDDA with probability 99%

11 -===- E:\Temp\SOUND\FLAC\11. Out Of The Blue.flac Extracted successfully Conclusion: This track looks like CDDA with probability 100%

12 -===- E:\Temp\SOUND\FLAC\12. The Latin Theme.flac Extracted successfully Conclusion: This track looks like CDDA with probability 100%

13 -===- E:\Temp\SOUND\FLAC\13. Kittens.flac Extracted successfully Conclusion: This track looks like CDDA with probability 100%

14 -===- E:\Temp\SOUND\FLAC\14. Dark Air.flac Extracted successfully Conclusion: This track looks like CDDA with probability 99%

15 -===- E:\Temp\SOUND\FLAC\15. The Tingler.flac Extracted successfully Conclusion: This track looks like CDDA with probability 100%

16 -===- E:\Temp\SOUND\FLAC\16. We're All In This Together (Plus Score Music).flac Extracted successfully Conclusion: This track looks like CDDA with probability 100%

17 -===- E:\Temp\SOUND\FLAC\17. Come Together.flac Extracted successfully Conclusion: This track looks like CDDA with probability 99%


Трекер:  [ 07-Июл-2011 22:45 ]

  

Скачать .torrent

Размер .torrent файла 21 KB


Размер: 992 MB
Хэш (hash) релиза: bdf8010bfa31783540b38419cfbcffb2cff35d46

Еще никто не оставлял запись к записи скачать торрент Human Traffic В отрыв - 1999, FLAC . Будь первым!

!Обратная связь