Скачать через торрент музыку Крёстный отец: Трилогия The Godfather: Trilogy I • II • III бесплатно без регистрации torrent

Если у вас наблюдаются проблемы со скриншотами, переходом по ссылками, скачиванием торрентов - проблемы в блокировщике рекламы AdBlock. #хорошегоДня!


Статистика раздачи
Размер:  272 MB   |    Зарегистрирован:  6 лет 5 месяцев   |    .torrent скачан:  50 раз   |   
Раздают:  1  
   
Загрузка...
 
Автор Сообщение

Galfimbul

avatar Galfimbul


Крёстный отец: Трилогия / The Godfather: Trilogy

Жанр: Score
Композитор: Nino Rota & Carmine Coppola
Год выпуска диска: 2001
Производитель диска: Silva Screen
Аудио кодек: FLAC
Тип рипа: tracks+.cue
Битрейт аудио: lossless
Продолжительность: 00:52:02

01. Nino Rota - The Godfather - Waltz (03:45)
02. Nino Rota - Love Theme From The Godfather (02:45)
03. Nino Rota - Sicilian Pastorale (01:33)
04. Nino Rota - The Pick-Up (02:08)
05. Carmine Coppola - The Godfather - Tarantella (03:13)
06. Carmine Coppola - The Godfather - Mazurka (02:48)
07. Nino Rota - The Godfather - Finale (04:02)
08. Nino Rota - The Immigrant (02:49)
09. Nino Rota - Kay (02:44)
10. Carmine Coppola - Marcia Stilo Italiano (01:54)
11. Nino Rota - The Godfather Part II - End Title (04:13)
12. Carmine Coppola - Marcia Religiosa (04:22)
13. Carmine Coppola - Marcia Festa (01:38)
14. Carmine Coppola & Nino Rota - The Immigrant / Love Theme From The Godfather Part III (02:29)
15. Carmine Coppola - The Godfather III - Intermezzo (03:22)
16. Pietro Mascagni - Preludio From Cavalleria Rusticana (06:11)
17. Nino Rota - Coda - The Godfather Part III Finale (02:05)

Источник: what.cd
 
Exact Audio Copy V0.99 prebeta 5 from 4. May 2009

EAC extraction logfile from 12. September 2010, 10:23

Various / The Godfather Trilogy I - II - III

Used drive : ATAPI iHAS324 Y Adapter: 2 ID: 1

Read mode : SecureUtilize accurate stream : YesDefeat audio cache : YesMake use of C2 pointers : No

Read offset correction : 48Overread into Lead-In and Lead-Out : NoFill up missing offset samples with silence : YesDelete leading and trailing silent blocks : NoNull samples used in CRC calculations : YesUsed interface : Native Win32 interface for Win NT & 2000Gap handling : Appended to previous track

Used output format : User Defined EncoderSelected bitrate : 768 kBit/sQuality : HighAdd ID3 tag : NoCommand line compressor : C:\Program Files (x86)\Exact Audio Copy\FLAC\FLAC.EXEAdditional command line options : -V -8 -T "artist=%a" -T "title=%t" -T "album=%g" -T "date=%y" -T "tracknumber=%n" -T "genre=%m" %s

TOC of the extracted CD

Track | Start | Length | Start sector | End sector --------------------------------------------------------- 1 | 0:00.00 | 3:45.35 | 0 | 16909 2 | 3:45.35 | 2:45.35 | 16910 | 29319 3 | 6:30.70 | 1:33.05 | 29320 | 36299 4 | 8:04.00 | 2:08.26 | 36300 | 45925 5 | 10:12.26 | 3:12.40 | 45926 | 60365 6 | 13:24.66 | 2:47.44 | 60366 | 72934 7 | 16:12.35 | 4:02.03 | 72935 | 91087 8 | 20:14.38 | 2:49.22 | 91088 | 103784 9 | 23:03.60 | 2:44.02 | 103785 | 116086 10 | 25:47.62 | 1:53.64 | 116087 | 124625 11 | 27:41.51 | 4:12.53 | 124626 | 143578 12 | 31:54.29 | 4:22.03 | 143579 | 163231 13 | 36:16.32 | 1:38.28 | 163232 | 170609 14 | 37:54.60 | 2:29.36 | 170610 | 181820 15 | 40:24.21 | 3:22.02 | 181821 | 196972 16 | 43:46.23 | 6:11.25 | 196973 | 224822 17 | 49:57.48 | 2:04.70 | 224823 | 234192

Track 1

Filename I:\Rip\The Godfather Trilogy I - II - III (2001)\01 - Nino Rota - The Godfather - Waltz.wav

Pre-gap length 0:00:02.00

Peak level 91.3 % Track quality 99.9 % Test CRC CA75EB7E Copy CRC CA75EB7E Cannot be verified as accurate (confidence 6) [6EA2678D], AccurateRip returned [2B46552D] Copy OK

Track 2

Filename I:\Rip\The Godfather Trilogy I - II - III (2001)\02 - Nino Rota - Love Theme From The Godfather.wav

Pre-gap length 0:00:00.56

Peak level 84.3 % Track quality 100.0 % Test CRC FBEFD3C3 Copy CRC FBEFD3C3 Cannot be verified as accurate (confidence 6) [EFC05B72], AccurateRip returned [D537DDC2] Copy OK

Track 3

Filename I:\Rip\The Godfather Trilogy I - II - III (2001)\03 - Nino Rota - Sicilian Pastorale.wav

Peak level 31.0 % Track quality 100.0 % Test CRC 040B153D Copy CRC 040B153D Cannot be verified as accurate (confidence 6) [9F406B39], AccurateRip returned [78E4A3EF] Copy OK

Track 4

Filename I:\Rip\The Godfather Trilogy I - II - III (2001)\04 - Nino Rota - The Pick-Up.wav

Peak level 94.4 % Track quality 100.0 % Test CRC AA932DE9 Copy CRC AA932DE9 Cannot be verified as accurate (confidence 6) [C6378750], AccurateRip returned [92564729] Copy OK

Track 5

Filename I:\Rip\The Godfather Trilogy I - II - III (2001)\05 - Carmine Coppola - The Godfather - Tarantella.wav

Pre-gap length 0:00:01.23

Peak level 95.7 % Track quality 100.0 % Test CRC 51FC1AAC Copy CRC 51FC1AAC Cannot be verified as accurate (confidence 6) [B300391C], AccurateRip returned [839F86B8] Copy OK

Track 6

Filename I:\Rip\The Godfather Trilogy I - II - III (2001)\06 - Carmine Coppola - The Godfather - Mazurka.wav

Peak level 96.5 % Track quality 100.0 % Test CRC 7029ACA8 Copy CRC 7029ACA8 Cannot be verified as accurate (confidence 7) [7DD30815], AccurateRip returned [370ED7F3] Copy OK

Track 7

Filename I:\Rip\The Godfather Trilogy I - II - III (2001)\07 - Nino Rota - The Godfather - Finale.wav

Peak level 97.3 % Track quality 100.0 % Test CRC A4676D6F Copy CRC A4676D6F Cannot be verified as accurate (confidence 6) [105D60F7], AccurateRip returned [D40A738E] Copy OK

Track 8

Filename I:\Rip\The Godfather Trilogy I - II - III (2001)\08 - Nino Rota - The Immigrant.wav

Pre-gap length 0:00:01.04

Peak level 90.9 % Track quality 100.0 % Test CRC E76FC5A9 Copy CRC E76FC5A9 Cannot be verified as accurate (confidence 7) [132E84EA], AccurateRip returned [1514524C] Copy OK

Track 9

Filename I:\Rip\The Godfather Trilogy I - II - III (2001)\09 - Nino Rota - Kay.wav

Pre-gap length 0:00:00.39

Peak level 82.5 % Track quality 99.9 % Test CRC 2179803A Copy CRC 2179803A Cannot be verified as accurate (confidence 7) [EF212EE2], AccurateRip returned [EAE01C64] Copy OK

Track 10

Filename I:\Rip\The Godfather Trilogy I - II - III (2001)\10 - Carmine Coppola - Marcia Stilo Italiano.wav

Pre-gap length 0:00:00.17

Peak level 98.3 % Track quality 100.0 % Test CRC 042D55DA Copy CRC 042D55DA Cannot be verified as accurate (confidence 7) [9EE1EB67], AccurateRip returned [D712DC70] Copy OK

Track 11

Filename I:\Rip\The Godfather Trilogy I - II - III (2001)\11 - Nino Rota - The Godfather Part II - End Title.wav

Pre-gap length 0:00:00.04

Peak level 96.0 % Track quality 99.9 % Test CRC 836BEB8E Copy CRC 836BEB8E Cannot be verified as accurate (confidence 7) [21108BE0], AccurateRip returned [7AE3C21B] Copy OK

Track 12

Filename I:\Rip\The Godfather Trilogy I - II - III (2001)\12 - Carmine Coppola - Marcia Religiosa.wav

Peak level 95.8 % Track quality 100.0 % Test CRC 271E9859 Copy CRC 271E9859 Cannot be verified as accurate (confidence 6) [FB565015], AccurateRip returned [F6C5B4CE] Copy OK

Track 13

Filename I:\Rip\The Godfather Trilogy I - II - III (2001)\13 - Carmine Coppola - Marcia Festa.wav

Pre-gap length 0:00:00.03

Peak level 94.8 % Track quality 100.0 % Test CRC 7C6C5801 Copy CRC 7C6C5801 Cannot be verified as accurate (confidence 7) [EC4B2F9A], AccurateRip returned [F884F4AD] Copy OK

Track 14

Filename I:\Rip\The Godfather Trilogy I - II - III (2001)\14 - Carmine Coppola & Nino Rota - The Immigrant , Love Theme From The Godfather Part III.wav

Pre-gap length 0:00:00.07

Peak level 95.2 % Track quality 100.0 % Test CRC 6D3CCE73 Copy CRC 6D3CCE73 Cannot be verified as accurate (confidence 7) [07D39EA8], AccurateRip returned [823CC8F9] Copy OK

Track 15

Filename I:\Rip\The Godfather Trilogy I - II - III (2001)\15 - Carmine Coppola - The Godfather III - Intermezzo.wav

Pre-gap length 0:00:00.06

Peak level 98.1 % Track quality 100.0 % Test CRC 3C24E242 Copy CRC 3C24E242 Cannot be verified as accurate (confidence 7) [3153352E], AccurateRip returned [4489CF79] Copy OK

Track 16

Filename I:\Rip\The Godfather Trilogy I - II - III (2001)\16 - Pietro Mascagni - Preludio From Cavalleria Rusticana.wav

Peak level 97.2 % Track quality 100.0 % Test CRC E4B0B26D Copy CRC E4B0B26D Cannot be verified as accurate (confidence 6) [0BC9350D], AccurateRip returned [B9473418] Copy OK

Track 17

Filename I:\Rip\The Godfather Trilogy I - II - III (2001)\17 - Nino Rota - Coda - The Godfather Part III Finale.wav

Peak level 97.5 % Track quality 100.0 % Test CRC 86AD043A Copy CRC 86AD043A Cannot be verified as accurate (confidence 6) [D2B16F7C], AccurateRip returned [F01893B0] Copy OK

No tracks could be verified as accurateYou may have a different pressing from the one(s) in the database

No errors occurred

End of status report
 
REM GENRE SoundtrackREM DATE 2001REM DISCID 0A0C3211REM COMMENT "ExactAudioCopy v0.99pb5"PERFORMER "Various"TITLE "The Godfather Trilogy I - II - III"FILE "01 - Nino Rota - The Godfather - Waltz.wav" WAVE TRACK 01 AUDIO TITLE "The Godfather - Waltz" PERFORMER "Nino Rota" INDEX 01 00:00:00 TRACK 02 AUDIO TITLE "Love Theme From The Godfather" PERFORMER "Nino Rota" INDEX 00 03:44:54FILE "02 - Nino Rota - Love Theme From The Godfather.wav" WAVE INDEX 01 00:00:00FILE "03 - Nino Rota - Sicilian Pastorale.wav" WAVE TRACK 03 AUDIO TITLE "Sicilian Pastorale" PERFORMER "Nino Rota" INDEX 01 00:00:00FILE "04 - Nino Rota - The Pick-Up.wav" WAVE TRACK 04 AUDIO TITLE "The Pick-Up" PERFORMER "Nino Rota" INDEX 01 00:00:00 TRACK 05 AUDIO TITLE "The Godfather - Tarantella" PERFORMER "Carmine Coppola" INDEX 00 02:07:03FILE "05 - Carmine Coppola - The Godfather - Tarantella.wav" WAVE INDEX 01 00:00:00FILE "06 - Carmine Coppola - The Godfather - Mazurka.wav" WAVE TRACK 06 AUDIO TITLE "The Godfather - Mazurka" PERFORMER "Carmine Coppola" INDEX 01 00:00:00FILE "07 - Nino Rota - The Godfather - Finale.wav" WAVE TRACK 07 AUDIO TITLE "The Godfather - Finale" PERFORMER "Nino Rota" INDEX 01 00:00:00 TRACK 08 AUDIO TITLE "The Immigrant" PERFORMER "Nino Rota" INDEX 00 04:00:74FILE "08 - Nino Rota - The Immigrant.wav" WAVE INDEX 01 00:00:00 TRACK 09 AUDIO TITLE "Kay" PERFORMER "Nino Rota" INDEX 00 02:48:58FILE "09 - Nino Rota - Kay.wav" WAVE INDEX 01 00:00:00 TRACK 10 AUDIO TITLE "Marcia Stilo Italiano" PERFORMER "Carmine Coppola" INDEX 00 02:43:60FILE "10 - Carmine Coppola - Marcia Stilo Italiano.wav" WAVE INDEX 01 00:00:00 TRACK 11 AUDIO TITLE "The Godfather Part II - End Title" PERFORMER "Nino Rota" INDEX 00 01:53:60FILE "11 - Nino Rota - The Godfather Part II - End Title.wav" WAVE INDEX 01 00:00:00FILE "12 - Carmine Coppola - Marcia Religiosa.wav" WAVE TRACK 12 AUDIO TITLE "Marcia Religiosa" PERFORMER "Carmine Coppola" INDEX 01 00:00:00 TRACK 13 AUDIO TITLE "Marcia Festa" PERFORMER "Carmine Coppola" INDEX 00 04:22:00FILE "13 - Carmine Coppola - Marcia Festa.wav" WAVE INDEX 01 00:00:00 TRACK 14 AUDIO TITLE "The Immigrant / Love Theme From The Godfather Part III" PERFORMER "Carmine Coppola & Nino Rota" INDEX 00 01:38:21FILE "14 - Carmine Coppola & Nino Rota - The Immigrant , Love Theme From The Godfather Part III.wav" WAVE INDEX 01 00:00:00 TRACK 15 AUDIO TITLE "The Godfather III - Intermezzo" PERFORMER "Carmine Coppola" INDEX 00 02:29:30FILE "15 - Carmine Coppola - The Godfather III - Intermezzo.wav" WAVE INDEX 01 00:00:00FILE "16 - Pietro Mascagni - Preludio From Cavalleria Rusticana.wav" WAVE TRACK 16 AUDIO TITLE "Preludio From Cavalleria Rusticana" PERFORMER "Pietro Mascagni" INDEX 01 00:00:00FILE "17 - Nino Rota - Coda - The Godfather Part III Finale.wav" WAVE TRACK 17 AUDIO TITLE "Coda - The Godfather Part III Finale" PERFORMER "Nino Rota" INDEX 01 00:00:00



Трекер:  [ 07-Июл-2011 22:43 ]

  

Скачать .torrent

Размер .torrent файла 12 KB


Размер: 272 MB
Хэш (hash) релиза: 705b1c7189b7304d8832ff76f85726ad2073a42d

Торренты, похожие на Крёстный отец: Трилогия The Godfather: Trilogy I • II • III скачать торрент

Форум Название Автор Размер S L Добавлен
Саундтреки к фильмам и мультфильмам (mp3) ·· (Score) Крёстный отец I, II , III, Трилогия / The Godfather I, II, III, Trilogy - 1972-2001, MP3, 192 kbps Galfimbul 256511951245 MB 0 0 1292265717

21:41

13-Дек-10

Еще никто не оставлял запись к записи скачать торрент Крёстный отец: Трилогия The Godfather: Trilogy I • II • III . Будь первым!

!Обратная связь