Скачать через торрент музыку Bill Conti & Various Artists - 1976-12-03 - бесплатно без регистрации torrent

Если у вас наблюдаются проблемы со скриншотами, переходом по ссылками, скачиванием торрентов - проблемы в блокировщике рекламы AdBlock. #хорошегоДня!


Статистика раздачи
Размер:  168 MB   |    Зарегистрирован:  6 лет 5 месяцев   |    .torrent скачан:  55 раз   |   
Раздают:  1  
   
Загрузка...
 
Автор Сообщение

Galfimbul

avatar Galfimbul



Rocky: Original Motion Picture Score



Rocky: Original Motion Picture Score


Country: USA
Catalog Number: CDP 7 46081 2
Release Date: December 3, 1976
Release Type: Official Release
Media Format: 1 CD
Media Type: FLAC(Image)/CUE/LOG
Codec: Lossless
Classification: Original Soundtrack
Genre: Classical, Funk, Soul, Jazz, Pop, Stage & Screen
Style: Post-Modern, Neo-Classical, Easy Listening, Soundtrack, Score, Funk, Jazz-Funk
Published by: Liberty
Composed by: Bill Conti
Recording Engineer by: Ami Hadani
Performed by: DeEtta Little, Nelson Pigford, Bill Conti and Valentine
Disc Length: 31m:23s.41
Covers: Included
[02:48] 01. DeEtta Little & Nelson Pigford - Gonna Fly Now (Theme from "Rocky")
[02:23] 02. Bill Conti - Philadelphia Morning
[02:40] 03. Bill Conti - Going the Distance
[03:19] 04. Bill Conti - Reflections
[01:46] 05. Bill Conti - Marines' Hymn/Yankee Doodle
[01:49] 06. Valentine - Take You Back (Street Corner Song from "Rocky")
[01:55] 07. Bill Conti - First Date
[04:46] 08. DeEtta Little & Nelson Pigford - You Take My Heart Away
[02:35] 09. Bill Conti - Fanfare for Rocky
[02:13] 10. Bill Conti - Butkus
[01:09] 11. Bill Conti - Alone in the Ring
[01:57] 12. Bill Conti - The Final Bell
[02:03] 13. Bill Conti - Rocky's Reward
Exact Audio Copy V0.99 prebeta 5 from 4. May 2009

EAC extraction logfile from 13. October 2009, 0:18

Various Artists / Rocky: Original Motion Picture Score

Used drive : PIONEER DVD-RW DVR-216D Adapter: 1 ID: 0

Read mode : Secure
Utilize accurate stream : Yes
Defeat audio cache : Yes
Make use of C2 pointers : No

Read offset correction : 96
Overread into Lead-In and Lead-Out : No
Fill up missing offset samples with silence : Yes
Delete leading and trailing silent blocks : No
Null samples used in CRC calculations : Yes
Used interface : Native Win32 interface for Win NT & 2000

Used output format : User Defined Encoder
Selected bitrate : 768 kBit/s
Quality : High
Add ID3 tag : No
Command line compressor : C:\Program Files\Exact Audio Copy\FLAC\FLAC.exe
Additional command line options : -8 -A tukey(0.25) -A gauss(0.1875) -b 4096 -V -T "artist=%a" -T "title=%t" -T "album=%g" -T "date=%y" -T "tracknumber=%n" -T "genre=%m" %s --sector-align

TOC of the extracted CD

Track | Start | Length | Start sector | End sector
---------------------------------------------------------
1 | 0:00.32 | 2:48.40 | 32 | 12671
2 | 2:48.72 | 2:22.03 | 12672 | 23324
3 | 5:11.00 | 2:40.05 | 23325 | 35329
4 | 7:51.05 | 3:19.55 | 35330 | 50309
5 | 11:10.60 | 1:45.27 | 50310 | 58211
6 | 12:56.12 | 1:49.48 | 58212 | 66434
7 | 14:45.60 | 1:54.25 | 66435 | 75009
8 | 16:40.10 | 4:46.40 | 75010 | 96499
9 | 21:26.50 | 2:34.67 | 96500 | 108116
10 | 24:01.42 | 2:12.33 | 108117 | 118049
11 | 26:14.00 | 1:09.67 | 118050 | 123291
12 | 27:23.67 | 1:56.10 | 123292 | 132001
13 | 29:20.02 | 2:03.40 | 132002 | 141266

Range status and errors

Selected range

Filename C:\Music\OST\R\ROCKY\1976-12-03 - [CDP 7 46081 2] Rocky - Original Motion Picture Score\CD\CDImage.wav

Peak level 100.0 %
Range quality 100.0 %
Test CRC 8F249CF9
Copy CRC 8F249CF9
Copy OK

No errors occurred

AccurateRip summary

Track 1 accurately ripped (confidence 5) [F0BC3522]
Track 2 accurately ripped (confidence 5) [5C72258E]
Track 3 accurately ripped (confidence 5) [96596F2E]
Track 4 accurately ripped (confidence 6) [B95CA593]
Track 5 accurately ripped (confidence 6) [40A038F5]
Track 6 accurately ripped (confidence 6) [58B633E2]
Track 7 accurately ripped (confidence 6) [DC784FA3]
Track 8 accurately ripped (confidence 5) [06D2990D]
Track 9 accurately ripped (confidence 6) [3D36DDD6]
Track 10 accurately ripped (confidence 6) [2B93CEE2]
Track 11 accurately ripped (confidence 6) [957945D9]
Track 12 accurately ripped (confidence 6) [2B9375E0]
Track 13 accurately ripped (confidence 6) [F75347B4]

All tracks accurately ripped

End of status report

Music Composed, Conducted, Orchestrated and Produced by: Bill Conti
Recording Engineer: Ami Hadani
01. Gonna Fly Now (Theme from "Rocky")

Lyrics by: Carol Connors & Ayn Robbins
Vocal by: DeEtta Little & Nelson Pigford
02. Philadelphia Morning
03. Going the Distance
04. Reflections
05. Marines' Hymn / Yankee Doodle

Music by: Bill Conti
06. Take You Back (Street Corner Song from "Rocky")

Music & Lyrics by: Frank Stallone
Vocal by: Valentine
07. First Date

Music by: Bill Conti
08. You Take My Heart Away

Vocal by: DeEtta Little & Nelson Pigford
Lyrics by: Carol Connors & Ayn Robbins
09. Fanfare for Rocky
10. Butkus
11. Alone in the Ring
12. The Final Bell
13. Rocky's Reward

Music by: Bill Conti


Трекер:  [ 07-Июл-2011 23:05 ]

  

Скачать .torrent

Размер .torrent файла 14 KB


Размер: 168 MB
Хэш (hash) релиза: fc5862b106812b804899586b94dcdd5c5293c6

Еще никто не оставлял запись к записи скачать торрент Bill Conti & Various Artists - 1976-12-03 - . Будь первым!

!Обратная связь