Скачать через торрент музыку VA - Miami Vice Полиция Майами: отдел нравов - 2006, FLAC бесплатно без регистрации torrent

Если у вас наблюдаются проблемы со скриншотами, переходом по ссылками, скачиванием торрентов - проблемы в блокировщике рекламы AdBlock. #хорошегоДня!


Статистика раздачи
Размер:  448 MB   |    Зарегистрирован:  6 лет 5 месяцев   |    .torrent скачан:  74 раза   |   
Раздают:  1  
   
Загрузка...
 
Автор Сообщение

Galfimbul

avatar Galfimbul


Various Artists - Miami Vice / Полиция Майами: отдел нравов

Жанр: Soundtrack
Год выпуска диска: 2006
Производитель диска: EU (Atlantic - 7567-83997-2)
Аудио кодек: FLAC
Тип рипа: image+.cue
Битрейт аудио: lossless
Продолжительность: 73:15

Трэклист:
01. Nonpoint / In the Air Tonight [0:04:33.60]
02. Moby feat. Patti Labelle / One of These Mornings [0:04:00.52]
03. Mogwai / We're no Here [0:05:38.13]
04. Nina Simone / Sinnerman (Felix Da Housecat's Heavenly House Mix) [0:04:37.10]
05. Mogwai / Auto Rock [0:04:18.37]
06. Manzanita / Arranca [0:03:52.38]
07. India.Arie / Ready for Love [0:04:30.42]
08. Goldfrapp / Strict Machine [0:03:53.10]
09. Emilio Etsefan / Pennies in My Pocket [0:03:52.13]
10. King Britt / New World in My View [0:05:33.00]
11. Blue Foundation / Sweep [0:10:52.00]
12. Moby / Anthem [0:03:28.10]
13. Freaky Chakra / Blacklight Fantasy [0:05:10.52]
14. John Murphy / Mercado Nuevo [0:02:14.50]
15. John Murphy / Who Are You [0:01:34.63]
16. King Britt & Tim Motzer / Ramblas [0:02:29.50]
17. Klaus Badelt & Mark Batson / A-500 [0:02:35.37]

Доп. информация - о фильме:
Вот что пишет Кинокадр о фильме: Новеллизация сериалов, тем более сериалов неплохих, просто болезненно страдает от самолюбования. Ну как же — начнёшь нести отсебятину, так не поймут фанаты, а начнёшь повторение пройденного, так не поймут остальные. Выбор обычно делается в пользу фанатов, ибо они аудитория благодарная, хоть и не такая многочисленная, а там может ещё кто подтянется. И почти всегда всякая подобная новеллизация делается из соображений общего ностальжи («какие были молодые»), а потому шаг влево шаг вправо — попытка улететь.
 
Exact Audio Copy V0.99 prebeta 4 from 23. January 2008

EAC extraction logfile from 24. January 2009, 20:00

Various Artists / Miami Vice

Used drive : HL-DT-STDVDRAM_GSA-T20N Adapter: 0 ID: 0

Read mode : SecureUtilize accurate stream : YesDefeat audio cache : YesMake use of C2 pointers : No

Read offset correction : 667Overread into Lead-In and Lead-Out : NoFill up missing offset samples with silence : YesDelete leading and trailing silent blocks : NoNull samples used in CRC calculations : YesUsed interface : Native Win32 interface for Win NT & 2000

Used output format : User Defined EncoderSelected bitrate : 768 kBit/sQuality : HighAdd ID3 tag : NoCommand line compressor : C:\Program Files\Exact Audio Copy\FLAC\FLAC.EXEAdditional command line options : -6 -V -T "ARTIST=%a" -T "TITLE=%t" -T "ALBUM=%g" -T "DATE=%y" -T "TRACKNUMBER=%n" -T "GENRE=%m" -T "COMMENT=%e" %s -o %d

TOC of the extracted CD

Track | Start | Length | Start sector | End sector --------------------------------------------------------- 1 | 0:00.00 | 4:33.60 | 0 | 20534 2 | 4:33.60 | 4:00.52 | 20535 | 38586 3 | 8:34.37 | 5:38.13 | 38587 | 63949 4 | 14:12.50 | 4:37.10 | 63950 | 84734 5 | 18:49.60 | 4:18.37 | 84735 | 104121 6 | 23:08.22 | 3:52.38 | 104122 | 121559 7 | 27:00.60 | 4:30.42 | 121560 | 141851 8 | 31:31.27 | 3:53.10 | 141852 | 159336 9 | 35:24.37 | 3:52.13 | 159337 | 176749 10 | 39:16.50 | 5:33.00 | 176750 | 201724 11 | 44:49.50 | 10:52.00 | 201725 | 250624 12 | 55:41.50 | 3:28.10 | 250625 | 266234 13 | 59:09.60 | 5:10.52 | 266235 | 289536 14 | 64:20.37 | 2:14.50 | 289537 | 299636 15 | 66:35.12 | 1:34.63 | 299637 | 306749 16 | 68:10.00 | 2:29.50 | 306750 | 317974 17 | 70:39.50 | 2:35.37 | 317975 | 329636

Range status and errors

Selected range

Filename C:\Torrent\Own shares\Soundtrack - Miami Vice.wav

Peak level 99.4 % Range quality 100.0 % Copy CRC 8BD2A60B Copy OK

No errors occurred

AccurateRip summary

Track 1 accurately ripped (confidence 19) [003E5C58]Track 2 accurately ripped (confidence 19) [D594187E]Track 3 accurately ripped (confidence 18) [94CDE079]Track 4 accurately ripped (confidence 18) [54CAB709]Track 5 accurately ripped (confidence 19) [6882E132]Track 6 accurately ripped (confidence 19) [4D4C4CEF]Track 7 accurately ripped (confidence 18) [A9EDC065]Track 8 accurately ripped (confidence 18) [E2600B84]Track 9 accurately ripped (confidence 18) [4B766B20]Track 10 accurately ripped (confidence 18) [3BCF2F3B]Track 11 accurately ripped (confidence 17) [34D9B353]Track 12 accurately ripped (confidence 19) [AE7D1762]Track 13 accurately ripped (confidence 18) [6716F8EC]Track 14 accurately ripped (confidence 18) [4DEAEC28]Track 15 accurately ripped (confidence 16) [F1B64574]Track 16 accurately ripped (confidence 18) [5E7FEA9C]Track 17 accurately ripped (confidence 18) [C8F2A956]

All tracks accurately ripped

End of status report


Трекер:  [ 07-Июл-2011 23:05 ]

  

Скачать .torrent

Размер .torrent файла 18 KB


Размер: 448 MB
Хэш (hash) релиза: d5f8249cf44650322815155bab9ef06a74ef1e62

Еще никто не оставлял запись к записи скачать торрент VA - Miami Vice Полиция Майами: отдел нравов - 2006, FLAC . Будь первым!

!Обратная связь