Скачать через торрент музыку Clint Mansell & VA - π Pi бесплатно без регистрации torrent

Если у вас наблюдаются проблемы со скриншотами, переходом по ссылками, скачиванием торрентов - проблемы в блокировщике рекламы AdBlock. #хорошегоДня!


Статистика раздачи
Размер:  433 MB   |    Зарегистрирован:  6 лет 5 месяцев   |    .torrent скачан:  39 раз   |   
Раздают:  1  
   
Загрузка...
 
Автор Сообщение

Galfimbul

avatar Galfimbul


π: Music For The Motion Picture

Формат: CD, Compilation
Жанр: Electronic, Stage & Screen
Стиль: Breakbeat, Soundtrack, Acid, Drum n Bass, Electro
Год выпуска диска: 1998
Производитель диска: US
Аудио кодек: FLAC
Тип рипа: tracks+.cue
Битрейт аудио: lossless
Продолжительность: 1:10:03
Трэклист:
01. Clint Mansell - πr² (1:29)
02. Orbital - P.E.T.R.O.L. (6:21)
03. Autechre - Kalpol Intro (3:30)
04. Aphex Twin - Bucephalus Bouncing Ball (6:02)
05. Roni Size / Reprazent - Watching Windows (Ed Rush And Optical Remix) (6:35)
06. Massive Attack - Angel (6:09)
07. Clint Mansell - We Got The Gun (4:52)
08. David Holmes - No Man's Land (6:18)
09. Gus Gus - Anthem (4:51)
10. Banco De Gaia - Drippy (8:37)
11. Psilonaut - Third From The Sun (5:10)
12. Spacetime Continuum - A Low Frequency Inversion Field (6:57)
13. Clint Mansell - 2πr (3:05)

Artwork By [Design]: Jeremy Dawson , Sneak Attack
Executive Producer: Eric Watson , Ricardo Vinas , Sioux Zimmerman
Mastered By: Mark Fellows
Written-by [Voiceover]: Darren Aronofsky , Sean Gullette

Since the Darren Aronofsky film π 'Pi' is a sci-fi psychological conspiracy thriller, the soundtrack itself sounds futuristic, and contains a wide variety of electronic-dance stars alongside three originals by composer Clint Mansell (formerly of Pop Will Eat Itself). Massive Attack's haunting "Angel" is easily the soundtrack's highlight -- distorted guitar, ethereal bass, and crisp percussion creep along for six minutes, with Horace Andy supplying the vocals. Also included is the drum duel "Bucephalus Bouncing Ball" by Aphex Twin, the rapid-fire Roni Size dance track "Watching Windows," and the imaginative "Drippy" by Banco de Gaia (dripping water and percussion become merged together). Other contributors include Orbital ("P.E.T.R.O.L."), Gus Gus ("Anthem"), and Spacetime Continuum ("A Low Frequency Inversion Field"), among others.
 
EAC extraction logfile from 7. August 2006, 1:07 for CDVarious Artists / Pi

Used drive : SONY DVD+-RW DW-D56A Adapter: 3 ID: 0Read mode : Secure with NO C2, accurate stream, disable cacheRead offset correction : 12Overread into Lead-In and Lead-Out : No

Used output format : C:\Program Files\Exact Audio Copy\flac.exe (User Defined Encoder) 320 kBit/s Additional command line options : -V -8 -T "artist=%a" -T "title=%t" -T "album=%g" -T "date=%y" -T "tracknumber=%n" -T "genre=%m" %s

Other options : Fill up missing offset samples with silence : Yes Delete leading and trailing silent blocks : No Installed external ASPI interface

Track 1 Filename C:\My Music\VA - Pi Soundtrack [FLAC-EAC-CUE]\01 - pi_r^2.wav

Pre-gap length 0:00:02.00

Peak level 82.9 % Track quality 99.8 % Test CRC FACACBDD Copy CRC FACACBDD Copy OK

Track 2 Filename C:\My Music\VA - Pi Soundtrack [FLAC-EAC-CUE]\02 - p.e.t.r.o.l..wav

Peak level 88.8 % Track quality 100.0 % Test CRC F462B72C Copy CRC F462B72C Copy OK

Track 3 Filename C:\My Music\VA - Pi Soundtrack [FLAC-EAC-CUE]\03 - kalpol intro.wav

Peak level 99.9 % Track quality 100.0 % Test CRC 7ECACBC1 Copy CRC 7ECACBC1 Copy OK

Track 4 Filename C:\My Music\VA - Pi Soundtrack [FLAC-EAC-CUE]\04 - bucephalus bouncing ball.wav

Peak level 74.9 % Track quality 100.0 % Test CRC 32716F02 Copy CRC 32716F02 Copy OK

Track 5 Filename C:\My Music\VA - Pi Soundtrack [FLAC-EAC-CUE]\05 - watching windows (ed rush and optical remix).wav

Peak level 78.7 % Track quality 100.0 % Test CRC D7529F4B Copy CRC D7529F4B Copy OK

Track 6 Filename C:\My Music\VA - Pi Soundtrack [FLAC-EAC-CUE]\06 - angel.wav

Peak level 82.8 % Track quality 100.0 % Test CRC 9D253D03 Copy CRC 9D253D03 Copy OK

Track 7 Filename C:\My Music\VA - Pi Soundtrack [FLAC-EAC-CUE]\07 - we got the gun.wav

Peak level 93.1 % Track quality 100.0 % Test CRC CB6F142F Copy CRC CB6F142F Copy OK

Track 8 Filename C:\My Music\VA - Pi Soundtrack [FLAC-EAC-CUE]\08 - no man's land.wav

Peak level 100.0 % Track quality 100.0 % Test CRC D2551C80 Copy CRC D2551C80 Copy OK

Track 9 Filename C:\My Music\VA - Pi Soundtrack [FLAC-EAC-CUE]\09 - anthem.wav

Peak level 95.9 % Track quality 100.0 % Test CRC 301D6D7E Copy CRC 301D6D7E Copy OK

Track 10 Filename C:\My Music\VA - Pi Soundtrack [FLAC-EAC-CUE]\10 - drippy.wav

Peak level 93.4 % Track quality 100.0 % Test CRC 509C3536 Copy CRC 509C3536 Copy OK

Track 11 Filename C:\My Music\VA - Pi Soundtrack [FLAC-EAC-CUE]\11 - third from the sun.wav

Peak level 97.8 % Track quality 100.0 % Test CRC 6C780257 Copy CRC 6C780257 Copy OK

Track 12 Filename C:\My Music\VA - Pi Soundtrack [FLAC-EAC-CUE]\12 - a low frequency inversion field.wav

Peak level 100.0 % Track quality 100.0 % Test CRC 9270EB7D Copy CRC 9270EB7D Copy OK

Track 13 Filename C:\My Music\VA - Pi Soundtrack [FLAC-EAC-CUE]\13 - 2_pi_r.wav

Peak level 99.9 % Track quality 100.0 % Test CRC 2647E088 Copy CRC 2647E088 Copy OK

No errors occured

End of status report
 
AUDIOCHECKER v1.2 - by Dester - opdester@freemail.hu~~~~~~~~~~~~~~~~~

01 -===- D:\Clint Mansell and Various - Pi (1998)\01 - pi_r^2.flac Extracted successfully Conclusion: This track looks like CDDA with probability 100%

02 -===- D:\Clint Mansell and Various - Pi (1998)\02 - p.e.t.r.o.l..flac Extracted successfully Conclusion: This track looks like CDDA with probability 99%

03 -===- D:\Clint Mansell and Various - Pi (1998)\03 - kalpol intro.flac Extracted successfully Conclusion: This track looks like CDDA with probability 100%

04 -===- D:\Clint Mansell and Various - Pi (1998)\04 - bucephalus bouncing ball.flac Extracted successfully Conclusion: This track looks like CDDA with probability 99%

05 -===- D:\Clint Mansell and Various - Pi (1998)\05 - watching windows (ed rush and optical remix).flac Extracted successfully Conclusion: This track looks like CDDA with probability 100%

06 -===- D:\Clint Mansell and Various - Pi (1998)\06 - angel.flac Extracted successfully Conclusion: This track looks like CDDA with probability 100%

07 -===- D:\Clint Mansell and Various - Pi (1998)\07 - we got the gun.flac Extracted successfully Conclusion: This track looks like CDDA with probability 99%

08 -===- D:\Clint Mansell and Various - Pi (1998)\08 - no man's land.flac Extracted successfully Conclusion: This track looks like CDDA with probability 100%

09 -===- D:\Clint Mansell and Various - Pi (1998)\09 - anthem.flac Extracted successfully Conclusion: This track looks like CDDA with probability 99%

10 -===- D:\Clint Mansell and Various - Pi (1998)\10 - drippy.flac Extracted successfully Conclusion: This track looks like CDDA with probability 100%

11 -===- D:\Clint Mansell and Various - Pi (1998)\11 - third from the sun.flac Extracted successfully Conclusion: This track looks like CDDA with probability 100%

12 -===- D:\Clint Mansell and Various - Pi (1998)\12 - a low frequency inversion field.flac Extracted successfully Conclusion: This track looks like CDDA with probability 100%

13 -===- D:\Clint Mansell and Various - Pi (1998)\13 - 2_pi_r.flac Extracted successfully Conclusion: This track looks like CDDA with probability 100%
Artwork (Sire Records Company - 90506-2) (12 Pages, 300dpi)
спасибо блогу The Artwork Department


Трекер:  [ 07-Июл-2011 23:03 ]

  

Скачать .torrent

Размер .torrent файла 18 KB


Размер: 433 MB
Хэш (hash) релиза: 0ec140ce7e601fadc152c841e97d022cdc0f8aa3

Еще никто не оставлял запись к записи скачать торрент Clint Mansell & VA - π Pi . Будь первым!

!Обратная связь