Скачать через торрент музыку бесплатно без регистрации torrent

Если у вас наблюдаются проблемы со скриншотами, переходом по ссылками, скачиванием торрентов - проблемы в блокировщике рекламы AdBlock. #хорошегоДня!


Статистика раздачи
Размер:  310 MB   |    Зарегистрирован:  6 лет 5 месяцев   |    .torrent скачан:  50 раз   |   
Раздают:  1  
   
Загрузка...
 
Автор Сообщение

Galfimbul

avatar Galfimbul


Fear and Loathing in Las Vegas (Страх и ненависть в Лас Вегасе)

Жанр: Psychedelic Rock, Classic Rock
Год выпуска диска: 1998
Производитель диска: Russia
Аудио кодек: APE
Тип рипа: image+.cue
Битрейт аудио: lossless
Продолжительность: 58:40

Трэклист:
01 Big Brother & The Holding Company - Combination Of The Two
02 Brewer And Shipley - One Toke Over The Line
03 Tom Jones - She's A Lady
04 The Yardbirds - For Your Love
05 Jefferson Airplane - White Rabbit
06 Tomoyasu Hotei And Ray Cooper - A Drug Score - Part 1 (Acid Spill)
07 The Youngbloods - Get Together
08 Three Dog Night - Mama Told Me Not To Come
09 Bob Dylan - Stuck Inside Of Mobile With The Memphis Blues Again
10 Booker T & The MG's - Time Is Tight (3:30)
11 Perry Como - Magic Moments (3:04)
12 Tomoyasu Hotei And Ray Cooper - A Drug Score - Part 2 (Adrenochrome, The Devil's Dance)
13 Debbie Reynolds - Tammy
14 Tomoyasu Hotei And Ray Cooper - A Drug Score - Part 3 (Flashbacks)
15 Buffalo Springfield - Expecting To Fly
16 Dead Kennedys - Viva Las Vegas
Exact Audio Copy V0.99 prebeta 4 from 23. January 2008

EAC extraction logfile from 6. August 2008, 1:05

- / Fear and Loathing in Las Vegas

Used drive : PIONEER DVD-RW DVR-212 Adapter: 0 ID: 0

Read mode : Secure
Utilize accurate stream : Yes
Defeat audio cache : Yes
Make use of C2 pointers : No

Read offset correction : 48
Overread into Lead-In and Lead-Out : No
Fill up missing offset samples with silence : Yes
Delete leading and trailing silent blocks : No
Null samples used in CRC calculations : Yes
Used interface : Native Win32 interface for Win NT & 2000

Used output format : Internal WAV Routines
Sample format : 44.100 Hz; 16 Bit; Stereo

TOC of the extracted CD

Track | Start | Length | Start sector | End sector
---------------------------------------------------------
1 | 0:00.00 | 5:47.12 | 0 | 26036
2 | 5:47.12 | 3:43.23 | 26037 | 42784
3 | 9:30.35 | 3:14.52 | 42785 | 57386
4 | 12:45.12 | 2:36.55 | 57387 | 69141
5 | 15:21.67 | 3:12.65 | 69142 | 83606
6 | 18:34.57 | 0:52.63 | 83607 | 87569
7 | 19:27.45 | 5:41.65 | 87570 | 113209
8 | 25:09.35 | 3:51.25 | 113210 | 130559
9 | 29:00.60 | 7:27.25 | 130560 | 164109
10 | 36:28.10 | 3:30.05 | 164110 | 179864
11 | 39:58.15 | 3:03.72 | 179865 | 193661
12 | 43:02.12 | 2:27.20 | 193662 | 204706
13 | 45:29.32 | 3:03.33 | 204707 | 218464
14 | 48:32.65 | 2:26.20 | 218465 | 229434
15 | 50:59.10 | 4:18.35 | 229435 | 248819
16 | 55:17.45 | 3:22.67 | 248820 | 264036

Range status and errors

Selected range

Filename D:\Lossless\Fear and Loathing in Las Vegas\Fear and Loathing in Las Vegas.wav

Peak level 100.0 %
Range quality 100.0 %
Test CRC 371240CC
Copy CRC 371240CC
Copy OK

No errors occurred

End of status report


Трекер:  [ 07-Июл-2011 23:02 ]

  

Скачать .torrent

Размер .torrent файла 12 KB


Размер: 310 MB
Хэш (hash) релиза: baf25f9cb1acc28cc3a174884482ecad5d34c4ca

Еще никто не оставлял запись к записи скачать торрент . Будь первым!

!Обратная связь