Скачать через торрент музыку 300 300 спартанцев бесплатно без регистрации torrent

Если у вас наблюдаются проблемы со скриншотами, переходом по ссылками, скачиванием торрентов - проблемы в блокировщике рекламы AdBlock. #хорошегоДня!


Статистика раздачи
Размер:  306 MB   |    Зарегистрирован:  6 лет 11 месяцев   |    .torrent скачан:  64 раза   |   
Раздают:  1  
   
Загрузка...
 
Автор Сообщение

AqvaGen


300 / 300 спартанцев
Music by Tyler Bates


Жанр: Score
Год выпуска диска: 2007
Производитель диска: USA
Аудио кодек: FLAC
Тип рипа: tracks+.cue
Битрейт аудио: lossless
Продолжительность: 00:59:26



Треклист:
01. To Victory (2:35)
02. The Agoge (2:25)
03. The Wolf (2:11)
04. Returns a King (2:24)
05. Submission (2:41)
06. The Ephors (1:59)
07. Cursed by Beauty (1:42)
08. What Must a King Do? (1:06)
09. Goodbye My Love (3:23)
10. No Sleep Tonight (2:34)
11. Tree of the Dead (2:25)
12. The Hot Gates (3:00)
13. Fight in the Shade (3:18)
14. Come and Get Them (2:05)
15. No Mercy (2:23)
16. Immortals Battle (1:54)
17. Fever Dream (2:33)
18. Xerxes' Tent (3:21)
19. Tonight We Dine in Hell (1:15)
20. The Council Chamber (2:35)
21. Xerxes' Final Offer (2:39)
22. A God King Bleeds (2:17)
23. Glory (1:45)
24. Message for the Queen (2:32)
25. Remember Us (2:56)
 
Exact Audio Copy V0.99 prebeta 3 from 28. July 2007

EAC extraction logfile from 15. November 2007, 1:00

Bates, Tyler / 300

Used drive : HL-DT-STDVDRAM GSA-H42L Adapter: 1 ID: 0

Read mode : SecureUtilize accurate stream : YesDefeat audio cache : YesMake use of C2 pointers : No

Read offset correction : 667Overread into Lead-In and Lead-Out : NoFill up missing offset samples with silence : YesDelete leading and trailing silent blocks : NoNull samples used in CRC calculations : YesUsed interface : Native Win32 interface for Win NT & 2000Gap handling : Appended to previous track

Used output format : User Defined EncoderSelected bitrate : 192 kBit/sQuality : HighAdd ID3 tag : NoCommand line compressor : C:\Program Files\FLAC\flac.exeAdditional command line options : -8 -A tukey(0.25) -A gauss(0.1875) -b 4096 -V -T "artist=%a" -T "title=%t" -T "album=%g" -T "date=%y" -T "tracknumber=%n" -T "genre=%m" %s --sector-align

TOC of the extracted CD

Track | Start | Length | Start sector | End sector --------------------------------------------------------- 1 | 0:00.00 | 2:34.54 | 0 | 11603 2 | 2:34.54 | 2:24.56 | 11604 | 22459 3 | 4:59.35 | 2:10.40 | 22460 | 32249 4 | 7:10.00 | 2:24.33 | 32250 | 43082 5 | 9:34.33 | 2:40.55 | 43083 | 55137 6 | 12:15.13 | 1:59.18 | 55138 | 64080 7 | 14:14.31 | 1:41.48 | 64081 | 71703 8 | 15:56.04 | 1:05.69 | 71704 | 76647 9 | 17:01.73 | 3:22.38 | 76648 | 91835 10 | 20:24.36 | 2:33.54 | 91836 | 103364 11 | 22:58.15 | 2:25.12 | 103365 | 114251 12 | 25:23.27 | 3:00.37 | 114252 | 127788 13 | 28:23.64 | 3:17.39 | 127789 | 142602 14 | 31:41.28 | 2:05.27 | 142603 | 152004 15 | 33:46.55 | 2:23.29 | 152005 | 162758 16 | 36:10.09 | 1:53.38 | 162759 | 171271 17 | 38:03.47 | 2:33.31 | 171272 | 182777 18 | 40:37.03 | 3:20.57 | 182778 | 197834 19 | 43:57.60 | 1:15.21 | 197835 | 203480 20 | 45:13.06 | 2:34.74 | 203481 | 215104 21 | 47:48.05 | 2:39.10 | 215105 | 227039 22 | 50:27.15 | 2:16.38 | 227040 | 237277 23 | 52:43.53 | 1:44.44 | 237278 | 245121 24 | 54:28.22 | 2:31.59 | 245122 | 256505 25 | 57:00.06 | 2:56.04 | 256506 | 269709

Track 1

Filename D:\Torrents\EAC\300\01 - Bates, Tyler - To Victory.wav

Pre-gap length 0:00:02.00

Peak level 98.8 % Track quality 99.9 % Test CRC 2B6BD1FA Copy CRC 2B6BD1FA Copy OK

Track 2

Filename D:\Torrents\EAC\300\02 - Bates, Tyler - The Agoge.wav

Pre-gap length 0:00:01.00

Peak level 98.8 % Track quality 100.0 % Test CRC FB4FD85E Copy CRC FB4FD85E Copy OK

Track 3

Filename D:\Torrents\EAC\300\03 - Bates, Tyler - The Wolf.wav

Peak level 98.8 % Track quality 100.0 % Test CRC 70DDF15B Copy CRC 70DDF15B Copy OK

Track 4

Filename D:\Torrents\EAC\300\04 - Bates, Tyler - Returns a King.wav

Pre-gap length 0:00:01.26

Peak level 98.8 % Track quality 99.9 % Test CRC 40B28752 Copy CRC 40B28752 Copy OK

Track 5

Filename D:\Torrents\EAC\300\05 - Bates, Tyler - Submission.wav

Pre-gap length 0:00:01.26

Peak level 98.8 % Track quality 99.9 % Test CRC 0571849B Copy CRC 0571849B Copy OK

Track 6

Filename D:\Torrents\EAC\300\06 - Bates, Tyler - The Ephors.wav

Pre-gap length 0:00:01.25

Peak level 69.4 % Track quality 100.0 % Test CRC 55528B41 Copy CRC 55528B41 Copy OK

Track 7

Filename D:\Torrents\EAC\300\07 - Bates, Tyler - Cursed by Beauty.wav

Pre-gap length 0:00:01.26

Peak level 98.8 % Track quality 100.0 % Test CRC 85BFCB88 Copy CRC 85BFCB88 Copy OK

Track 8

Filename D:\Torrents\EAC\300\08 - Bates, Tyler - What Must a King Do .wav

Pre-gap length 0:00:01.26

Peak level 85.9 % Track quality 100.0 % Test CRC D2F93AED Copy CRC D2F93AED Copy OK

Track 9

Filename D:\Torrents\EAC\300\09 - Bates, Tyler - Goodbye My Love.wav

Pre-gap length 0:00:01.26

Peak level 98.8 % Track quality 100.0 % Test CRC 1ACC413B Copy CRC 1ACC413B Copy OK

Track 10

Filename D:\Torrents\EAC\300\10 - Bates, Tyler - No Sleep Tonight.wav

Pre-gap length 0:00:01.49

Peak level 98.8 % Track quality 100.0 % Test CRC 1D9E3B66 Copy CRC 1D9E3B66 Copy OK

Track 11

Filename D:\Torrents\EAC\300\11 - Bates, Tyler - Tree of the Dead.wav

Pre-gap length 0:00:01.26

Peak level 98.8 % Track quality 100.0 % Test CRC 32073814 Copy CRC 32073814 Copy OK

Track 12

Filename D:\Torrents\EAC\300\12 - Bates, Tyler - The Hot Gates.wav

Pre-gap length 0:00:01.26

Peak level 98.8 % Track quality 100.0 % Test CRC 97758ED4 Copy CRC 97758ED4 Copy OK

Track 13

Filename D:\Torrents\EAC\300\13 - Bates, Tyler - Fight in the Shade.wav

Pre-gap length 0:00:01.06

Peak level 98.8 % Track quality 100.0 % Test CRC A97832CD Copy CRC A97832CD Copy OK

Track 14

Filename D:\Torrents\EAC\300\14 - Bates, Tyler - Come and Get Them.wav

Pre-gap length 0:00:01.49

Peak level 98.8 % Track quality 100.0 % Test CRC 36EDD083 Copy CRC 36EDD083 Copy OK

Track 15

Filename D:\Torrents\EAC\300\15 - Bates, Tyler - No Mercy.wav

Pre-gap length 0:00:01.26

Peak level 98.8 % Track quality 100.0 % Test CRC 1F2FF5E6 Copy CRC 1F2FF5E6 Copy OK

Track 16

Filename D:\Torrents\EAC\300\16 - Bates, Tyler - Immortals Battle.wav

Pre-gap length 0:00:01.26

Peak level 98.8 % Track quality 100.0 % Test CRC E0DBAA91 Copy CRC E0DBAA91 Copy OK

Track 17

Filename D:\Torrents\EAC\300\17 - Bates, Tyler - Fever Dream.wav

Pre-gap length 0:00:01.26

Peak level 98.8 % Track quality 99.9 % Test CRC EA83E3DA Copy CRC EA83E3DA Copy OK

Track 18

Filename D:\Torrents\EAC\300\18 - Bates, Tyler - Xerxes' Tent.wav

Pre-gap length 0:00:01.26

Peak level 98.8 % Track quality 100.0 % Test CRC 04F6E2FA Copy CRC 04F6E2FA Copy OK

Track 19

Filename D:\Torrents\EAC\300\19 - Bates, Tyler - Tonight We Dine in Hell.wav

Pre-gap length 0:00:01.26

Peak level 94.6 % Track quality 100.0 % Test CRC 2D8E6182 Copy CRC 2D8E6182 Copy OK

Track 20

Filename D:\Torrents\EAC\300\20 - Bates, Tyler - The Council Chamber.wav

Pre-gap length 0:00:01.49

Peak level 92.1 % Track quality 100.0 % Test CRC 9885AE0B Copy CRC 9885AE0B Copy OK

Track 21

Filename D:\Torrents\EAC\300\21 - Bates, Tyler - Xerxes' Final Offer.wav

Pre-gap length 0:00:01.49

Peak level 98.8 % Track quality 100.0 % Test CRC 9A855501 Copy CRC 9A855501 Copy OK

Track 22

Filename D:\Torrents\EAC\300\22 - Bates, Tyler - A God King Bleeds.wav

Pre-gap length 0:00:01.49

Peak level 98.8 % Track quality 100.0 % Test CRC 1DF9EFBA Copy CRC 1DF9EFBA Copy OK

Track 23

Filename D:\Torrents\EAC\300\23 - Bates, Tyler - Glory.wav

Peak level 98.8 % Track quality 99.8 % Test CRC D7F1AAE5 Copy CRC D7F1AAE5 Copy OK

Track 24

Filename D:\Torrents\EAC\300\24 - Bates, Tyler - Message for the Queen.wav

Pre-gap length 0:00:00.98

Peak level 77.2 % Track quality 100.0 % Test CRC 867418F5 Copy CRC 867418F5 Copy OK

Track 25

Filename D:\Torrents\EAC\300\25 - Bates, Tyler - Remember Us.wav

Pre-gap length 0:00:01.48

Peak level 98.8 % Track quality 100.0 % Test CRC EDFE8E76 Copy CRC EDFE8E76 Copy OK

No errors occurred

End of status report
 
[Verification date: 29.12.2009 0:40:23][Disc ID: 003510c8-03bd8c12-4f0e0c19]Track [ CRC ] Status 01 [7b2ac1d5] (35/40) Accurately ripped as in pressing(s) #1 02 [0f30b011] (35/40) Accurately ripped as in pressing(s) #1 03 [a6b07981] (35/40) Accurately ripped as in pressing(s) #1 04 [b2966cbd] (35/40) Accurately ripped as in pressing(s) #1 05 [88df6c51] (35/40) Accurately ripped as in pressing(s) #1 06 [0191fb22] (35/40) Accurately ripped as in pressing(s) #1 07 [d187ef4a] (35/40) Accurately ripped as in pressing(s) #1 08 [d9894128] (35/40) Accurately ripped as in pressing(s) #1 09 [fbbcb854] (35/40) Accurately ripped as in pressing(s) #1 10 [0f0496e6] (35/40) Accurately ripped as in pressing(s) #1 11 [c6276c57] (35/40) Accurately ripped as in pressing(s) #1 12 [033871c9] (34/39) Accurately ripped as in pressing(s) #1 13 [e150a10b] (34/39) Accurately ripped as in pressing(s) #1 14 [492e837c] (34/39) Accurately ripped as in pressing(s) #1 15 [518f60c7] (35/40) Accurately ripped as in pressing(s) #1 16 [79b68d3a] (35/40) Accurately ripped as in pressing(s) #1 17 [5d9a3674] (35/40) Accurately ripped as in pressing(s) #1 18 [1a27b636] (35/40) Accurately ripped as in pressing(s) #1 19 [bb8afe3e] (35/40) Accurately ripped as in pressing(s) #1 20 [ff201578] (35/40) Accurately ripped as in pressing(s) #1 21 [c2849173] (35/40) Accurately ripped as in pressing(s) #1 22 [574acd69] (35/40) Accurately ripped as in pressing(s) #1 23 [b4048ade] (34/39) Accurately ripped as in pressing(s) #1 24 [aa5b648e] (33/38) Accurately ripped as in pressing(s) #1 25 [4bd70df1] (35/40) Accurately ripped as in pressing(s) #1Offsetted by -646: 01 [986f3985] (05/40) Accurately ripped as in pressing(s) #2 02 [d90d5964] (05/40) Accurately ripped as in pressing(s) #2 03 [d6abaf9e] (05/40) Accurately ripped as in pressing(s) #2 04 [bb8526e5] (05/40) Accurately ripped as in pressing(s) #2 05 [e381ffd3] (05/40) Accurately ripped as in pressing(s) #2 06 [83de6d5c] (05/40) Accurately ripped as in pressing(s) #2 07 [ec7f45e0] (05/40) Accurately ripped as in pressing(s) #2 08 [67d9c5bc] (05/40) Accurately ripped as in pressing(s) #2 09 [cfd41e74] (05/40) Accurately ripped as in pressing(s) #2 10 [65051234] (05/40) Accurately ripped as in pressing(s) #2 11 [81e2baef] (05/40) Accurately ripped as in pressing(s) #2 12 [84264f63] (05/39) Accurately ripped as in pressing(s) #2 13 [99c7754f] (05/39) Accurately ripped as in pressing(s) #2 14 [db94a3c4] (05/39) Accurately ripped as in pressing(s) #2 15 [db071ac3] (05/40) Accurately ripped as in pressing(s) #2 16 [2a2d24c2] (05/40) Accurately ripped as in pressing(s) #2 17 [4358d2dc] (05/40) Accurately ripped as in pressing(s) #2 18 [e8f9247e] (05/40) Accurately ripped as in pressing(s) #2 19 [86bce288] (05/40) Accurately ripped as in pressing(s) #2 20 [c417dad2] (05/40) Accurately ripped as in pressing(s) #2 21 [02beb265] (05/40) Accurately ripped as in pressing(s) #2 22 [20893c0e] (05/40) Accurately ripped as in pressing(s) #2 23 [57aee425] (05/39) Accurately ripped as in pressing(s) #2 24 [640ad744] (05/38) Accurately ripped as in pressing(s) #2 25 [656a4415] (05/40) Accurately ripped as in pressing(s) #2

Track [ CRC32 ] [W/O NULL] [ LOG ] -- [EEDC00D2] [C9576B32] 01 [2B6BD1FA] [C3511C85] CRC32 02 [FB4FD85E] [26C23273] CRC32 03 [70DDF15B] [994E6C48] CRC32 04 [40B28752] [C47657F8] CRC32 05 [0571849B] [5F5E0DE4] CRC32 06 [55528B41] [D62407CF] CRC32 07 [85BFCB88] [3B63920D] CRC32 08 [D2F93AED] [FC6508D8] CRC32 09 [1ACC413B] [DE3AFE1B] CRC32 10 [1D9E3B66] [90EE073F] CRC32 11 [32073814] [7BAB2AF7] CRC32 12 [97758ED4] [391E8860] CRC32 13 [A97832CD] [7CBA9397] CRC32 14 [36EDD083] [BCE4B53D] CRC32 15 [1F2FF5E6] [053E2C25] CRC32 16 [E0DBAA91] [26FB0676] CRC32 17 [EA83E3DA] [49AB3678] CRC32 18 [04F6E2FA] [F0D910EA] CRC32 19 [2D8E6182] [44CDF317] CRC32 20 [9885AE0B] [B112A633] CRC32 21 [9A855501] [71FA9567] CRC32 22 [1DF9EFBA] [7D0C1EF1] CRC32 23 [D7F1AAE5] [17BEAAA8] CRC32 24 [867418F5] [0FB812F7] CRC32 25 [EDFE8E76] [6BC7B133] CRC32

Enjoy!


Трекер:  [ 29-Дек-2010 22:40 ]

  

Скачать .torrent

Размер .torrent файла 14 KB


Размер: 306 MB
Хэш (hash) релиза: f14b0d211dd81eddbba1ad9f052972630eb82374

bot

Топик был перенесен в форум Саундтреки к фильмам и мультфильмам (lossless)

Перенес AqvaGen

Хотите добавить комментарий к записи скачать торрент 300 300 спартанцев

!Обратная связь