Скачать через торрент музыку Tarantino New Hits from Kill Bill Vol. 1 & Vol. 2 - 2004, FLAC бесплатно без регистрации torrent

Если у вас наблюдаются проблемы со скриншотами, переходом по ссылками, скачиванием торрентов - проблемы в блокировщике рекламы AdBlock. #хорошегоДня!


Статистика раздачи
Размер:  344 MB   |    Зарегистрирован:  6 лет 5 месяцев   |    .torrent скачан:  49 раз   |   
Раздают:  1  
   
Загрузка...
 
Автор Сообщение

Galfimbul

avatar Galfimbul


Tarantino New Hits from Kill Bill Vol. 1 & Vol. 2

Жанр: Soundtrack
Год выпуска диска: 2004
Производитель диска: Россия
Аудио кодек: FLAC
Тип рипа: image+.cue
Битрейт аудио: lossless
Продолжительность: 63:53
Трэклист:
1. Nancy Sinatra - Bang Bang (My Baby Shot Me Down) (2:38)
2. Bernard Herrmann - Twisted Nerve (1:27)
3. Santa Esmeralda - Don't Let Me Be Misunderstood (10:00)
4. Malcolm McLaren - About Her (4:49)
5. Geoghio Zamfir - The Lonely Shepherd (4:21)
6. Johnny Cash - Bird On A Wire (4:01)
7. 5. 6. 7. 8's - Woo Hoo (1:58)
8. Charlie Feathers - That Certain Female (3:01)
9. Luis Bacalov - The Grand Duel (Parte Prima) (3:24)
10. Meiko Kaji - The Flower of Carnage (translation from japanese) (3:51)
11. Charlie Feathers - Can't Hardly Stand It (2:46)
12. Luis Bacalov - Summertime Killer (3:40)
13. Chingon - Malaguena Salerosa (4:05)
14. Quincy Jones - Ironside (excerpt) (0:15)
15. Meiko Kaji - Urami Bushi (3:34)
16. Al Hirt - Green Hornet (2:17)
17. Johnny Cash - Delia's Gone (2:18)
18. Ennio Morricone - L'Arena (4:44)

Доп. информация: Коллекционное издание. В буклетах тексты всех песен, представленных на диске и фотографии исполнителей.
 
Exact Audio Copy V0.99 prebeta 5 from 4. May 2009

EAC extraction logfile from 26. February 2010, 19:38

Various / Tarantino New Hits from Kill Bill Vol. 1 & Vol. 2

Used drive : Optiarc DVD RW AD-7173A Adapter: 1 ID: 0

Read mode : SecureUtilize accurate stream : YesDefeat audio cache : YesMake use of C2 pointers : No

Read offset correction : 48Overread into Lead-In and Lead-Out : NoFill up missing offset samples with silence : YesDelete leading and trailing silent blocks : NoNull samples used in CRC calculations : YesUsed interface : Native Win32 interface for Win NT & 2000

Used output format : User Defined EncoderSelected bitrate : 128 kBit/sQuality : HighAdd ID3 tag : NoCommand line compressor : C:\Program Files (x86)\Exact Audio Copy\Flac\flac.exeAdditional command line options : -T "DATE=%y" -T "GENRE=%m" -8 -V %s

TOC of the extracted CD

Track | Start | Length | Start sector | End sector --------------------------------------------------------- 1 | 0:00.00 | 2:40.47 | 0 | 12046 2 | 2:40.47 | 1:29.41 | 12047 | 18762 3 | 4:10.13 | 10:02.46 | 18763 | 63958 4 | 14:12.59 | 4:51.11 | 63959 | 85794 5 | 19:03.70 | 4:23.10 | 85795 | 105529 6 | 23:27.05 | 4:03.05 | 105530 | 123759 7 | 27:30.10 | 2:00.53 | 123760 | 132812 8 | 29:30.63 | 3:03.19 | 132813 | 146556 9 | 32:34.07 | 3:26.03 | 146557 | 162009 10 | 36:00.10 | 3:53.35 | 162010 | 179519 11 | 39:53.45 | 2:48.40 | 179520 | 192159 12 | 42:42.10 | 3:42.55 | 192160 | 208864 13 | 46:24.65 | 4:07.61 | 208865 | 227450 14 | 50:32.51 | 0:17.60 | 227451 | 228785 15 | 50:50.36 | 3:36.72 | 228786 | 245057 16 | 54:27.33 | 2:19.18 | 245058 | 255500 17 | 56:46.51 | 2:20.05 | 255501 | 266005 18 | 59:06.56 | 4:46.74 | 266006 | 287529

Range status and errors

Selected range

Filename D:\Downloads\Tarantino New Hits from Kill Bill_new\Various - Tarantino New Hits from Kill Bill Vol. 1 & Vol. 2.wav

Peak level 97.3 % Range quality 100.0 % Test CRC 63AE1AF6 Copy CRC 63AE1AF6 Copy OK

No errors occurred

End of status report


Трекер:  [ 07-Июл-2011 23:00 ]

  

Скачать .torrent

Размер .torrent файла 14 KB


Размер: 344 MB
Хэш (hash) релиза: 36d395c90a94d78978680375c2d3b51cc9af146d

Еще никто не оставлял запись к записи скачать торрент Tarantino New Hits from Kill Bill Vol. 1 & Vol. 2 - 2004, FLAC . Будь первым!

!Обратная связь