Скачать через торрент музыку The Pacific Тихий океан бесплатно без регистрации torrent

Если у вас наблюдаются проблемы со скриншотами, переходом по ссылками, скачиванием торрентов - проблемы в блокировщике рекламы AdBlock. #хорошегоДня!


Статистика раздачи
Размер:  329 MB   |    Зарегистрирован:  6 лет 11 месяцев   |    .torrent скачан:  102 раза   |   
Раздают:  1  
   
Загрузка...
 
Автор Сообщение

AqvaGen


The Pacific / Тихий океан / На тихом океане
(by Hans Zimmer, Geoff Zanelli, Blake Neely)
Жанр: Score
Год выпуска диска: 2010
Производитель диска: USA
Аудио кодек: FLAC
Тип рипа: tracks+.cue
Битрейт аудио: lossless
Продолжительность: 1:12:14
01. Honor (Main Title Theme)
02. With The Old Breed (End Title Theme)
03. You Have No Idea
04. Terrible Solomons
05. Torn Souls
06. Nightfall On Okinawa
07. Private First Class Robert Leckie
08. Fallen Friend
09. We've Gone Respectable
10. Iwo Jima
11. Praying For You
12. Even The Trees Hate Us
13. Get The Wounded Aboard
14. Memories Of Home
15. Landing Peleliu
16. Adagio For Peleliu
17. The Peleliu Hills
18. Dear Vera
19. Where Do We Go From Here?
20. Men At War
21. Sledge's Humanity
22. War Is Hell
23. Homecoming
24. New Kind Of Bomb
25. Honor (for oboe and strings)
 
Exact Audio Copy V0.99 prebeta 5 from 4. May 2009

EAC extraction logfile from 30. June 2010, 21:52

Hans Zimmer, Geoff Zanelly & Blake Neely / The Pacific (Music from the HBO Miniseries)

Used drive : ATAPI BD O DH4O1S Adapter: 2 ID: 0

Read mode : SecureUtilize accurate stream : YesDefeat audio cache : YesMake use of C2 pointers : No

Read offset correction : 6Overread into Lead-In and Lead-Out : NoFill up missing offset samples with silence : YesDelete leading and trailing silent blocks : NoNull samples used in CRC calculations : YesUsed interface : Native Win32 interface for Win NT & 2000Gap handling : Appended to previous track

Used output format : User Defined EncoderSelected bitrate : 128 kBit/sQuality : HighAdd ID3 tag : NoCommand line compressor : C:\Program Files\Exact Audio Copy\Flac\flac.exeAdditional command line options : -V -8 -T "artist=%a" -T "title=%t" -T "album=%g" -T "date=%y" -T "tracknumber=%n" -T "genre=%m" %s

TOC of the extracted CD

Track | Start | Length | Start sector | End sector --------------------------------------------------------- 1 | 0:00.00 | 2:57.61 | 0 | 13335 2 | 2:57.61 | 4:04.16 | 13336 | 31651 3 | 7:02.02 | 2:15.31 | 31652 | 41807 4 | 9:17.33 | 1:40.65 | 41808 | 49372 5 | 10:58.23 | 1:23.01 | 49373 | 55598 6 | 12:21.24 | 1:41.41 | 55599 | 63214 7 | 14:02.65 | 2:40.14 | 63215 | 75228 8 | 16:43.04 | 1:50.70 | 75229 | 83548 9 | 18:33.74 | 3:04.57 | 83549 | 97405 10 | 21:38.56 | 4:08.45 | 97406 | 116050 11 | 25:47.26 | 3:19.40 | 116051 | 131015 12 | 29:06.66 | 3:41.40 | 131016 | 147630 13 | 32:48.31 | 1:56.32 | 147631 | 156362 14 | 34:44.63 | 2:31.68 | 156363 | 167755 15 | 37:16.56 | 3:22.42 | 167756 | 182947 16 | 40:39.23 | 2:07.57 | 182948 | 192529 17 | 42:47.05 | 4:37.52 | 192530 | 213356 18 | 47:24.57 | 1:46.62 | 213357 | 221368 19 | 49:11.44 | 1:55.02 | 221369 | 229995 20 | 51:06.46 | 2:33.31 | 229996 | 241501 21 | 53:40.02 | 6:08.15 | 241502 | 269116 22 | 59:48.17 | 2:15.64 | 269117 | 279305 23 | 62:04.06 | 4:51.17 | 279306 | 301147 24 | 66:55.23 | 2:19.14 | 301148 | 311586 25 | 69:14.37 | 2:59.17 | 311587 | 325028

Track 1

Filename Q:\EAC\Hans Zimmer, Geoff Zanelly & Blake Neely - 2010 - The Pacific (Music from the HBO Miniseries)\01 - Honor - Main Theme From THE PACIFIC.wav

Pre-gap length 0:00:02.00

Peak level 100.0 % Track quality 100.0 % Test CRC 9048FCCE Copy CRC 9048FCCE Cannot be verified as accurate (confidence 2) [B2D058E7], AccurateRip returned [F5F325E3] Copy OK

Track 2

Filename Q:\EAC\Hans Zimmer, Geoff Zanelly & Blake Neely - 2010 - The Pacific (Music from the HBO Miniseries)\02 - With The Old Breed - End Title Theme From THE PACIFIC.wav

Pre-gap length 0:00:01.22

Peak level 100.0 % Track quality 100.0 % Test CRC EAF301E0 Copy CRC EAF301E0 Cannot be verified as accurate (confidence 2) [3DBD1D20], AccurateRip returned [55F907B0] Copy OK

Track 3

Filename Q:\EAC\Hans Zimmer, Geoff Zanelly & Blake Neely - 2010 - The Pacific (Music from the HBO Miniseries)\03 - You Have No Idea.wav

Peak level 53.9 % Track quality 100.0 % Test CRC 3A352006 Copy CRC 3A352006 Cannot be verified as accurate (confidence 2) [0F9436FA], AccurateRip returned [4068D934] Copy OK

Track 4

Filename Q:\EAC\Hans Zimmer, Geoff Zanelly & Blake Neely - 2010 - The Pacific (Music from the HBO Miniseries)\04 - Terrible Solomons.wav

Peak level 85.7 % Track quality 100.0 % Test CRC 4C24B633 Copy CRC 4C24B633 Cannot be verified as accurate (confidence 2) [CD88CBD3], AccurateRip returned [DB1AC6ED] Copy OK

Track 5

Filename Q:\EAC\Hans Zimmer, Geoff Zanelly & Blake Neely - 2010 - The Pacific (Music from the HBO Miniseries)\05 - Torn Souls.wav

Peak level 46.8 % Track quality 99.8 % Test CRC 22A570F6 Copy CRC 22A570F6 Cannot be verified as accurate (confidence 2) [8BBA932A], AccurateRip returned [77E78936] Copy OK

Track 6

Filename Q:\EAC\Hans Zimmer, Geoff Zanelly & Blake Neely - 2010 - The Pacific (Music from the HBO Miniseries)\06 - Nightfall On Okinawa.wav

Peak level 50.1 % Track quality 100.0 % Test CRC D51DB06C Copy CRC D51DB06C Cannot be verified as accurate (confidence 2) [30A88CBA], AccurateRip returned [ED41DC41] Copy OK

Track 7

Filename Q:\EAC\Hans Zimmer, Geoff Zanelly & Blake Neely - 2010 - The Pacific (Music from the HBO Miniseries)\07 - Private First Class Robert Leckie.wav

Peak level 57.6 % Track quality 100.0 % Test CRC 71576965 Copy CRC 71576965 Cannot be verified as accurate (confidence 2) [CBC2E662], AccurateRip returned [90A9B3B1] Copy OK

Track 8

Filename Q:\EAC\Hans Zimmer, Geoff Zanelly & Blake Neely - 2010 - The Pacific (Music from the HBO Miniseries)\08 - Fallen Friend.wav

Peak level 48.4 % Track quality 99.9 % Test CRC 6C5B2BFE Copy CRC 6C5B2BFE Cannot be verified as accurate (confidence 2) [99477413], AccurateRip returned [6964582C] Copy OK

Track 9

Filename Q:\EAC\Hans Zimmer, Geoff Zanelly & Blake Neely - 2010 - The Pacific (Music from the HBO Miniseries)\09 - We've Gone Respectable.wav

Peak level 42.1 % Track quality 100.0 % Test CRC E1647D36 Copy CRC E1647D36 Cannot be verified as accurate (confidence 2) [B2EEE78A], AccurateRip returned [094061D6] Copy OK

Track 10

Filename Q:\EAC\Hans Zimmer, Geoff Zanelly & Blake Neely - 2010 - The Pacific (Music from the HBO Miniseries)\10 - Iwo Jima.wav

Peak level 100.0 % Track quality 100.0 % Test CRC DB2C7B28 Copy CRC DB2C7B28 Cannot be verified as accurate (confidence 2) [C168F125], AccurateRip returned [4408CB7B] Copy OK

Track 11

Filename Q:\EAC\Hans Zimmer, Geoff Zanelly & Blake Neely - 2010 - The Pacific (Music from the HBO Miniseries)\11 - Praying For You.wav

Peak level 56.7 % Track quality 100.0 % Test CRC 0C8DBA34 Copy CRC 0C8DBA34 Cannot be verified as accurate (confidence 2) [E48C2B94], AccurateRip returned [F010CF1F] Copy OK

Track 12

Filename Q:\EAC\Hans Zimmer, Geoff Zanelly & Blake Neely - 2010 - The Pacific (Music from the HBO Miniseries)\12 - Even The Trees Hate Us.wav

Peak level 100.0 % Track quality 100.0 % Test CRC 51CB8E70 Copy CRC 51CB8E70 Cannot be verified as accurate (confidence 2) [BDF87753], AccurateRip returned [ACC6B742] Copy OK

Track 13

Filename Q:\EAC\Hans Zimmer, Geoff Zanelly & Blake Neely - 2010 - The Pacific (Music from the HBO Miniseries)\13 - Get The Wounded Aboard.wav

Peak level 100.0 % Track quality 100.0 % Test CRC 8474A3CF Copy CRC 8474A3CF Cannot be verified as accurate (confidence 2) [546A62B8], AccurateRip returned [63E67613] Copy OK

Track 14

Filename Q:\EAC\Hans Zimmer, Geoff Zanelly & Blake Neely - 2010 - The Pacific (Music from the HBO Miniseries)\14 - Memories Of Home.wav

Pre-gap length 0:00:00.77

Peak level 42.8 % Track quality 100.0 % Test CRC 0CBD2922 Copy CRC 0CBD2922 Cannot be verified as accurate (confidence 2) [AA77FD35], AccurateRip returned [A6165AE3] Copy OK

Track 15

Filename Q:\EAC\Hans Zimmer, Geoff Zanelly & Blake Neely - 2010 - The Pacific (Music from the HBO Miniseries)\15 - Landing Peleliu.wav

Peak level 100.0 % Track quality 99.9 % Test CRC 98A8B760 Copy CRC 98A8B760 Cannot be verified as accurate (confidence 2) [98B182AA], AccurateRip returned [C0D7C9FA] Copy OK

Track 16

Filename Q:\EAC\Hans Zimmer, Geoff Zanelly & Blake Neely - 2010 - The Pacific (Music from the HBO Miniseries)\16 - Adagio For Peleliu.wav

Peak level 83.4 % Track quality 100.0 % Test CRC 7788EC9B Copy CRC 7788EC9B Cannot be verified as accurate (confidence 2) [D065987A], AccurateRip returned [B6102962] Copy OK

Track 17

Filename Q:\EAC\Hans Zimmer, Geoff Zanelly & Blake Neely - 2010 - The Pacific (Music from the HBO Miniseries)\17 - The Peleliu Hills.wav

Peak level 100.0 % Track quality 100.0 % Test CRC 044AE5FB Copy CRC 044AE5FB Cannot be verified as accurate (confidence 2) [F1F5867C], AccurateRip returned [3A357773] Copy OK

Track 18

Filename Q:\EAC\Hans Zimmer, Geoff Zanelly & Blake Neely - 2010 - The Pacific (Music from the HBO Miniseries)\18 - Dear Vera.wav

Peak level 83.5 % Track quality 100.0 % Test CRC B33696E2 Copy CRC B33696E2 Cannot be verified as accurate (confidence 2) [E59A3607], AccurateRip returned [0122E429] Copy OK

Track 19

Filename Q:\EAC\Hans Zimmer, Geoff Zanelly & Blake Neely - 2010 - The Pacific (Music from the HBO Miniseries)\19 - Where Do We Go From Here .wav

Peak level 100.0 % Track quality 100.0 % Test CRC 847D4898 Copy CRC 847D4898 Cannot be verified as accurate (confidence 2) [EF123B5E], AccurateRip returned [55B9376F] Copy OK

Track 20

Filename Q:\EAC\Hans Zimmer, Geoff Zanelly & Blake Neely - 2010 - The Pacific (Music from the HBO Miniseries)\20 - Men At War.wav

Peak level 68.5 % Track quality 99.9 % Test CRC B9BF35C6 Copy CRC B9BF35C6 Cannot be verified as accurate (confidence 2) [DBB88269], AccurateRip returned [0B85790A] Copy OK

Track 21

Filename Q:\EAC\Hans Zimmer, Geoff Zanelly & Blake Neely - 2010 - The Pacific (Music from the HBO Miniseries)\21 - Sledge's Humanity.wav

Peak level 100.0 % Track quality 100.0 % Test CRC 0529EBF0 Copy CRC 0529EBF0 Cannot be verified as accurate (confidence 2) [8FD12F00], AccurateRip returned [D3C9E3F6] Copy OK

Track 22

Filename Q:\EAC\Hans Zimmer, Geoff Zanelly & Blake Neely - 2010 - The Pacific (Music from the HBO Miniseries)\22 - War Is Hell.wav

Peak level 51.0 % Track quality 100.0 % Test CRC 09A90DDD Copy CRC 09A90DDD Cannot be verified as accurate (confidence 2) [452B6F79], AccurateRip returned [8E0A44D8] Copy OK

Track 23

Filename Q:\EAC\Hans Zimmer, Geoff Zanelly & Blake Neely - 2010 - The Pacific (Music from the HBO Miniseries)\23 - Homecoming.wav

Peak level 53.0 % Track quality 99.9 % Test CRC 35E50931 Copy CRC 35E50931 Cannot be verified as accurate (confidence 2) [D3BCBB96], AccurateRip returned [041DE870] Copy OK

Track 24

Filename Q:\EAC\Hans Zimmer, Geoff Zanelly & Blake Neely - 2010 - The Pacific (Music from the HBO Miniseries)\24 - New Kind Of Bomb.wav

Peak level 100.0 % Track quality 100.0 % Test CRC 5B564113 Copy CRC 5B564113 Cannot be verified as accurate (confidence 2) [8E3DC80C], AccurateRip returned [37CA1509] Copy OK

Track 25

Filename Q:\EAC\Hans Zimmer, Geoff Zanelly & Blake Neely - 2010 - The Pacific (Music from the HBO Miniseries)\25 - Honor (for oboe & strings).wav

Peak level 77.8 % Track quality 100.0 % Test CRC 1DF71D47 Copy CRC 1DF71D47 Cannot be verified as accurate (confidence 2) [06184116], AccurateRip returned [B8E4A005] Copy OK

No tracks could be verified as accurateYou may have a different pressing from the one(s) in the database

No errors occurred

End of status report
 
REM GENRE SoundtrackREM DATE 2010REM DISCID 6510ED19REM COMMENT "ExactAudioCopy v0.99pb5"FILE "01 - Honor - Main Theme From THE PACIFIC.wav" WAVE TRACK 01 AUDIO INDEX 01 00:00:00 TRACK 02 AUDIO INDEX 00 02:56:44FILE "02 - With The Old Breed - End Title Theme From THE PACIFIC.wav" WAVE INDEX 01 00:00:00FILE "03 - You Have No Idea.wav" WAVE TRACK 03 AUDIO INDEX 01 00:00:00FILE "04 - Terrible Solomons.wav" WAVE TRACK 04 AUDIO INDEX 01 00:00:00FILE "05 - Torn Souls.wav" WAVE TRACK 05 AUDIO INDEX 01 00:00:00FILE "06 - Nightfall On Okinawa.wav" WAVE TRACK 06 AUDIO INDEX 01 00:00:00FILE "07 - Private First Class Robert Leckie.wav" WAVE TRACK 07 AUDIO INDEX 01 00:00:00FILE "08 - Fallen Friend.wav" WAVE TRACK 08 AUDIO INDEX 01 00:00:00FILE "09 - We've Gone Respectable.wav" WAVE TRACK 09 AUDIO INDEX 01 00:00:00FILE "10 - Iwo Jima.wav" WAVE TRACK 10 AUDIO INDEX 01 00:00:00FILE "11 - Praying For You.wav" WAVE TRACK 11 AUDIO INDEX 01 00:00:00FILE "12 - Even The Trees Hate Us.wav" WAVE TRACK 12 AUDIO INDEX 01 00:00:00FILE "13 - Get The Wounded Aboard.wav" WAVE TRACK 13 AUDIO INDEX 01 00:00:00 TRACK 14 AUDIO INDEX 00 01:55:49FILE "14 - Memories Of Home.wav" WAVE INDEX 01 00:00:00FILE "15 - Landing Peleliu.wav" WAVE TRACK 15 AUDIO INDEX 01 00:00:00FILE "16 - Adagio For Peleliu.wav" WAVE TRACK 16 AUDIO INDEX 01 00:00:00FILE "17 - The Peleliu Hills.wav" WAVE TRACK 17 AUDIO INDEX 01 00:00:00FILE "18 - Dear Vera.wav" WAVE TRACK 18 AUDIO INDEX 01 00:00:00FILE "19 - Where Do We Go From Here .wav" WAVE TRACK 19 AUDIO INDEX 01 00:00:00FILE "20 - Men At War.wav" WAVE TRACK 20 AUDIO INDEX 01 00:00:00FILE "21 - Sledge's Humanity.wav" WAVE TRACK 21 AUDIO INDEX 01 00:00:00FILE "22 - War Is Hell.wav" WAVE TRACK 22 AUDIO INDEX 01 00:00:00FILE "23 - Homecoming.wav" WAVE TRACK 23 AUDIO INDEX 01 00:00:00FILE "24 - New Kind Of Bomb.wav" WAVE TRACK 24 AUDIO INDEX 01 00:00:00FILE "25 - Honor (for oboe & strings).wav" WAVE TRACK 25 AUDIO INDEX 01 00:00:00


Трекер:  [ 19-Дек-2010 15:36 ]

  

Скачать .torrent

Размер .torrent файла 28 KB


Размер: 329 MB
Хэш (hash) релиза: 007924eaea19b2bca8276860dae7f6d094edb63d

bot

Топик был перенесен в форум Саундтреки к фильмам и мультфильмам (lossless)

Перенес AqvaGen

Хотите добавить комментарий к записи скачать торрент The Pacific Тихий океан

!Обратная связь