Скачать через торрент музыку VA - A Good Year Хороший год - 2006, FLAC бесплатно без регистрации torrent

Если у вас наблюдаются проблемы со скриншотами, переходом по ссылками, скачиванием торрентов - проблемы в блокировщике рекламы AdBlock. #хорошегоДня!


Статистика раздачи
Размер:  273 MB   |    Зарегистрирован:  6 лет 5 месяцев   |    .torrent скачан:  55 раз   |   
Раздают:  1  
   
Загрузка...
 
Автор Сообщение

Galfimbul

avatar Galfimbul


Various Artists - A Good Year / Хороший год

Жанр: Soundtrack/Score
Год выпуска диска: 2006
Производитель диска: EU
Аудио кодек: FLAC
Тип рипа: image+.cue
Битрейт аудио: lossless
Продолжительность: 54:41

Трэклист:
01. Harry Nilsson - How Can I Be Sure Of You [0:03:05.67]
02. Makali - "Il faut du temps au temps" [0:02:20.74]
03. Charles Trenet - Je Chante [0:02:46.56]
04. Josephine Baker - Breezin' Along With The Breeze [0:02:55.17]
05. Harry Nilsson - Jump Into The Fire [0:04:12.44]
06. Edmundo Ros & His Orchestra - The Wedding Samba [0:02:54.24]
07. Delaney & Bonny - Never Ending Song Of Love [0:03:22.43]
08. Patti Page - Old Cape Cod [0:02:49.14]
09. Jean Sablon - J'Attendrai [0:02:56.29]
10. Harry Nilsson - Gotta Get Up (Demo Version) [0:02:15.28]
11. Tino Rossi - Le Chant Du Gardian [0:03:18.23]
12. Richard Anthony - Itsy Bitsy Petit Bikini [0:02:26.62]
13. Max-a-million (Score by Marc Streitenfeld) [0:04:55.04]
14. Le Coin Perdu (Score by Marc Streitenfeld) [0:05:56.26]
15. Wisdom (Score by Marc Streitenfeld) [0:08:26.03]
 
Exact Audio Copy V0.99 prebeta 4 from 23. January 2008

EAC extraction logfile from 7. March 2009, 12:31

Various / A Good Year

Used drive : HL-DT-STDVDRAM_GSA-T20N Adapter: 0 ID: 0

Read mode : SecureUtilize accurate stream : YesDefeat audio cache : YesMake use of C2 pointers : No

Read offset correction : 667Overread into Lead-In and Lead-Out : NoFill up missing offset samples with silence : YesDelete leading and trailing silent blocks : NoNull samples used in CRC calculations : YesUsed interface : Native Win32 interface for Win NT & 2000

Used output format : User Defined EncoderSelected bitrate : 768 kBit/sQuality : HighAdd ID3 tag : NoCommand line compressor : C:\Program Files\Exact Audio Copy\Flac\flac.exeAdditional command line options : -6 -V -T "ARTIST=%a" -T "TITLE=%t" -T "ALBUM=%g" -T "DATE=%y" -T "TRACKNUMBER=%n" -T "GENRE=%m" -T "COMMENT=%e" %s -o %d

TOC of the extracted CD

Track | Start | Length | Start sector | End sector --------------------------------------------------------- 1 | 0:00.00 | 3:05.67 | 0 | 13941 2 | 3:05.67 | 2:20.74 | 13942 | 24515 3 | 5:26.66 | 2:46.56 | 24516 | 37021 4 | 8:13.47 | 2:55.17 | 37022 | 50163 5 | 11:08.64 | 4:12.44 | 50164 | 69107 6 | 15:21.33 | 2:54.24 | 69108 | 82181 7 | 18:15.57 | 3:22.43 | 82182 | 97374 8 | 21:38.25 | 2:49.14 | 97375 | 110063 9 | 24:27.39 | 2:56.29 | 110064 | 123292 10 | 27:23.68 | 2:15.28 | 123293 | 133445 11 | 29:39.21 | 3:18.23 | 133446 | 148318 12 | 32:57.44 | 2:26.62 | 148319 | 159330 13 | 35:24.31 | 4:55.04 | 159331 | 181459 14 | 40:19.35 | 5:56.26 | 181460 | 208185 15 | 46:15.61 | 8:26.03 | 208186 | 246138

Range status and errors

Selected range

Filename D:\Various - A Good Year.wav

Peak level 100.0 % Range quality 100.0 % Copy CRC 9AF8AD88 Copy OK

No errors occurred

AccurateRip summary

Track 1 accurately ripped (confidence 3) [4B23B692]Track 2 accurately ripped (confidence 3) [C815C601]Track 3 accurately ripped (confidence 3) [2DCF0FAA]Track 4 accurately ripped (confidence 3) [2DCE88A1]Track 5 accurately ripped (confidence 3) [CF98623F]Track 6 accurately ripped (confidence 3) [FDD456CB]Track 7 accurately ripped (confidence 3) [D7E26F5A]Track 8 accurately ripped (confidence 3) [4C603678]Track 9 accurately ripped (confidence 3) [BF18EE62]Track 10 accurately ripped (confidence 3) [FDBAB8D2]Track 11 accurately ripped (confidence 3) [F5DDD62D]Track 12 accurately ripped (confidence 3) [EE58044F]Track 13 accurately ripped (confidence 4) [CE379489]Track 14 accurately ripped (confidence 4) [5DDC05D9]Track 15 accurately ripped (confidence 4) [6DA14CA8]

All tracks accurately ripped

End of status report


Трекер:  [ 07-Июл-2011 22:57 ]

  

Скачать .torrent

Размер .torrent файла 11 KB


Размер: 273 MB
Хэш (hash) релиза: 2c0315b3466fb821acc93a325c60de9d1f72c364

Еще никто не оставлял запись к записи скачать торрент VA - A Good Year Хороший год - 2006, FLAC . Будь первым!

!Обратная связь