Скачать через торрент музыку Суини Тодд, демон-парикмахер с Флит-стрит Sweeney Todd: The Demon Barber of Fleet Street бесплатно без регистрации torrent

Если у вас наблюдаются проблемы со скриншотами, переходом по ссылками, скачиванием торрентов - проблемы в блокировщике рекламы AdBlock. #хорошегоДня!


Статистика раздачи
Размер:  359 MB   |    Зарегистрирован:  6 лет 5 месяцев   |    .torrent скачан:  33 раза   |   
Раздают:  1  
   
Загрузка...
 
Автор Сообщение

Galfimbul

avatar Galfimbul


Sweeney Todd: The Demon Barber of Fleet Street OST

Год выпуска: 2007
Формат: FLAC (image + .cue)
Битрейт аудио: lossless
Продолжительность: 1 час, 11 минут, 56 секунд
01 - Stephen Sondheim - Opening Title
02 - Johnny Depp, Jamie Campbell Bower - No Place Like London
03 - Helena Bonham Carter - The Worst Pies in London
04 - Helena Bonham Carter - Poor Thing
05 - Johnny Depp, Helena Bonham Carter - My Friends
06 - Jayne Wisener - Green Finch and Linnet Bird
08 - Jamie Campbell Bower - Johanna
07 - Ed Sanders, Helena Bonham Carter and Johnny Depp-Alms Alms
09 - Ed Sanders - Pirelli's Miracle Elixir
10 - Sacha Baron Cohen - The Contest
11 - Helena Bonham Carter - Wait
12 - Timothy Spall - Ladies in Their Sensitivities
13 - Johnny Depp, Alan Rickman - Pretty Women
14 - Johnny Depp - Epiphany
15 - Johnny Depp, Helena Bonham Carter - A Little Priest
16 - Johnny Depp, Jamie Campbell Bower - Johanna
17 - Johnny Depp, Helena Bonham Carter, Ed Sanders - God, That's Good
18 - Helena Bonham Carter - By the Sea
19 - Ed Sanders - Not While I'm Around
20 - Johnny Depp, Helena Bonham Carter, Alan Rickman - Final Sequence
Продюсер: Стивен Сондхейм
Роли:
Джонни Депп - Бенжамин Баркер/Суинни Тодд
Хелена Бонем-Картер - Мисс Ловетт
Алан Рикман - Судья Турпин
Тимоти Сполл - Посыльный Бамфорд
Саша Барон Коэн - Адольфо Пирелли
Эдвард Сандерс - Тобайес Рагг
Exact Audio Copy V0.99 prebeta 3 from 28. July 2007

EAC extraction logfile from 19. February 2008, 2:46

Stephen Sondheim / Sweeney Todd: The Demon Barber Of Fleet Street (OST)

Used drive : QSI CDRW/DVD SBW-241 Adapter: 1 ID: 0

Read mode : Secure
Utilize accurate stream : Yes
Defeat audio cache : Yes
Make use of C2 pointers : No

Read offset correction : 733
Overread into Lead-In and Lead-Out : No
Fill up missing offset samples with silence : Yes
Delete leading and trailing silent blocks : No
Null samples used in CRC calculations : Yes
Used interface : Installed external ASPI interface

Used output format : Internal WAV Routines
Sample format : 44.100 Hz; 16 Bit; Stereo

TOC of the extracted CD

Track | Start | Length | Start sector | End sector
---------------------------------------------------------
1 | 0:00.00 | 3:30.49 | 0 | 15798
2 | 3:30.49 | 5:31.72 | 15799 | 40695
3 | 9:02.46 | 2:23.26 | 40696 | 51446
4 | 11:25.72 | 3:09.10 | 51447 | 65631
5 | 14:35.07 | 3:48.17 | 65632 | 82748
6 | 18:23.24 | 2:16.14 | 82749 | 92962
7 | 20:39.38 | 1:16.16 | 92963 | 98678
8 | 21:55.54 | 1:57.27 | 98679 | 107480
9 | 23:53.06 | 2:00.18 | 107481 | 116498
10 | 25:53.24 | 3:39.17 | 116499 | 132940
11 | 29:32.41 | 2:38.59 | 132941 | 144849
12 | 32:11.25 | 1:23.05 | 144850 | 151079
13 | 33:34.30 | 4:27.41 | 151080 | 171145
14 | 38:01.71 | 3:16.66 | 171146 | 185911
15 | 41:18.62 | 5:15.01 | 185912 | 209537
16 | 46:33.63 | 5:42.11 | 209538 | 235198
17 | 52:15.74 | 2:46.67 | 235199 | 247715
18 | 55:02.66 | 2:19.65 | 247716 | 258205
19 | 57:22.56 | 4:11.61 | 258206 | 277091
20 | 61:34.42 | 10:21.65 | 277092 | 323731

Range status and errors

Selected range

Filename D:\HQ Share\Stephen Sondheim - Sweeney Todd The Demon Barber Of Fleet Street (OST).wav

Peak level 100.0 %
Range quality 100.0 %
Copy CRC 7AA2FDAF
Copy OK

No errors occurred

End of status report


Трекер:  [ 07-Июл-2011 23:20 ]

  

Скачать .torrent

Размер .torrent файла 15 KB


Размер: 359 MB
Хэш (hash) релиза: b51effeab9f60b1f02abcf6c5325f6591f3e5ebb

Торренты, похожие на Суини Тодд, демон-парикмахер с Флит-стрит Sweeney Todd: The Demon Barber of Fleet Street скачать торрент

Форум Название Автор Размер S L Добавлен
Саундтреки к фильмам и мультфильмам (mp3) ·· (Soundtrack) Суини Тодд, Демон-парикмахер с Флит-стрит / Sweeney Todd: The Demon Barber of Fleet Street - 2007, MP3, 320 kbps Galfimbul 175763613168 MB 0 0 1292265128

21:32

13-Дек-10

Саундтреки к фильмам и мультфильмам (mp3) ·· (Soundtrack/Instrumental) Sweeney Todd: The Demon Barber of Fleet Street / Суинни Тодд: Демон-парикмахер с Флит Стрит - 2007, mp3 (tracks), VBR ~256 kbps Galfimbul 121896921116 MB 0 0 1292266230

21:50

13-Дек-10

Еще никто не оставлял запись к записи скачать торрент Суини Тодд, демон-парикмахер с Флит-стрит Sweeney Todd: The Demon Barber of Fleet Street . Будь первым!

!Обратная связь