Скачать через торрент музыку Ennio Morricone - The Very Best Of бесплатно без регистрации torrent

Если у вас наблюдаются проблемы со скриншотами, переходом по ссылками, скачиванием торрентов - проблемы в блокировщике рекламы AdBlock. #хорошегоДня!


Статистика раздачи
Размер:  646 MB   |    Зарегистрирован:  6 лет 5 месяцев   |    .torrent скачан:  59 раз   |   
Раздают:  1  
   
Загрузка...
 
Автор Сообщение

Galfimbul

avatar Galfimbul


Ennio Morricone - The Very Best Of (2 CD)

Жанр: Score
Год выпуска диска: 1993
Производитель диска: Германия
Аудио кодек: FLAC
Тип рипа: image+.cue
Битрейт аудио: lossless
Продолжительность: CD 1 - 55:30; CD 2 - 55:02
Трэклист:
CD 1:
1. Der Profi / Chi Mai
2. The Untouchables / Ness Family Theme
3. Der Maulwurf / Marche En La
4. The Mission / Gabriel's Oboe
5. Fur Eine Handvoll Dollar
6. Der Rammbock / Riccordo Rosa
7. Der Aussenseiter (Le Marginal)
8. Red Sonja
9. Spiel Mir Das Lied Vom Tod / Once Upon A Time In The West
10. Der Profi / Le Vent, Le Cri
11. Mercenario (Die Gefurchteten Zwei)
12. Spiel Mir Das Lied Vom Tod / The Man With The Harmonica
13. 1900 / Romanze
14. Der Clan Der Sizilianer
15. Tepepa

CD 2:
1. Cockey Song
2. The Mission - Main Theme
3. Ballad Of Hank Mccain
4. Once Upon A Time In Revolution
5. Mille Ecchi
6. My Name Is Nobody
7. Das Ding Aus Einer Anderen Welt
8. Silent Of Love
9. Zwei Glorreiche Halunken
10. Lontano
11. My Heart And I
12. Restless
13. La Califfa
14. Palermo Vergessen
15. The Falls
16. Fur Ein Dollar Mehr
17. Here's To You
Доп. информация: Диск был привезен из Германии в середине 90х.
Exact Audio Copy V0.99 prebeta 4 from 23. January 2008

Отчёт EAC об извлечении, выполненном 26. августа 2009, 10:34

Ennio Morricone / The Very Best Of Ennio Morricone (CD I)

Дисковод: Optiarc DVD RW AD-7243S Adapter: 0 ID: 1

Режим чтения : Достоверность
Использование точного потока : Да
Отключение кэша аудио : Да
Использование указателей C2 : Нет

Коррекция смещения при чтении : 48
Способность читать области Lead-in и Lead-out : Нет
Заполнение пропущенных сэмплов тишиной : Да
Удаление блоков с тишиной в начале и конце : Нет
При вычислениях CRC использовались нулевые сэмплы : Да
Интерфейс : Установленный внешний ASPI-интерфейс

Выходной формат : Пользовательский кодировщик
Выбранный битрейт : 128 kBit/s
Качество : Высокий
Добавление ID3-тэга : Нет
Утилита сжатия : C:\Program Files\Exact Audio Copy\Flac\flac.exe
Дополнительные параметры : ?8 ?V ?T "ARTIST=%a" ?T "TITLE=%t" ?T "ALBUM=%g" ?T "DATE=%y" ?T "TRACKNUMBER=%n" ?T "GENRE=%m" ?T "COMMENT=EAC FLAC ?8" %s
Смещение при сжатии : 48

TOC извлечённого CD

Трек | Старт | Длительность | Начальный сектор | Конечный сектор
---------------------------------------------------------------------
1 | 0:00.00 | 5:05.37 | 0 | 22911
2 | 5:05.37 | 3:22.65 | 22912 | 38126
3 | 8:28.27 | 3:02.53 | 38127 | 51829
4 | 11:31.05 | 2:15.20 | 51830 | 61974
5 | 13:46.25 | 1:47.45 | 61975 | 70044
6 | 15:33.70 | 3:02.52 | 70045 | 83746
7 | 18:36.47 | 6:21.25 | 83747 | 112346
8 | 24:57.72 | 2:44.63 | 112347 | 124709
9 | 27:42.60 | 3:16.25 | 124710 | 139434
10 | 30:59.10 | 5:20.00 | 139435 | 163434
11 | 36:19.10 | 3:15.60 | 163435 | 178119
12 | 39:34.70 | 2:56.07 | 178120 | 191326
13 | 42:31.02 | 3:59.08 | 191327 | 209259
14 | 46:30.10 | 4:16.40 | 209260 | 228499
15 | 50:46.50 | 4:43.00 | 228500 | 249724

Характеристики диапазона извлечения и сообщения об ошибках

Выбранный диапазон

Имя файла E:\Мои документы\Моя музыка\Ennio Morricone\Ennio Morricone - The Very Best Of Ennio Morricone (CD I).wav

Пиковый уровень 99.8 %
Качество диапазона 100.0 %
CRC теста E5402E18
CRC копии E5402E18
Копирование... OK

Ошибок не произошло

Конец отчёта
Exact Audio Copy V0.99 prebeta 4 from 23. January 2008

Отчёт EAC об извлечении, выполненном 26. августа 2009, 11:14

Ennio Morricone / The very best of - CD2

Дисковод: Optiarc DVD RW AD-7243S Adapter: 0 ID: 1

Режим чтения : Достоверность
Использование точного потока : Да
Отключение кэша аудио : Да
Использование указателей C2 : Нет

Коррекция смещения при чтении : 48
Способность читать области Lead-in и Lead-out : Нет
Заполнение пропущенных сэмплов тишиной : Да
Удаление блоков с тишиной в начале и конце : Нет
При вычислениях CRC использовались нулевые сэмплы : Да
Интерфейс : Установленный внешний ASPI-интерфейс

Выходной формат : Пользовательский кодировщик
Выбранный битрейт : 128 kBit/s
Качество : Высокий
Добавление ID3-тэга : Нет
Утилита сжатия : C:\Program Files\Exact Audio Copy\Flac\flac.exe
Дополнительные параметры : ?8 ?V ?T "ARTIST=%a" ?T "TITLE=%t" ?T "ALBUM=%g" ?T "DATE=%y" ?T "TRACKNUMBER=%n" ?T "GENRE=%m" ?T "COMMENT=EAC FLAC ?8" %s
Смещение при сжатии : 48

TOC извлечённого CD

Трек | Старт | Длительность | Начальный сектор | Конечный сектор
---------------------------------------------------------------------
1 | 0:00.00 | 4:07.00 | 0 | 18524
2 | 4:07.00 | 2:52.13 | 18525 | 31437
3 | 6:59.13 | 2:42.17 | 31438 | 43604
4 | 9:41.30 | 4:15.68 | 43605 | 62797
5 | 13:57.23 | 3:21.22 | 62798 | 77894
6 | 17:18.45 | 3:02.18 | 77895 | 91562
7 | 20:20.63 | 4:29.37 | 91563 | 111774
8 | 24:50.25 | 2:59.25 | 111775 | 125224
9 | 27:49.50 | 2:57.13 | 125225 | 138512
10 | 30:46.63 | 3:51.62 | 138513 | 155899
11 | 34:38.50 | 5:12.30 | 155900 | 179329
12 | 39:51.05 | 1:45.33 | 179330 | 187237
13 | 41:36.38 | 2:38.37 | 187238 | 199124
14 | 44:15.00 | 2:55.48 | 199125 | 212297
15 | 47:10.48 | 2:15.10 | 212298 | 222432
16 | 49:25.58 | 2:40.10 | 222433 | 234442
17 | 52:05.68 | 2:56.20 | 234443 | 247662

Характеристики диапазона извлечения и сообщения об ошибках

Выбранный диапазон

Имя файла E:\Мои документы\Моя музыка\Ennio Morricone\Ennio Morricone - The very best of - CD2.wav

Пиковый уровень 100.0 %
Качество диапазона 100.0 %
CRC теста A794383B
CRC копии A794383B
Копирование... OK

Ошибок не произошло

Конец отчёта
AUDIOCHECKER v2.0 beta (build 457) - by Dester - opdester@freemail.hu

Started at: среда, 26. 08. 2009. - 11:46.53
2 files found

1 -===- E:\Мои документы\Моя музыка\Ennio Morricone\CD 1\Ennio Morricone - The Very Best Of Ennio Morricone (CD I).flac
Extracted successfully
Conclusion: this track is CDDA with probability 100%
Tempfile successfully deleted.

2 -===- E:\Мои документы\Моя музыка\Ennio Morricone\CD 2\Ennio Morricone - The very best of - CD2.flac
Extracted successfully
Conclusion: this track is CDDA with probability 100%
Tempfile successfully deleted.

Finished at: среда, 26. 08. 2009. - 11:55.51 (operation time: 0:08.58)
CD 1:




CD 2:



Приятного прослушивания!


Трекер:  [ 07-Июл-2011 23:20 ]

  

Скачать .torrent

Размер .torrent файла 14 KB


Размер: 646 MB
Хэш (hash) релиза: d3191cd62eb814ada1a18f7ef10b3206a940b7fb

Торренты, похожие на Ennio Morricone - The Very Best Of скачать торрент

Форум Название Автор Размер S L Добавлен
Саундтреки к фильмам и мультфильмам (mp3) ·· (Score) Ennio Morricone - The Very Best Of 2CD - 1993, MP3 (Tracks), 320 kbps Galfimbul 264244954252 MB 0 0 1417169045

13:04

28-Ноя-14

Саундтреки к фильмам и мультфильмам (lossless) ·· (Score) Ennio Morricone - The Very Best Of - 1995, APE (image+.cue), lossless Galfimbul 448067838427 MB 0 0 1292268723

22:32

13-Дек-10

Еще никто не оставлял запись к записи скачать торрент Ennio Morricone - The Very Best Of . Будь первым!

!Обратная связь