Скачать через торрент музыку Железный человек 2 Iron man 2 бесплатно без регистрации torrent

Если у вас наблюдаются проблемы со скриншотами, переходом по ссылками, скачиванием торрентов - проблемы в блокировщике рекламы AdBlock. #хорошегоДня!


Статистика раздачи
Размер:  393 MB   |    Зарегистрирован:  6 лет 11 месяцев   |    .torrent скачан:  45 раз   |   
Раздают:  1  
   
Загрузка...
 
Автор Сообщение

AqvaGen


Железный человек 2 / Iron man 2

Жанр: Score || Композитор: John Debney || Год выпуска диска: 2010 || Страна-производитель диска: US
Издатель (лейбл): Columbia Records || Номер по каталогу: 88697 74654 2 || Аудио кодек: FLAC (*.flac) || Тип рипа: tracks+.cue || Битрейт аудио: lossless
Продолжительность: 72:26
Наличие сканов в содержимом раздачи: да
01. Ivan's Metamorphosis (5:48)
02. House Fight V1 (5:48)
03. Making Pepper CEO (1:09)
04. Senate \ Ivan Creates Drones (3:38)
05. Make Way For Tomorrow - Expo Version (0:54)
06. Rhodey Dons Suit (0:57)
07. Dying Hero (1:52)
08. Natalie Intro (1:04)
09. Monaco Drive (0:42)
10. Mayhem In Monaco (7:26)
11. Jailhouse Talk (2:25)
12. Ivan Escapes (1:43)
13. Gun Show (2:11)
14. Tony Discovers Dad's Secret (4:10)
15. Sledgehammer V2 (2:40)
16. Nick Fury (1:30)
17. New Element \ Particle Accelerator (6:15)
18. Sledgehammer (1:08)
19. New RT \ To The Expo (1:44)
20. Black Widow Kicks Ass (2:12)
21. Iron Man Battles The Drones (8:01)
22. Ivan's Demise \ The Kiss (5:06)
23. Thor (0:40)
24. I Am Iron Man (1:32)
25. Make Way For Tomorrow Today (1:51)
 
Exact Audio Copy V0.99 prebeta 5 from 4. May 2009

EAC extraction logfile from 20. July 2010, 23:46

John Debney / Iron Man 2 (Original Motion Picture Score)

Used drive : HL-DT-STDVD-RAM GH20LP20 Adapter: 0 ID: 0

Read mode : SecureUtilize accurate stream : YesDefeat audio cache : YesMake use of C2 pointers : No

Read offset correction : 102Overread into Lead-In and Lead-Out : NoFill up missing offset samples with silence : YesDelete leading and trailing silent blocks : NoNull samples used in CRC calculations : YesUsed interface : Native Win32 interface for Win NT & 2000Gap handling : Appended to previous track

Used output format : User Defined EncoderSelected bitrate : 320 kBit/sQuality : HighAdd ID3 tag : NoCommand line compressor : C:\Program Files (x86)\Exact Audio Copy\Flac\flac.exeAdditional command line options : -V -8 -T "artist=%a" -T "title=%t" -T "album=%g" -T "date=%y" -T "tracknumber=%n" -T "genre=%m" %s

TOC of the extracted CD

Track | Start | Length | Start sector | End sector --------------------------------------------------------- 1 | 0:00.00 | 5:48.60 | 0 | 26159 2 | 5:48.60 | 5:48.17 | 26160 | 52276 3 | 11:37.02 | 1:09.23 | 52277 | 57474 4 | 12:46.25 | 3:38.20 | 57475 | 73844 5 | 16:24.45 | 0:54.28 | 73845 | 77922 6 | 17:18.73 | 0:57.49 | 77923 | 82246 7 | 18:16.47 | 1:52.59 | 82247 | 90705 8 | 20:09.31 | 1:04.56 | 90706 | 95561 9 | 21:14.12 | 0:42.04 | 95562 | 98715 10 | 21:56.16 | 7:26.01 | 98716 | 132166 11 | 29:22.17 | 2:25.68 | 132167 | 143109 12 | 31:48.10 | 1:43.35 | 143110 | 150869 13 | 33:31.45 | 2:11.19 | 150870 | 160713 14 | 35:42.64 | 4:10.26 | 160714 | 179489 15 | 39:53.15 | 2:40.61 | 179490 | 191550 16 | 42:34.01 | 1:30.68 | 191551 | 198368 17 | 44:04.69 | 6:15.46 | 198369 | 226539 18 | 50:20.40 | 1:08.21 | 226540 | 231660 19 | 51:28.61 | 1:44.68 | 231661 | 239528 20 | 53:13.54 | 2:12.42 | 239529 | 249470 21 | 55:26.21 | 8:01.34 | 249471 | 285579 22 | 63:27.55 | 5:06.60 | 285580 | 308589 23 | 68:34.40 | 0:40.41 | 308590 | 311630 24 | 69:15.06 | 1:32.47 | 311631 | 318577 25 | 70:47.53 | 1:51.53 | 318578 | 326955

Track 1

Filename I:\EACrips\John Debney - Iron Man 2 (Original Motion Picture Score)\01 - Ivan's Metamorphosis.wav

Pre-gap length 0:00:02.00

Peak level 99.6 % Track quality 100.0 % Test CRC 02875F61 Copy CRC 02875F61 Track not present in AccurateRip database Copy OK

Track 2

Filename I:\EACrips\John Debney - Iron Man 2 (Original Motion Picture Score)\02 - House Fight V1.wav

Pre-gap length 0:00:01.00

Peak level 98.6 % Track quality 100.0 % Test CRC 3B059C61 Copy CRC 3B059C61 Track not present in AccurateRip database Copy OK

Track 3

Filename I:\EACrips\John Debney - Iron Man 2 (Original Motion Picture Score)\03 - Making Pepper CEO.wav

Pre-gap length 0:00:01.00

Peak level 36.9 % Track quality 100.0 % Test CRC 6F6C1870 Copy CRC 6F6C1870 Track not present in AccurateRip database Copy OK

Track 4

Filename I:\EACrips\John Debney - Iron Man 2 (Original Motion Picture Score)\04 - Senate - Ivan Creates Drones.wav

Pre-gap length 0:00:01.01

Peak level 94.7 % Track quality 100.0 % Test CRC E046696E Copy CRC E046696E Track not present in AccurateRip database Copy OK

Track 5

Filename I:\EACrips\John Debney - Iron Man 2 (Original Motion Picture Score)\05 - Make Way For Tomorrow - Expo Version.wav

Pre-gap length 0:00:01.00

Peak level 94.4 % Track quality 100.0 % Test CRC 862FE951 Copy CRC 862FE951 Track not present in AccurateRip database Copy OK

Track 6

Filename I:\EACrips\John Debney - Iron Man 2 (Original Motion Picture Score)\06 - Rhodey Dons Suit.wav

Pre-gap length 0:00:01.00

Peak level 94.4 % Track quality 100.0 % Test CRC 1159DC03 Copy CRC 1159DC03 Track not present in AccurateRip database Copy OK

Track 7

Filename I:\EACrips\John Debney - Iron Man 2 (Original Motion Picture Score)\07 - Dying Hero.wav

Pre-gap length 0:00:01.00

Peak level 46.3 % Track quality 100.0 % Test CRC 3129C197 Copy CRC 3129C197 Track not present in AccurateRip database Copy OK

Track 8

Filename I:\EACrips\John Debney - Iron Man 2 (Original Motion Picture Score)\08 - Natalie Intro.wav

Pre-gap length 0:00:00.98

Peak level 38.7 % Track quality 99.8 % Test CRC AEFCD012 Copy CRC AEFCD012 Track not present in AccurateRip database Copy OK

Track 9

Filename I:\EACrips\John Debney - Iron Man 2 (Original Motion Picture Score)\09 - Monaco Drive.wav

Pre-gap length 0:00:00.97

Peak level 96.7 % Track quality 100.0 % Test CRC 9006B301 Copy CRC 9006B301 Track not present in AccurateRip database Copy OK

Track 10

Filename I:\EACrips\John Debney - Iron Man 2 (Original Motion Picture Score)\10 - Mayhem In Monaco.wav

Pre-gap length 0:00:01.00

Peak level 96.3 % Track quality 100.0 % Test CRC 739F9F18 Copy CRC 739F9F18 Track not present in AccurateRip database Copy OK

Track 11

Filename I:\EACrips\John Debney - Iron Man 2 (Original Motion Picture Score)\11 - Jailhouse Talk.wav

Pre-gap length 0:00:01.01

Peak level 94.4 % Track quality 100.0 % Test CRC 5A99A60D Copy CRC 5A99A60D Track not present in AccurateRip database Copy OK

Track 12

Filename I:\EACrips\John Debney - Iron Man 2 (Original Motion Picture Score)\12 - Ivan Escapes.wav

Pre-gap length 0:00:01.01

Peak level 94.4 % Track quality 100.0 % Test CRC 30EBE553 Copy CRC 30EBE553 Track not present in AccurateRip database Copy OK

Track 13

Filename I:\EACrips\John Debney - Iron Man 2 (Original Motion Picture Score)\13 - Gun Show.wav

Pre-gap length 0:00:01.00

Peak level 94.4 % Track quality 100.0 % Test CRC 315FC6B1 Copy CRC 315FC6B1 Track not present in AccurateRip database Copy OK

Track 14

Filename I:\EACrips\John Debney - Iron Man 2 (Original Motion Picture Score)\14 - Tony Discovers Dad's Secret.wav

Pre-gap length 0:00:01.01

Peak level 94.4 % Track quality 100.0 % Test CRC EDE223CC Copy CRC EDE223CC Track not present in AccurateRip database Copy OK

Track 15

Filename I:\EACrips\John Debney - Iron Man 2 (Original Motion Picture Score)\15 - Sledgehammer V2.wav

Pre-gap length 0:00:01.01

Peak level 99.4 % Track quality 100.0 % Test CRC 12CB8B8D Copy CRC 12CB8B8D Track not present in AccurateRip database Copy OK

Track 16

Filename I:\EACrips\John Debney - Iron Man 2 (Original Motion Picture Score)\16 - Nick Fury.wav

Pre-gap length 0:00:00.98

Peak level 94.4 % Track quality 100.0 % Test CRC 04FB0175 Copy CRC 04FB0175 Track not present in AccurateRip database Copy OK

Track 17

Filename I:\EACrips\John Debney - Iron Man 2 (Original Motion Picture Score)\17 - New Element - Particle Accelerator.wav

Pre-gap length 0:00:00.98

Peak level 99.1 % Track quality 100.0 % Test CRC 44F7869E Copy CRC 44F7869E Track not present in AccurateRip database Copy OK

Track 18

Filename I:\EACrips\John Debney - Iron Man 2 (Original Motion Picture Score)\18 - Sledgehammer.wav

Pre-gap length 0:00:00.98

Peak level 94.4 % Track quality 100.0 % Test CRC 55CD419D Copy CRC 55CD419D Track not present in AccurateRip database Copy OK

Track 19

Filename I:\EACrips\John Debney - Iron Man 2 (Original Motion Picture Score)\19 - New RT - To The Expo.wav

Pre-gap length 0:00:00.88

Peak level 95.3 % Track quality 100.0 % Test CRC 87078A86 Copy CRC 87078A86 Track not present in AccurateRip database Copy OK

Track 20

Filename I:\EACrips\John Debney - Iron Man 2 (Original Motion Picture Score)\20 - Black Widow Kicks Ass.wav

Pre-gap length 0:00:01.01

Peak level 94.7 % Track quality 100.0 % Test CRC 1B85E47F Copy CRC 1B85E47F Track not present in AccurateRip database Copy OK

Track 21

Filename I:\EACrips\John Debney - Iron Man 2 (Original Motion Picture Score)\21 - Iron Man Battles The Drones.wav

Pre-gap length 0:00:01.00

Peak level 95.1 % Track quality 100.0 % Test CRC 09AF7EF2 Copy CRC 09AF7EF2 Track not present in AccurateRip database Copy OK

Track 22

Filename I:\EACrips\John Debney - Iron Man 2 (Original Motion Picture Score)\22 - Ivan's Demise - The Kiss.wav

Pre-gap length 0:00:01.00

Peak level 99.6 % Track quality 100.0 % Test CRC F1B9AABB Copy CRC F1B9AABB Track not present in AccurateRip database Copy OK

Track 23

Filename I:\EACrips\John Debney - Iron Man 2 (Original Motion Picture Score)\23 - Thor.wav

Pre-gap length 0:00:01.00

Peak level 98.8 % Track quality 100.0 % Test CRC BC370FBD Copy CRC BC370FBD Track not present in AccurateRip database Copy OK

Track 24

Filename I:\EACrips\John Debney - Iron Man 2 (Original Motion Picture Score)\24 - I Am Iron Man.wav

Pre-gap length 0:00:00.98

Peak level 99.7 % Track quality 99.8 % Test CRC ADF8890B Copy CRC ADF8890B Track not present in AccurateRip database Copy OK

Track 25

Filename I:\EACrips\John Debney - Iron Man 2 (Original Motion Picture Score)\25 - Make Way For Tomorrow Today.wav

Pre-gap length 0:00:02.00

Peak level 89.7 % Track quality 100.0 % Test CRC 8F78579F Copy CRC 8F78579F Track not present in AccurateRip database Copy OK

None of the tracks are present in the AccurateRip database

No errors occurred

End of status report
 
REM GENRE SoundtrackREM DATE 2010REM DISCID 66110719REM COMMENT "ExactAudioCopy v0.99pb5"FILE "John Debney - Iron Man 2 (Original Motion Picture Score)\01 - Ivan's Metamorphosis.wav" WAVE TRACK 01 AUDIO INDEX 01 00:00:00FILE "John Debney - Iron Man 2 (Original Motion Picture Score)\02 - House Fight V1.wav" WAVE TRACK 02 AUDIO PREGAP 00:01:00 INDEX 01 00:00:00FILE "John Debney - Iron Man 2 (Original Motion Picture Score)\03 - Making Pepper CEO.wav" WAVE TRACK 03 AUDIO PREGAP 00:01:00 INDEX 01 00:00:00FILE "John Debney - Iron Man 2 (Original Motion Picture Score)\04 - Senate - Ivan Creates Drones.wav" WAVE TRACK 04 AUDIO PREGAP 00:01:01 INDEX 01 00:00:00FILE "John Debney - Iron Man 2 (Original Motion Picture Score)\05 - Make Way For Tomorrow - Expo Version.wav" WAVE TRACK 05 AUDIO PREGAP 00:01:00 INDEX 01 00:00:00FILE "John Debney - Iron Man 2 (Original Motion Picture Score)\06 - Rhodey Dons Suit.wav" WAVE TRACK 06 AUDIO PREGAP 00:01:00 INDEX 01 00:00:00FILE "John Debney - Iron Man 2 (Original Motion Picture Score)\07 - Dying Hero.wav" WAVE TRACK 07 AUDIO PREGAP 00:01:00 INDEX 01 00:00:00FILE "John Debney - Iron Man 2 (Original Motion Picture Score)\08 - Natalie Intro.wav" WAVE TRACK 08 AUDIO PREGAP 00:00:74 INDEX 01 00:00:00FILE "John Debney - Iron Man 2 (Original Motion Picture Score)\09 - Monaco Drive.wav" WAVE TRACK 09 AUDIO PREGAP 00:00:73 INDEX 01 00:00:00FILE "John Debney - Iron Man 2 (Original Motion Picture Score)\10 - Mayhem In Monaco.wav" WAVE TRACK 10 AUDIO PREGAP 00:01:00 INDEX 01 00:00:00FILE "John Debney - Iron Man 2 (Original Motion Picture Score)\11 - Jailhouse Talk.wav" WAVE TRACK 11 AUDIO PREGAP 00:01:01 INDEX 01 00:00:00FILE "John Debney - Iron Man 2 (Original Motion Picture Score)\12 - Ivan Escapes.wav" WAVE TRACK 12 AUDIO PREGAP 00:01:01 INDEX 01 00:00:00FILE "John Debney - Iron Man 2 (Original Motion Picture Score)\13 - Gun Show.wav" WAVE TRACK 13 AUDIO PREGAP 00:01:00 INDEX 01 00:00:00FILE "John Debney - Iron Man 2 (Original Motion Picture Score)\14 - Tony Discovers Dad's Secret.wav" WAVE TRACK 14 AUDIO PREGAP 00:01:01 INDEX 01 00:00:00FILE "John Debney - Iron Man 2 (Original Motion Picture Score)\15 - Sledgehammer V2.wav" WAVE TRACK 15 AUDIO PREGAP 00:01:01 INDEX 01 00:00:00FILE "John Debney - Iron Man 2 (Original Motion Picture Score)\16 - Nick Fury.wav" WAVE TRACK 16 AUDIO PREGAP 00:00:74 INDEX 01 00:00:00FILE "John Debney - Iron Man 2 (Original Motion Picture Score)\17 - New Element - Particle Accelerator.wav" WAVE TRACK 17 AUDIO PREGAP 00:00:74 INDEX 01 00:00:00FILE "John Debney - Iron Man 2 (Original Motion Picture Score)\18 - Sledgehammer.wav" WAVE TRACK 18 AUDIO PREGAP 00:00:74 INDEX 01 00:00:00FILE "John Debney - Iron Man 2 (Original Motion Picture Score)\19 - New RT - To The Expo.wav" WAVE TRACK 19 AUDIO PREGAP 00:00:66 INDEX 01 00:00:00FILE "John Debney - Iron Man 2 (Original Motion Picture Score)\20 - Black Widow Kicks Ass.wav" WAVE TRACK 20 AUDIO PREGAP 00:01:01 INDEX 01 00:00:00FILE "John Debney - Iron Man 2 (Original Motion Picture Score)\21 - Iron Man Battles The Drones.wav" WAVE TRACK 21 AUDIO PREGAP 00:01:00 INDEX 01 00:00:00FILE "John Debney - Iron Man 2 (Original Motion Picture Score)\22 - Ivan's Demise - The Kiss.wav" WAVE TRACK 22 AUDIO PREGAP 00:01:00 INDEX 01 00:00:00FILE "John Debney - Iron Man 2 (Original Motion Picture Score)\23 - Thor.wav" WAVE TRACK 23 AUDIO PREGAP 00:01:00 INDEX 01 00:00:00FILE "John Debney - Iron Man 2 (Original Motion Picture Score)\24 - I Am Iron Man.wav" WAVE TRACK 24 AUDIO PREGAP 00:00:74 INDEX 01 00:00:00FILE "John Debney - Iron Man 2 (Original Motion Picture Score)\25 - Make Way For Tomorrow Today.wav" WAVE TRACK 25 AUDIO PREGAP 00:02:00 INDEX 01 00:00:00


Трекер:  [ 19-Дек-2010 15:57 ]

  

Скачать .torrent

Размер .torrent файла 17 KB


Размер: 393 MB
Хэш (hash) релиза: 457cef9e8699566fa84f1a2eed9691e1fa2ee994

Торренты, похожие на Железный человек 2 Iron man 2 скачать торрент

Форум Название Автор Размер S L Добавлен
Саундтреки ·· (Score) Железный Человек 2 / Iron Man 2 (FYC Promo) (by John Debney) - 2010, MP3, 320 kbps Centner1 164052490156 MB 0 0 1340857320

07:22

28-Июн-12

Саундтреки к фильмам и мультфильмам (mp3) ·· (Score) Железный человек 2 / Iron Man 2 (by John Debney) - 2010, MP3 (tracks), 320 kbps Phoenix 192210095183 MB 0 0 1292265141

21:32

13-Дек-10

Саундтреки к фильмам и мультфильмам (mp3) ·· (Score) Железный человек 1,2,3 / Iron Man 1,2,3 (by Ramin Djawadi, John Debney, Brian Tyler) - 2008 - 2013, MP3, 320 kbps Galfimbul 487009261464 MB 0 0 1366665429

00:17

23-Апр-13

bot

Топик был перенесен в форум Саундтреки к фильмам и мультфильмам (lossless)

Перенес AqvaGen

Хотите добавить комментарий к записи скачать торрент Железный человек 2 Iron man 2

!Обратная связь