Скачать через торрент музыку Les Chansons Damour Все песни только о любви - 2007, 2CD, FLAC бесплатно без регистрации torrent

Если у вас наблюдаются проблемы со скриншотами, переходом по ссылками, скачиванием торрентов - проблемы в блокировщике рекламы AdBlock. #хорошегоДня!


Статистика раздачи
Размер:  358 MB   |    Зарегистрирован:  6 лет 10 месяцев   |    .torrent скачан:  80 раз   |   
Раздают:  1  
   
Загрузка...
 
Автор Сообщение

AqvaGen


Les Chansons D'amour / Все песни только о любви

Жанр: Soundtrack
Год выпуска диска: 2007
Производитель диска: Франция
Аудио кодек: FLAC
Тип рипа: tracks+.cue
Битрейт аудио: lossless
Продолжительность: 1:03:47

CD1
Продолжительность: 0:40:41
Трэклист:
01 - Louis Garrel & Ludivine Sagnier - De bonnes raisons (1:57)
02 - Ludivine Sagnier & Louis Garrel - Inventaire (2:21)
03 - Ludivine Sagnier, Jean-Marie Winling, Alice Butaud, Chiara Mastrioani & Brigitte Rouan - La Bastille (3:24)
04 - Ludivine Sagnier, Louis Garrel & Clothilde Hesme - Je n'aime que toi (2:40)
05 - Alex Beaupain - Brooklyn Bridge (4:05)
06 - Louis Garrel - Delta Charlie Delta (3:05)
07 - Louis Garrel & Clothilde Hesme - Il faut se taire (2:32)
08 - Grégoire Leprince-Ringuet & Louis Garrel - As-tu déjà aimé ? (2:22)
09 - Louis Garrel - Les yeux au ciel (3:49)
10 - Grégoire Leprince-Ringuet & Louis Garrel - La distance (1:48)
11 - Louis Garrel - Ma mémoire sale (4:19)
12 - Chiara Mastrioanni - Au parc (2:16)
13 - Ludivine Sagnier - Si tard (3:08)
14 - Louis Garrel & Grégoire Leprince-Ringuet - J'ai cru entendre (2:55)
Exact Audio Copy V0.99 prebeta 5 from 4. May 2009

Отчёт EAC об извлечении, выполненном 14. сентября 2009, 22:17

Various / Les chansons d'amour

Дисковод: ASUS DRW-1814BL Adapter: 1 ID: 1

Режим чтения : Достоверность
Использование точного потока : Да
Отключение кэша аудио : Да
Использование указателей C2 : Нет

Коррекция смещения при чтении : 6
Способность читать области Lead-in и Lead-out : Нет
Заполнение пропущенных сэмплов тишиной : Да
Удаление блоков с тишиной в начале и конце : Нет
При вычислениях CRC использовались нулевые сэмплы : Да
Интерфейс : Встроенный Win32-интерфейс для Win NT/2000
Обработка зазоров : Добавлено к предыдущему треку

Выходной формат : Внутренние WAV-операции
Формат сэмплов : 44.100 Гц; 16 бит; стерео

TOC извлечённого CD

Трек | Старт | Длительность | Начальный сектор | Конечный сектор
---------------------------------------------------------------------
1 | 0:00.00 | 1:57.13 | 0 | 8787
2 | 1:57.13 | 2:20.51 | 8788 | 19338
3 | 4:17.64 | 3:23.48 | 19339 | 34611
4 | 7:41.37 | 2:40.21 | 34612 | 46632
5 | 10:21.58 | 4:05.30 | 46633 | 65037
6 | 14:27.13 | 3:05.11 | 65038 | 78923
7 | 17:32.24 | 2:32.34 | 78924 | 90357
8 | 20:04.58 | 2:21.63 | 90358 | 100995
9 | 22:26.46 | 3:49.30 | 100996 | 118200
10 | 26:16.01 | 1:47.70 | 118201 | 126295
11 | 28:03.71 | 4:18.74 | 126296 | 145719
12 | 32:22.70 | 2:15.48 | 145720 | 155892
13 | 34:38.43 | 3:07.50 | 155893 | 169967
14 | 37:46.18 | 2:54.67 | 169968 | 183084

Трек 1

Имя файла H:\Files\Les chansons d'amour soundtrack\01 - De bonnes raisons.wav

Длина предзазора 0:00:02.00

Пиковый уровень 100.0 %
Качество трека 100.0 %
CRC теста 80386D2B
CRC копии 80386D2B
Копирование... OK

Трек 2

Имя файла H:\Files\Les chansons d'amour soundtrack\02 - Inventaire.wav

Пиковый уровень 100.0 %
Качество трека 100.0 %
CRC теста 343720E1
CRC копии 343720E1
Копирование... OK

Трек 3

Имя файла H:\Files\Les chansons d'amour soundtrack\03 - La Bastille.wav

Пиковый уровень 100.0 %
Качество трека 100.0 %
CRC теста E3F1B15E
CRC копии E3F1B15E
Копирование... OK

Трек 4

Имя файла H:\Files\Les chansons d'amour soundtrack\04 - Je n'aime que toi.wav

Пиковый уровень 100.0 %
Качество трека 100.0 %
CRC теста 0071ACA6
CRC копии 0071ACA6
Копирование... OK

Трек 5

Имя файла H:\Files\Les chansons d'amour soundtrack\05 - Brooklyn Bridge.wav

Пиковый уровень 98.8 %
Качество трека 99.9 %
CRC теста DE9E6925
CRC копии DE9E6925
Копирование... OK

Трек 6

Имя файла H:\Files\Les chansons d'amour soundtrack\06 - Delta Charlie Delta.wav

Пиковый уровень 100.0 %
Качество трека 100.0 %
CRC теста 8AF2FBC6
CRC копии 8AF2FBC6
Копирование... OK

Трек 7

Имя файла H:\Files\Les chansons d'amour soundtrack\07 - Il faut se taire.wav

Пиковый уровень 100.0 %
Качество трека 100.0 %
CRC теста 2E3B0595
CRC копии 2E3B0595
Копирование... OK

Трек 8

Имя файла H:\Files\Les chansons d'amour soundtrack\08 - As-tu déjà aimé.wav

Пиковый уровень 100.0 %
Качество трека 100.0 %
CRC теста 5DB37D0C
CRC копии 5DB37D0C
Копирование... OK

Трек 9

Имя файла H:\Files\Les chansons d'amour soundtrack\09 - Les yeux au ciel.wav

Пиковый уровень 100.0 %
Качество трека 100.0 %
CRC теста 8F8650F6
CRC копии 8F8650F6
Копирование... OK

Трек 10

Имя файла H:\Files\Les chansons d'amour soundtrack\10 - La distance.wav

Пиковый уровень 93.3 %
Качество трека 99.9 %
CRC теста 6537F62D
CRC копии 6537F62D
Копирование... OK

Трек 11

Имя файла H:\Files\Les chansons d'amour soundtrack\11 - Ma mémoire sale.wav

Пиковый уровень 100.0 %
Качество трека 99.9 %
CRC теста 90107BCA
CRC копии 90107BCA
Копирование... OK

Трек 12

Имя файла H:\Files\Les chansons d'amour soundtrack\12 - Au parc.wav

Пиковый уровень 96.6 %
Качество трека 100.0 %
CRC теста 233CBE55
CRC копии 233CBE55
Копирование... OK

Трек 13

Имя файла H:\Files\Les chansons d'amour soundtrack\13 - Si tard.wav

Пиковый уровень 100.0 %
Качество трека 100.0 %
CRC теста 558655E9
CRC копии 558655E9
Копирование... OK

Трек 14

Имя файла H:\Files\Les chansons d'amour soundtrack\14 - J'ai cru entendre.wav

Пиковый уровень 100.0 %
Качество трека 100.0 %
CRC теста 524BDD39
CRC копии 524BDD39
Копирование... OK

Ошибок не произошло

Конец отчёта
CD2
Продолжительность: 0:23:06
Трэклист:
01 - Clothilde Hesme - Amoureux solitaires (0:36)
02 - Ludivine Sagnier, Louis Garrel & Clothilde Hesme - Je n'aime que toi (version acoustique) (2:40)
03 - Alex Beaupain - Inventaire (3:39)
04 - Thème instrumental - Il pleut des cordes (2:10)
05 - Thème instrumental - Filature (0:33)
06 - Louis Garrel - Les yeux au ciel (version alternative) (3:36)
07 - Alex Beaupain - La Bastille (3:49)
08 - Thème instrumental - Générique (2:24)
09 - Grégoire Leprince-Ringuet - Comme la pluie (extrait du film de Christophe Honoré "La Belle Personne") (3:38)
Exact Audio Copy V0.99 prebeta 5 from 4. May 2009

Отчёт EAC об извлечении, выполненном 14. сентября 2009, 23:49

Various / Les chansons d'amour

Дисковод: ASUS DRW-1814BL Adapter: 1 ID: 1

Режим чтения : Достоверность
Использование точного потока : Да
Отключение кэша аудио : Да
Использование указателей C2 : Нет

Коррекция смещения при чтении : 6
Способность читать области Lead-in и Lead-out : Нет
Заполнение пропущенных сэмплов тишиной : Да
Удаление блоков с тишиной в начале и конце : Нет
При вычислениях CRC использовались нулевые сэмплы : Да
Интерфейс : Встроенный Win32-интерфейс для Win NT/2000
Обработка зазоров : Добавлено к предыдущему треку

Выходной формат : Внутренние WAV-операции
Формат сэмплов : 44.100 Гц; 16 бит; стерео

TOC извлечённого CD

Трек | Старт | Длительность | Начальный сектор | Конечный сектор
---------------------------------------------------------------------
1 | 0:00.00 | 0:36.14 | 0 | 2713
2 | 0:36.14 | 2:40.03 | 2714 | 14716
3 | 3:16.17 | 3:39.25 | 14717 | 31166
4 | 6:55.42 | 2:09.45 | 31167 | 40886
5 | 9:05.12 | 0:33.19 | 40887 | 43380
6 | 9:38.31 | 3:36.25 | 43381 | 59605
7 | 13:14.56 | 3:49.29 | 59606 | 76809
8 | 17:04.10 | 2:23.41 | 76810 | 87575
9 | 19:27.51 | 3:38.25 | 87576 | 103950

Трек 1

Имя файла H:\Files\Les chansons d'amour soundtrack\01 - Amoureux solitaires.wav

Длина предзазора 0:00:02.00

Пиковый уровень 48.5 %
Качество трека 99.7 %
CRC теста 4D1B455E
CRC копии 4D1B455E
Копирование... OK

Трек 2

Имя файла H:\Files\Les chansons d'amour soundtrack\02 - Je n'aime que toi.wav

Пиковый уровень 97.7 %
Качество трека 99.9 %
CRC теста E2CC5462
CRC копии E2CC5462
Копирование... OK

Трек 3

Имя файла H:\Files\Les chansons d'amour soundtrack\03 - Inventaire.wav

Длина предзазора 0:02:40.03

Пиковый уровень 95.5 %
Качество трека 100.0 %
CRC теста FCB8AAA3
CRC копии FCB8AAA3
Копирование... OK

Трек 4

Имя файла H:\Files\Les chansons d'amour soundtrack\04 - Il pleut des cordes.wav

Длина предзазора 0:06:19.28

Пиковый уровень 88.5 %
Качество трека 100.0 %
CRC теста F6118968
CRC копии F6118968
Копирование... OK

Трек 5

Имя файла H:\Files\Les chansons d'amour soundtrack\05 - Filature.wav

Длина предзазора 0:08:28.73

Пиковый уровень 50.2 %
Качество трека 100.0 %
CRC теста C86C8BBB
CRC копии C86C8BBB
Копирование... OK

Трек 6

Имя файла H:\Files\Les chansons d'amour soundtrack\06 - Les yeux au ciel.wav

Длина предзазора 0:09:02.17

Пиковый уровень 98.8 %
Качество трека 100.0 %
CRC теста 22F72F8F
CRC копии 22F72F8F
Копирование... OK

Трек 7

Имя файла H:\Files\Les chansons d'amour soundtrack\07 - La Bastille.wav

Длина предзазора 0:12:38.42

Пиковый уровень 98.8 %
Качество трека 100.0 %
CRC теста 055232A1
CRC копии 055232A1
Копирование... OK

Трек 8

Имя файла H:\Files\Les chansons d'amour soundtrack\08 - Générique.wav

Длина предзазора 0:16:27.71

Пиковый уровень 87.7 %
Качество трека 100.0 %
CRC теста 665C1123
CRC копии 665C1123
Копирование... OK

Трек 9

Имя файла H:\Files\Les chansons d'amour soundtrack\09 - Comme la pluie.wav

Длина предзазора 0:18:51.37

Пиковый уровень 98.8 %
Качество трека 100.0 %
CRC теста E4B4492E
CRC копии E4B4492E
Копирование... OK

Ошибок не произошло

Конец отчёта


Трекер:  [ 09-Фев-2011 15:32 ]

  

Скачать .torrent

Размер .torrent файла 16 KB


Размер: 358 MB
Хэш (hash) релиза: 63518ecd5e55c53de98bf4b73c286bbfe527a402

bot

Топик был перенесен в форум Саундтреки к фильмам и мультфильмам (lossless)

Перенес AqvaGen

Хотите добавить комментарий к записи скачать торрент Les Chansons Damour Все песни только о любви - 2007, 2CD, FLAC

!Обратная связь