Скачать через торрент музыку Мадагаскар Madagascar бесплатно без регистрации torrent

Если у вас наблюдаются проблемы со скриншотами, переходом по ссылками, скачиванием торрентов - проблемы в блокировщике рекламы AdBlock. #хорошегоДня!


Статистика раздачи
Размер:  206 MB   |    Зарегистрирован:  6 лет 5 месяцев   |    .torrent скачан:  41 раз   |   
Раздают:  1  
   
Загрузка...
 
Автор Сообщение

Galfimbul

avatar Galfimbul


Мадагаскар / Madagascar

Жанр: Soundtrack
Год выпуска диска: 2005
Производитель диска: USA
Аудио кодек: FLAC
Тип рипа: tracks+.cue
Битрейт аудио: lossless
Продолжительность: 00:31:32

Трэклист:
01. H. Zimmer, H. Pereira, R. Allison, J. S. Levine - Best Friends (2:24)
02. Sacha Baron Cohen - I Like To Move It (3:51)
03. The Ventures - Hawaii Five-O (1:49)
04. Earth Wind and Fire - Boogie Wonderland (4:49)
05. James Dooley - Whacked Out Conspiracy (2:16)
06. Vangelis - Chariots Of Fire (3:29)
07. Bee Gees - Stayin` Alive (4:44)
08. Hans Zimmer - Zoosters Breakout (1:39)
09. Hans Zimmer - Born Free (1:24)
10. Heitor Pereira - The Foosa Attack (0:37)
11. Hans Zimmer, James S. Levine - Beacon of Liberty (2:09)
12. Louis Armstrong - What A Wonderful World (2:16)

Доп. информация:
Лейбл: geffen records
Источник рипа: фирменный диск
 
Exact Audio Copy V0.99 prebeta 3 from 28. July 2007

Отчёт EAC об извлечении, выполненном 31. декабря 2009, 3:18

Various / Madagascar

Дисковод: PIONEER DVD-RW DVR-212 Adapter: 2 ID: 0

Режим чтения : ДостоверностьИспользование точного потока : ДаОтключение кэша аудио : ДаИспользование указателей C2 : Нет

Коррекция смещения при чтении : 48Способность читать области Lead-in и Lead-out : НетЗаполнение пропущенных сэмплов тишиной : ДаУдаление блоков с тишиной в начале и конце : НетПри вычислениях CRC использовались нулевые сэмплы : НетИнтерфейс : Встроенный Win32-интерфейс для Win NT/2000Обработка зазоров : Добавлено к предыдущему треку

Выходной формат : Пользовательский кодировщикВыбранный битрейт : 896 kBit/sКачество : ВысокийДобавление ID3-тэга : НетУтилита сжатия : C:\Program Files\Exact Audio Copy\FLAC\FLAC.EXEДополнительные параметры : -8 -V -T "ARTIST=%a" -T "TITLE=%t" -T "ALBUM=%g" -T "DATE=%y" -T "TRACKNUMBER=%n" -T "GENRE=%m" -T "COMMENT=%e" %s -o %d

TOC извлечённого CD

Трек | Старт | Длительность | Начальный сектор | Конечный сектор --------------------------------------------------------------------- 1 | 0:00.00 | 2:24.68 | 0 | 10867 2 | 2:24.68 | 3:51.65 | 10868 | 28257 3 | 6:16.58 | 1:49.01 | 28258 | 36433 4 | 8:05.59 | 4:49.14 | 36434 | 58122 5 | 12:54.73 | 2:16.37 | 58123 | 68359 6 | 15:11.35 | 3:29.02 | 68360 | 84036 7 | 18:40.37 | 4:44.26 | 84037 | 105362 8 | 23:24.63 | 1:39.51 | 105363 | 112838 9 | 25:04.39 | 1:24.65 | 112839 | 119203 10 | 26:29.29 | 0:37.02 | 119204 | 121980 11 | 27:06.31 | 2:09.53 | 121981 | 131708 12 | 29:16.09 | 2:16.07 | 131709 | 141915

Трек 1

Имя файла D:\ForTorrents\Madagascar\01. H. Zimmer, H. Pereira, R. Allison, J. S. Levine - Best Friends.wav

Длина предзазора 0:00:02.00

Пиковый уровень 100.0 % Качество трека 100.0 % CRC теста 5042E4B8 CRC копии 5042E4B8 Копирование... OK

Трек 2

Имя файла D:\ForTorrents\Madagascar\02. Sacha Baron Cohn - I Like To Move It.wav

Длина предзазора 0:00:00.66

Пиковый уровень 89.1 % Качество трека 100.0 % CRC теста B1737AD9 CRC копии B1737AD9 Копирование... OK

Трек 3

Имя файла D:\ForTorrents\Madagascar\03. The Ventures - Hawaii Five-O.wav

Длина предзазора 0:00:00.09

Пиковый уровень 100.0 % Качество трека 100.0 % CRC теста 8DF161E6 CRC копии 8DF161E6 Копирование... OK

Трек 4

Имя файла D:\ForTorrents\Madagascar\04. Earth Wind and Fire - Boogie Wonderland.wav

Пиковый уровень 90.3 % Качество трека 100.0 % CRC теста D4DAE29A CRC копии D4DAE29A Копирование... OK

Трек 5

Имя файла D:\ForTorrents\Madagascar\05. James Dooley - Whacked Out Conspiracy.wav

Длина предзазора 0:00:00.66

Пиковый уровень 100.0 % Качество трека 99.9 % CRC теста E205AA98 CRC копии E205AA98 Копирование... OK

Трек 6

Имя файла D:\ForTorrents\Madagascar\06. Vangelis - Chariots of Fire.wav

Длина предзазора 0:00:00.10

Пиковый уровень 95.2 % Качество трека 100.0 % CRC теста E8AFDB05 CRC копии E8AFDB05 Копирование... OK

Трек 7

Имя файла D:\ForTorrents\Madagascar\07. Bee Gees - Stayin' Alive.wav

Длина предзазора 0:00:00.17

Пиковый уровень 100.0 % Качество трека 100.0 % CRC теста 1358A699 CRC копии 1358A699 Копирование... OK

Трек 8

Имя файла D:\ForTorrents\Madagascar\08. Hans Zimmer - Zoosters Breakout.wav

Длина предзазора 0:00:00.69

Пиковый уровень 100.0 % Качество трека 100.0 % CRC теста D607B323 CRC копии D607B323 Копирование... OK

Трек 9

Имя файла D:\ForTorrents\Madagascar\09. Hans Zimmer - Born Free.wav

Длина предзазора 0:00:00.22

Пиковый уровень 100.0 % Качество трека 100.0 % CRC теста 3AD4330F CRC копии 3AD4330F Копирование... OK

Трек 10

Имя файла D:\ForTorrents\Madagascar\10. Heitor Pereira - The Foosa Attack.wav

Длина предзазора 0:00:00.74

Пиковый уровень 98.8 % Качество трека 100.0 % CRC теста BEBDE36D CRC копии BEBDE36D Копирование... OK

Трек 11

Имя файла D:\ForTorrents\Madagascar\11. Hans Zimmer, James S. Levine - Beacon of Liberty.wav

Длина предзазора 0:00:00.59

Пиковый уровень 99.8 % Качество трека 100.0 % CRC теста FA1445AF CRC копии FA1445AF Копирование... OK

Трек 12

Имя файла D:\ForTorrents\Madagascar\12. Louis Armstrong - What A Wonderful World.wav

Длина предзазора 0:00:00.65

Пиковый уровень 94.4 % Качество трека 100.0 % CRC теста F1950B82 CRC копии F1950B82 Копирование... OK

Ошибок не произошло

Конец отчёта
 
AUDIOCHECKER v1.2 - by Dester - opdester@freemail.hu~~~~~~~~~~~~~~~~~

01 -===- D:\ForTorrents\Madagascar\01. H. Zimmer, H. Pereira, R. Allison, J. S. Levine - Best Friends.flac Extracted successfully Conclusion: This track looks like CDDA with probability 100%

02 -===- D:\ForTorrents\Madagascar\02. Sacha Baron Cohn - I Like To Move It.flac Extracted successfully Conclusion: This track looks like CDDA with probability 100%

03 -===- D:\ForTorrents\Madagascar\03. The Ventures - Hawaii Five-O.flac Extracted successfully Conclusion: This track looks like CDDA with probability 100%

04 -===- D:\ForTorrents\Madagascar\04. Earth Wind and Fire - Boogie Wonderland.flac Extracted successfully Conclusion: This track looks like CDDA with probability 100%

05 -===- D:\ForTorrents\Madagascar\05. James Dooley - Whacked Out Conspiracy.flac Extracted successfully Conclusion: This track looks like CDDA with probability 100%

06 -===- D:\ForTorrents\Madagascar\06. Vangelis - Chariots of Fire.flac Extracted successfully Conclusion: This track looks like CDDA with probability 99%

07 -===- D:\ForTorrents\Madagascar\07. Bee Gees - Stayin' Alive.flac Extracted successfully Conclusion: This track looks like CDDA with probability 100%

08 -===- D:\ForTorrents\Madagascar\08. Hans Zimmer - Zoosters Breakout.flac Extracted successfully Conclusion: This track looks like CDDA with probability 100%

09 -===- D:\ForTorrents\Madagascar\09. Hans Zimmer - Born Free.flac Extracted successfully Conclusion: This track looks like CDDA with probability 100%

10 -===- D:\ForTorrents\Madagascar\10. Heitor Pereira - The Foosa Attack.flac Extracted successfully Conclusion: This track looks like CDDA with probability 100%

11 -===- D:\ForTorrents\Madagascar\11. Hans Zimmer, James S. Levine - Beacon of Liberty.flac Extracted successfully Conclusion: This track looks like CDDA with probability 100%

12 -===- D:\ForTorrents\Madagascar\12. Louis Armstrong - What A Wonderful World.flac Extracted successfully Conclusion: This track looks like CDDA with probability 100%
 
REM GENRE SoundtrackREM DATE 2005REM DISCID A607640CREM COMMENT "ExactAudioCopy v0.99pb3"PERFORMER "Various"TITLE "Madagascar "FILE "01. H. Zimmer, H. Pereira, R. Allison, J. S. Levine - Best Friends.wav" WAVE TRACK 01 AUDIO TITLE "Best Friends" PERFORMER "H. Zimmer, H. Pereira, R. Allison, J. S. Levine" INDEX 01 00:00:00 TRACK 02 AUDIO TITLE "I Like To Move It" PERFORMER "Sacha Baron Cohn" INDEX 00 02:24:02FILE "02. Sacha Baron Cohn - I Like To Move It.wav" WAVE INDEX 01 00:00:00 TRACK 03 AUDIO TITLE "Hawaii Five-O" PERFORMER "The Ventures" INDEX 00 03:51:56FILE "03. The Ventures - Hawaii Five-O.wav" WAVE INDEX 01 00:00:00FILE "04. Earth Wind and Fire - Boogie Wonderland.wav" WAVE TRACK 04 AUDIO TITLE "Boogie Wonderland" PERFORMER "Earth Wind and Fire" INDEX 01 00:00:00 TRACK 05 AUDIO TITLE "Whacked Out Conspiracy" PERFORMER "James Dooley" INDEX 00 04:48:23FILE "05. James Dooley - Whacked Out Conspiracy.wav" WAVE INDEX 01 00:00:00 TRACK 06 AUDIO TITLE "Chariots of Fire" PERFORMER "Vangelis" INDEX 00 02:16:27FILE "06. Vangelis - Chariots of Fire.wav" WAVE INDEX 01 00:00:00 TRACK 07 AUDIO TITLE "Stayin' Alive" PERFORMER "Bee Gees" INDEX 00 03:28:60FILE "07. Bee Gees - Stayin' Alive.wav" WAVE INDEX 01 00:00:00 TRACK 08 AUDIO TITLE "Zoosters Breakout" PERFORMER "Hans Zimmer" INDEX 00 04:43:32FILE "08. Hans Zimmer - Zoosters Breakout.wav" WAVE INDEX 01 00:00:00 TRACK 09 AUDIO TITLE "Born Free" PERFORMER "Hans Zimmer" INDEX 00 01:39:29FILE "09. Hans Zimmer - Born Free.wav" WAVE INDEX 01 00:00:00 TRACK 10 AUDIO TITLE "The Foosa Attack" PERFORMER "Heitor Pereira" INDEX 00 01:23:66FILE "10. Heitor Pereira - The Foosa Attack.wav" WAVE INDEX 01 00:00:00 TRACK 11 AUDIO TITLE "Beacon of Liberty" PERFORMER "Hans Zimmer, James S. Levine" INDEX 00 00:36:18FILE "11. Hans Zimmer, James S. Levine - Beacon of Liberty.wav" WAVE INDEX 01 00:00:00 TRACK 12 AUDIO TITLE "What A Wonderful World" PERFORMER "Louis Armstrong" INDEX 00 02:08:63FILE "12. Louis Armstrong - What A Wonderful World.wav" WAVE INDEX 01 00:00:00


Трекер:  [ 07-Июл-2011 23:15 ]

  

Скачать .torrent

Размер .torrent файла 17 KB


Размер: 206 MB
Хэш (hash) релиза: cfd908123b0f3757ab7ef0c13c8df7a2f52e65

Торренты, похожие на Мадагаскар Madagascar скачать торрент

Форум Название Автор Размер S L Добавлен
Саундтреки к фильмам и мультфильмам (lossless) ·· (Soundtrack) Мадагаскар / Madagascar (Hans Zimmer & VA) - 2005, FLAC (tracks+.cue), lossless Galfimbul 215592716206 MB 0 0 1366429820

06:50

20-Апр-13

Саундтреки к фильмам и мультфильмам (mp3) ·· (Soundtrack, Score) Мадагаскар / Madagascar: OST + Score (Promotional Release) - 2005-2006, MP3, 320 kbps Phoenix 132866348127 MB 0 0 1292265307

21:35

13-Дек-10

Саундтреки к фильмам и мультфильмам (mp3) ·· (Score) Пингвины Мадагаскара / Penguins of Madagascar (by Lorne Balfe) - 2014, MP3, 320 kbps Galfimbul 131192373125 MB 2 0 1417795497

19:04

5-Дек-14

Саундтреки ·· (Score / Soundtrack) Мадагаскар 3 / Madagascar 3: Europe's Most Wanted (Hans Zimmer & VA) - 2012, MP3, 320 kbps Galfimbul 9386222890 MB 2 0 1339791660

23:21

15-Июн-12

Саундтреки к фильмам и мультфильмам (mp3) ·· (Score Suite) Madagascar / Мадагаскар (Hans Zimmer, James S. Levine, Heitor Pereira, Ryeland Allison) - 2005, MP3 (tracks), 320 kbps Galfimbul 1999521319 MB 0 0 1292268076

22:21

13-Дек-10

Саундтреки к фильмам и мультфильмам (mp3) ·· (Soundtrack) Madagascar: Escape 2 Africa / Мадагаскар 2 (Hans Zimmer & VA) - 2008, MP3 (tracks), 320 kbps Galfimbul 119254620114 MB 2 0 1292265232

21:33

13-Дек-10

Еще никто не оставлял запись к записи скачать торрент Мадагаскар Madagascar . Будь первым!

!Обратная связь