Скачать через торрент музыку P.S. I Love You P.S. Я люблю тебя бесплатно без регистрации torrent

Если у вас наблюдаются проблемы со скриншотами, переходом по ссылками, скачиванием торрентов - проблемы в блокировщике рекламы AdBlock. #хорошегоДня!


Статистика раздачи
Размер:  252 MB   |    Зарегистрирован:  6 лет 5 месяцев   |    .torrent скачан:  34 раза   |   
Раздают:  1  
   
Загрузка...
 
Автор Сообщение

Galfimbul

avatar Galfimbul


P.S. I Love You / P.S. Я люблю тебя
Жанр: Score
Год выпуска диска: 2008
Производитель диска: USA
Аудио кодек: FLAC
Тип рипа: tracks+.cue
Битрейт аудио: lossless
Продолжительность: 50:13
01. John Powell - Make Up Kisses
02. John Powell - Bette Davis Montage
03. John Powell - You Gotta to Be Rich
04. John Powell - The Cake
05. John Powell - The Urn
06. John Powell - Puke/1st Letter
07. John Powell - Holly Gets Fired
08. John Powell - Jacket
09. John Powell - Travel Agent
10. John Powell - To Eire
11. John Powell - Reading Letters
12. John Powell - On the Lake
13. John Powell - Kitchen Waltz
14. John Powell - On the Lake
15. John Powell - The Kennedys
16. John Powell - Last Tune
17. John Powell - Gerry's Fort
18. John Powell - The Meeting
19. John Powell - The Kiss
20. John Powell - Home Again
21. John Powell - Enough
22. John Powell - Somebody's Gerry
23. John Powell - It Was Me
24. John Powell - Sis Kiss
25. John Powell - P.S. I Love You

Exact Audio Copy V0.99 prebeta 5 from 4. May 2009

EAC extraction logfile from 6. August 2009, 1:07

John Powell / P.S. I Love You

Used drive : Optiarc DVD RW AD-7170A Adapter: 0 ID: 0

Read mode : Secure
Utilize accurate stream : Yes
Defeat audio cache : Yes
Make use of C2 pointers : No

Read offset correction : 48
Overread into Lead-In and Lead-Out : No
Fill up missing offset samples with silence : Yes
Delete leading and trailing silent blocks : No
Null samples used in CRC calculations : Yes
Used interface : Native Win32 interface for Win NT & 2000
Gap handling : Appended to previous track

Used output format : User Defined Encoder
Selected bitrate : 320 kBit/s
Quality : High
Add ID3 tag : No
Command line compressor : C:\Program Files\Exact Audio Copy\Flac\flac.exe
Additional command line options : -8 -V -T "ARTIST=%a" -T "TITLE=%t" -T "ALBUM=%g" -T "DATE=%y" -T "TRACKNUMBER=%n" -T "GENRE=%m" -T "COMMENT=EAC FLAC -8" %s

TOC of the extracted CD

Track | Start | Length | Start sector | End sector
---------------------------------------------------------
1 | 0:00.00 | 3:00.17 | 0 | 13516
2 | 3:00.17 | 1:12.38 | 13517 | 18954
3 | 4:12.55 | 0:52.31 | 18955 | 22885
4 | 5:05.11 | 1:46.13 | 22886 | 30848
5 | 6:51.24 | 1:59.59 | 30849 | 39832
6 | 8:51.08 | 2:43.14 | 39833 | 52071
7 | 11:34.22 | 0:44.43 | 52072 | 55414
8 | 12:18.65 | 1:26.70 | 55415 | 61934
9 | 13:45.60 | 4:04.15 | 61935 | 80249
10 | 17:50.00 | 2:53.48 | 80250 | 93272
11 | 20:43.48 | 0:46.64 | 93273 | 96786
12 | 21:30.37 | 1:22.65 | 96787 | 103001
13 | 22:53.27 | 4:53.26 | 103002 | 125002
14 | 27:46.53 | 2:28.37 | 125003 | 136139
15 | 30:15.15 | 1:07.50 | 136140 | 141214
16 | 31:22.65 | 0:50.20 | 141215 | 144984
17 | 32:13.10 | 1:04.26 | 144985 | 149810
18 | 33:17.36 | 4:30.46 | 149811 | 170106
19 | 37:48.07 | 1:55.63 | 170107 | 178794
20 | 39:43.70 | 0:33.02 | 178795 | 181271
21 | 40:16.72 | 0:38.52 | 181272 | 184173
22 | 40:55.49 | 1:42.49 | 184174 | 191872
23 | 42:38.23 | 3:34.50 | 191873 | 207972
24 | 46:12.73 | 2:37.04 | 207973 | 219751
25 | 48:50.02 | 1:23.22 | 219752 | 225998

Track 1

Filename K:\SoundTrack_P.S. I Love You\ 01. John Powell – Make Up Kisses.wav

Pre-gap length 0:00:02.00

Peak level 92.2 %
Track quality 100.0 %
Test CRC E893CC12
Copy CRC E893CC12
Copy OK

Track 2

Filename K:\SoundTrack_P.S. I Love You\ 02. John Powell – Bette Davis Montage.wav

Peak level 91.6 %
Track quality 100.0 %
Test CRC 73F6180D
Copy CRC 73F6180D
Copy OK

Track 3

Filename K:\SoundTrack_P.S. I Love You\ 03. John Powell – You Gotta to Be Rich.wav

Peak level 92.2 %
Track quality 100.0 %
Test CRC FBC0B50F
Copy CRC FBC0B50F
Copy OK

Track 4

Filename K:\SoundTrack_P.S. I Love You\ 04. John Powell – The Cake.wav

Peak level 92.2 %
Track quality 100.0 %
Test CRC 17C7A752
Copy CRC 17C7A752
Copy OK

Track 5

Filename K:\SoundTrack_P.S. I Love You\ 05. John Powell – The Urn.wav

Peak level 77.3 %
Track quality 100.0 %
Test CRC D51BE281
Copy CRC D51BE281
Copy OK

Track 6

Filename K:\SoundTrack_P.S. I Love You\ 06. John Powell – Puke,1st Letter.wav

Peak level 95.4 %
Track quality 100.0 %
Test CRC 537F67D1
Copy CRC 537F67D1
Copy OK

Track 7

Filename K:\SoundTrack_P.S. I Love You\ 07. John Powell – Holly Gets Fired.wav

Peak level 92.2 %
Track quality 100.0 %
Test CRC 225D3FD5
Copy CRC 225D3FD5
Copy OK

Track 8

Filename K:\SoundTrack_P.S. I Love You\ 08. John Powell – Jacket.wav

Peak level 77.5 %
Track quality 100.0 %
Test CRC 4C500786
Copy CRC 4C500786
Copy OK

Track 9

Filename K:\SoundTrack_P.S. I Love You\ 09. John Powell – Travel Agent.wav

Peak level 92.2 %
Track quality 100.0 %
Test CRC 40E5889F
Copy CRC 40E5889F
Copy OK

Track 10

Filename K:\SoundTrack_P.S. I Love You\ 10. John Powell – To Eire.wav

Peak level 92.2 %
Track quality 100.0 %
Test CRC E9EEAF83
Copy CRC E9EEAF83
Copy OK

Track 11

Filename K:\SoundTrack_P.S. I Love You\ 11. John Powell – Reading Letters.wav

Peak level 92.2 %
Track quality 100.0 %
Test CRC 1DB13E48
Copy CRC 1DB13E48
Copy OK

Track 12

Filename K:\SoundTrack_P.S. I Love You\ 12. John Powell – On the Lake.wav

Peak level 91.4 %
Track quality 100.0 %
Test CRC 95D1969F
Copy CRC 95D1969F
Copy OK

Track 13

Filename K:\SoundTrack_P.S. I Love You\ 13. John Powell – Kitchen Waltz.wav

Peak level 93.4 %
Track quality 100.0 %
Test CRC 82810068
Copy CRC 82810068
Copy OK

Track 14

Filename K:\SoundTrack_P.S. I Love You\ 14. John Powell – On the Lake.wav

Peak level 92.2 %
Track quality 100.0 %
Test CRC 1907BC88
Copy CRC 1907BC88
Copy OK

Track 15

Filename K:\SoundTrack_P.S. I Love You\ 15. John Powell – The Kennedys.wav

Peak level 66.0 %
Track quality 100.0 %
Test CRC 25DF5431
Copy CRC 25DF5431
Copy OK

Track 16

Filename K:\SoundTrack_P.S. I Love You\ 16. John Powell – Last Tune.wav

Peak level 69.1 %
Track quality 100.0 %
Test CRC C95ADC3F
Copy CRC C95ADC3F
Copy OK

Track 17

Filename K:\SoundTrack_P.S. I Love You\ 17. John Powell – Gerry's Fort.wav

Peak level 82.1 %
Track quality 100.0 %
Test CRC 7D941DF8
Copy CRC 7D941DF8
Copy OK

Track 18

Filename K:\SoundTrack_P.S. I Love You\ 18. John Powell – The Meeting.wav

Peak level 92.2 %
Track quality 99.9 %
Test CRC D8E26656
Copy CRC D8E26656
Copy OK

Track 19

Filename K:\SoundTrack_P.S. I Love You\ 19. John Powell – The Kiss.wav

Peak level 92.2 %
Track quality 100.0 %
Test CRC D7489D3F
Copy CRC D7489D3F
Copy OK

Track 20

Filename K:\SoundTrack_P.S. I Love You\ 20. John Powell – Home Again.wav

Peak level 83.3 %
Track quality 100.0 %
Test CRC 218626F3
Copy CRC 218626F3
Copy OK

Track 21

Filename K:\SoundTrack_P.S. I Love You\ 21. John Powell – Enough.wav

Peak level 61.8 %
Track quality 100.0 %
Test CRC AAFBF1E8
Copy CRC AAFBF1E8
Copy OK

Track 22

Filename K:\SoundTrack_P.S. I Love You\ 22. John Powell – Somebody's Gerry.wav

Peak level 56.3 %
Track quality 100.0 %
Test CRC 8F2B8401
Copy CRC 8F2B8401
Copy OK

Track 23

Filename K:\SoundTrack_P.S. I Love You\ 23. John Powell – It Was Me.wav

Peak level 92.2 %
Track quality 100.0 %
Test CRC 9D383397
Copy CRC 9D383397
Copy OK

Track 24

Filename K:\SoundTrack_P.S. I Love You\ 24. John Powell – Sis Kiss.wav

Peak level 92.2 %
Track quality 99.9 %
Test CRC 43DFA23E
Copy CRC 43DFA23E
Copy OK

Track 25

Filename K:\SoundTrack_P.S. I Love You\ 25. John Powell – P.S. I Love You.wav

Peak level 54.5 %
Track quality 100.0 %
Test CRC FB168372
Copy CRC FB168372
Copy OK

No errors occurred

End of status report


Трекер:  [ 07-Июл-2011 23:14 ]

  

Скачать .torrent

Размер .torrent файла 22 KB


Размер: 252 MB
Хэш (hash) релиза: 4fbccc283abfaad43dfdc68a7b27c9cc38d54c64

Торренты, похожие на P.S. I Love You P.S. Я люблю тебя скачать торрент

Форум Название Автор Размер S L Добавлен
Саундтреки к фильмам и мультфильмам (mp3) ·· (Score) P.S. I Love You / P.S. Я люблю тебя (John Powell) - 2008, MP3, 320 kbps Солнышко 120668642115 MB 0 0 1292265580

21:39

13-Дек-10

Еще никто не оставлял запись к записи скачать торрент P.S. I Love You P.S. Я люблю тебя . Будь первым!

!Обратная связь