Скачать через торрент музыку Ennio Morricone - Il Buono, il Brutto, il Cattivo бесплатно без регистрации torrent

Если у вас наблюдаются проблемы со скриншотами, переходом по ссылками, скачиванием торрентов - проблемы в блокировщике рекламы AdBlock. #хорошегоДня!


Статистика раздачи
Размер:  307 MB   |    Зарегистрирован:  6 лет 5 месяцев   |    .torrent скачан:  41 раз   |   
Раздают:  1  
   
Загрузка...
 
Автор Сообщение

Galfimbul

avatar Galfimbul


Ennio Morricone - Il Buono, il Brutto, il Cattivo (The Good, The Bad & The Ugly) (GDM)

Жанр: Score
Год выпуска диска: 2001
Аудио кодек: WAVPack
Тип рипа: image+.cue
Битрейт аудио: lossless
Трэклист:
1. Il Buono Il Brutto Il Cattivo (The Good, The Bad & The Ugly) (Main Title)
2. Il Tramonto (The Sundown)
3. Sentenza
4. Fuga A Cavallo
5. Il Ponte Di Corde
6. Il Forte (The Strong)
7. Inseguimento
8. Il Deserto (The Desert)
9. La Carrozza Dei Fantasmi (The Carriage Of The Spirits)
10. La Missione San Antonio
11. Padre Ramirez
12. Marcetta (Marcia)
13. La Storia Di Un Soldato (The Story Of A Soldier)
14. Il Treno Militare
15. Fine Di Una Spia
16. Il Bandito Monco
17. Due Contro Cinque
18. Marcetta Senza Speranza (Marcia Without Hope)
19. Morte Di Un Soldato (The Death Of A Soldier)
20. L'estasi Dell'oro (The Ecstasy Of Gold)
21. Il Triello (The Trio) (Main Title)
Доп. информация:
 
Exact Audio Copy V0.99 prebeta 5 from 4. May 2009

EAC extraction logfile from 16. May 2009, 2:18

Ennio Morricone / Il Buono, il Brutto, il Cattivo

Used drive : PLEXTOR DVDR PX-820A Adapter: 1 ID: 2

Read mode : SecureUtilize accurate stream : YesDefeat audio cache : YesMake use of C2 pointers : No

Read offset correction : 48Overread into Lead-In and Lead-Out : NoFill up missing offset samples with silence : YesDelete leading and trailing silent blocks : NoNull samples used in CRC calculations : YesUsed interface : Installed external ASPI interface

Used output format : Internal WAV RoutinesSample format : 44.100 Hz; 16 Bit; Stereo

TOC of the extracted CD

Track | Start | Length | Start sector | End sector --------------------------------------------------------- 1 | 0:00.00 | 2:42.29 | 0 | 12178 2 | 2:42.29 | 1:18.14 | 12179 | 18042 3 | 4:00.43 | 1:43.72 | 18043 | 25839 4 | 5:44.40 | 1:09.35 | 25840 | 31049 5 | 6:54.00 | 1:55.34 | 31050 | 39708 6 | 8:49.34 | 2:24.01 | 39709 | 50509 7 | 11:13.35 | 2:27.29 | 50510 | 61563 8 | 13:40.64 | 5:18.53 | 61564 | 85466 9 | 18:59.42 | 2:11.66 | 85467 | 95357 10 | 21:11.33 | 2:19.08 | 95358 | 105790 11 | 23:30.41 | 2:40.02 | 105791 | 117792 12 | 26:10.43 | 2:52.15 | 117793 | 130707 13 | 29:02.58 | 5:34.08 | 130708 | 155765 14 | 34:36.66 | 1:25.20 | 155766 | 162160 15 | 36:02.11 | 1:16.70 | 162161 | 167930 16 | 37:19.06 | 2:45.68 | 167931 | 180373 17 | 40:04.74 | 3:47.35 | 180374 | 197433 18 | 43:52.34 | 1:50.27 | 197434 | 205710 19 | 45:42.61 | 3:09.62 | 205711 | 219947 20 | 48:52.48 | 3:23.05 | 219948 | 235177 21 | 52:15.53 | 7:14.29 | 235178 | 267756

Range status and errors

Selected range

Filename D:\EAC\Ennio Morricone - Il Buono, il Brutto, il Cattivo.wav

Peak level 100.0 % Range quality 99.9 % Copy CRC 344DD6CE Copy OK

No errors occurred

End of status report


Трекер:  [ 07-Июл-2011 23:39 ]

  

Скачать .torrent

Размер .torrent файла 13 KB


Размер: 307 MB
Хэш (hash) релиза: d9d5bc5a1d32a3802d6d9f17e60d0711162696c1

Торренты, похожие на Ennio Morricone - Il Buono, il Brutto, il Cattivo скачать торрент

Форум Название Автор Размер S L Добавлен
Саундтреки к фильмам и мультфильмам (lossless) ·· (Soundtrack) Хороший, плохой, злой / Il Buono, Il Cattivo, Il Brutto - by Ennio Morricone - 2004, FLAC (image+.cue), lossless AqvaGen 271710307259 MB 0 0 1292268574

22:29

13-Дек-10

Еще никто не оставлял запись к записи скачать торрент Ennio Morricone - Il Buono, il Brutto, il Cattivo . Будь первым!

!Обратная связь