Скачать через торрент музыку Tarantino Experience бесплатно без регистрации torrent

Если у вас наблюдаются проблемы со скриншотами, переходом по ссылками, скачиванием торрентов - проблемы в блокировщике рекламы AdBlock. #хорошегоДня!


Статистика раздачи
Размер:  1.26 GB   |    Зарегистрирован:  6 лет 5 месяцев   |    .torrent скачан:  53 раза   |   
Раздают:  1  
   
Загрузка...
 
Автор Сообщение

Galfimbul

avatar Galfimbul


Tarantino Experience: The Ultimate Tribute to Quentin Tarantino

Жанр: Soundtrack || Год выпуска: 2008 || Страна: USA || Аудио кодек: FLAC || Тип рипа: tracks+.cue || Битрейт аудио: lossless
Продолжительность: 00:36:44+00:35:25 || Источник: waffles.fm

Disc 1:
01 - Nancy Sinatra - Bang Bang (My Baby Shot Me Down) (02:41)
02 - Urge Overkill - Girl, You'll Be a Woman Soon (03:11)
03 - The Ladybug Transistor - Always on the Telephone (03:55)
04 - The Hurricanes - Out of Limits (02:06)
05 - Geater Davis - Sad Shades of Blue (04:13)
06 - Joe Cocker - Woman to Woman (04:26)
07 - Screamin' Jay Hawkins - I Put a Spell on You (02:25)
08 - The Surf Coronados - Pipeline (02:12)
09 - Billie Jo Spears - Fever (02:55)
10 - Chris Farlowe - Paint It Black (03:29)
11 - Screaming Lord Sutch - Murder in the Graveyard (02:56)
12 - Duane Eddy - Rebel Rouser (02:16)

Disc 2:
01 - Dick Dale and His Del-Tones - Misirlou (02:16)
02 - The Fendermen - Ghost Riders in the Sky (04:40)
03 - Classics IV - Spooky (02:48)
04 - The Meters - Look-Ka-Py-Py (03:13)
05 - Wilson Pickett - Something You Got (02:54)
06 - 1910 Fruitgum Company - Indian Giver (02:35)
07 - Lobo - Me and You and a Dog Named Boo (03:07)
08 - The Grass Roots - Midnight Confessions (02:47)
09 - John Fred & His Playboy Band - Judy in Disguise (02:54)
10 - Nino Tempo & April Stevens - Deep Purple (02:43)
11 - Richard Twang & His Cadillacs - Apache (02:48)
12 - Johnny Cash - I Walk the Line (02:41)

 
X Lossless Decoder version 20100907 (121.1)

XLD extraction logfile from 2010-09-07 16:49:23 +0100

Various Artists / Tarantino Experience (disc 1)

Used drive : HL-DT-ST DVDRW GSA-S10N (revision BP10)

Use cdparanoia mode : YES (CDParanoia III 10.2 engine)Disable audio cache : OK for the drive with cache less than 2750KBMake use of C2 pointers : NORead offset correction : 667Max retry count : 100Gap status : Analyzed, Appended

TOC of the extracted CD Track | Start | Length | Start sector | End sector --------------------------------------------------------- 1 | 00:00:00 | 02:41:02 | 0 | 12076 2 | 02:41:02 | 03:11:06 | 12077 | 26407 3 | 05:52:08 | 03:54:51 | 26408 | 44008 4 | 09:46:59 | 02:05:55 | 44009 | 53438 5 | 11:52:39 | 04:13:06 | 53439 | 72419 6 | 16:05:45 | 04:25:42 | 72420 | 92336 7 | 20:31:12 | 02:25:27 | 92337 | 103238 8 | 22:56:39 | 02:12:11 | 103239 | 113149 9 | 25:08:50 | 02:54:67 | 113150 | 126266 10 | 28:03:42 | 03:28:56 | 126267 | 141922 11 | 31:32:23 | 02:56:35 | 141923 | 155157 12 | 34:28:58 | 02:16:08 | 155158 | 165365

List of alternate offset correction values # | Absolute | Relative | Confidence ------------------------------------------ 1 | 93 | -574 | 9

All Tracks Album gain : -8.13 dB Peak : 1.000000

Track 01 Filename : /Users/lmcg/Desktop/XLD temp/01 Nancy Sinatra - Bang Bang (My Baby Shot Me Down).m4a /Users/lmcg/Desktop/XLD temp/01 Nancy Sinatra - Bang Bang (My Baby Shot Me Down).flac Pre-gap length : 00:02:00

Track gain : -7.27 dB Peak : 0.959015 CRC32 hash (test run) : F784B381 CRC32 hash : F784B381 CRC32 hash (skip zero) : F0206E65 AccurateRip signature : 632CE7DC ->Accurately ripped! (confidence 4) Statistics Read error : 0 Skipped (treated as error) : 0 Edge jitter error (maybe fixed) : 0 Atom jitter error (maybe fixed) : 0 Drift error (maybe fixed) : 0 Dropped bytes error (maybe fixed) : 0 Duplicated bytes error (maybe fixed) : 0 Inconsistency in error sectors : 0

Track 02 Filename : /Users/lmcg/Desktop/XLD temp/02 Urge Overkill - Girl, You'll Be a Woman Soon.m4a /Users/lmcg/Desktop/XLD temp/02 Urge Overkill - Girl, You'll Be a Woman Soon.flac Pre-gap length : 00:02:00

Track gain : -5.99 dB Peak : 0.977234 CRC32 hash (test run) : 4E63C634 CRC32 hash : 4E63C634 CRC32 hash (skip zero) : F008507B AccurateRip signature : 8AFA061B ->Accurately ripped! (confidence 4) Statistics Read error : 0 Skipped (treated as error) : 0 Edge jitter error (maybe fixed) : 0 Atom jitter error (maybe fixed) : 0 Drift error (maybe fixed) : 0 Dropped bytes error (maybe fixed) : 0 Duplicated bytes error (maybe fixed) : 0 Inconsistency in error sectors : 0

Track 03 Filename : /Users/lmcg/Desktop/XLD temp/03 The Ladybug Transistor - Always on the Telephone.m4a /Users/lmcg/Desktop/XLD temp/03 The Ladybug Transistor - Always on the Telephone.flac Pre-gap length : 00:02:00

Track gain : -8.44 dB Peak : 0.999969 CRC32 hash (test run) : EEBE9BFB CRC32 hash : EEBE9BFB CRC32 hash (skip zero) : BE401C08 AccurateRip signature : 30A3FB09 ->Accurately ripped! (confidence 4) Statistics Read error : 0 Skipped (treated as error) : 0 Edge jitter error (maybe fixed) : 0 Atom jitter error (maybe fixed) : 0 Drift error (maybe fixed) : 0 Dropped bytes error (maybe fixed) : 0 Duplicated bytes error (maybe fixed) : 0 Inconsistency in error sectors : 0

Track 04 Filename : /Users/lmcg/Desktop/XLD temp/04 The Hurricanes - Out of Limits.m4a /Users/lmcg/Desktop/XLD temp/04 The Hurricanes - Out of Limits.flac Pre-gap length : 00:01:00

Track gain : -6.52 dB Peak : 1.000000 CRC32 hash (test run) : A70EC7E2 CRC32 hash : A70EC7E2 CRC32 hash (skip zero) : E10D54FB AccurateRip signature : 49DEA103 ->Accurately ripped! (confidence 4) Statistics Read error : 0 Skipped (treated as error) : 0 Edge jitter error (maybe fixed) : 0 Atom jitter error (maybe fixed) : 0 Drift error (maybe fixed) : 0 Dropped bytes error (maybe fixed) : 0 Duplicated bytes error (maybe fixed) : 0 Inconsistency in error sectors : 0

Track 05 Filename : /Users/lmcg/Desktop/XLD temp/05 Geater Davis - Sad Shades of Blue.m4a /Users/lmcg/Desktop/XLD temp/05 Geater Davis - Sad Shades of Blue.flac Pre-gap length : 00:02:00

Track gain : -7.71 dB Peak : 0.978577 CRC32 hash (test run) : 62055BA9 CRC32 hash : 62055BA9 CRC32 hash (skip zero) : 08428FA1 AccurateRip signature : E3422659 ->Accurately ripped! (confidence 4) Statistics Read error : 0 Skipped (treated as error) : 0 Edge jitter error (maybe fixed) : 0 Atom jitter error (maybe fixed) : 0 Drift error (maybe fixed) : 0 Dropped bytes error (maybe fixed) : 0 Duplicated bytes error (maybe fixed) : 0 Inconsistency in error sectors : 0

Track 06 Filename : /Users/lmcg/Desktop/XLD temp/06 Joe Cocker - Woman to Woman.m4a /Users/lmcg/Desktop/XLD temp/06 Joe Cocker - Woman to Woman.flac Pre-gap length : 00:02:00

Track gain : -7.97 dB Peak : 1.000000 CRC32 hash (test run) : 13A34582 CRC32 hash : 13A34582 CRC32 hash (skip zero) : 54168C12 AccurateRip signature : C8BE3D20 ->Accurately ripped! (confidence 4) Statistics Read error : 0 Skipped (treated as error) : 0 Edge jitter error (maybe fixed) : 0 Atom jitter error (maybe fixed) : 0 Drift error (maybe fixed) : 0 Dropped bytes error (maybe fixed) : 0 Duplicated bytes error (maybe fixed) : 0 Inconsistency in error sectors : 0

Track 07 Filename : /Users/lmcg/Desktop/XLD temp/07 Screamin' Jay Hawkins - I Put a Spell on You.m4a /Users/lmcg/Desktop/XLD temp/07 Screamin' Jay Hawkins - I Put a Spell on You.flac Pre-gap length : 00:01:00

Track gain : -9.33 dB Peak : 0.999969 CRC32 hash (test run) : B616D595 CRC32 hash : B616D595 CRC32 hash (skip zero) : D5DF8BFD AccurateRip signature : C1A347AF ->Accurately ripped! (confidence 4) Statistics Read error : 0 Skipped (treated as error) : 0 Edge jitter error (maybe fixed) : 0 Atom jitter error (maybe fixed) : 0 Drift error (maybe fixed) : 0 Dropped bytes error (maybe fixed) : 0 Duplicated bytes error (maybe fixed) : 0 Inconsistency in error sectors : 0

Track 08 Filename : /Users/lmcg/Desktop/XLD temp/08 The Surf Coronados - Pipeline.m4a /Users/lmcg/Desktop/XLD temp/08 The Surf Coronados - Pipeline.flac Pre-gap length : 00:02:00

Track gain : -7.65 dB Peak : 1.000000 CRC32 hash (test run) : 1DF83FE1 CRC32 hash : 1DF83FE1 CRC32 hash (skip zero) : B6F129FB AccurateRip signature : 47E2BCC4 ->Accurately ripped! (confidence 4) Statistics Read error : 0 Skipped (treated as error) : 0 Edge jitter error (maybe fixed) : 0 Atom jitter error (maybe fixed) : 0 Drift error (maybe fixed) : 0 Dropped bytes error (maybe fixed) : 0 Duplicated bytes error (maybe fixed) : 0 Inconsistency in error sectors : 0

Track 09 Filename : /Users/lmcg/Desktop/XLD temp/09 Billie Jo Spears - Fever.m4a /Users/lmcg/Desktop/XLD temp/09 Billie Jo Spears - Fever.flac Pre-gap length : 00:01:00

Track gain : -7.79 dB Peak : 0.968597 CRC32 hash (test run) : 6FEA9709 CRC32 hash : 6FEA9709 CRC32 hash (skip zero) : EFD6EC52 AccurateRip signature : 97A1476E ->Accurately ripped! (confidence 4) Statistics Read error : 0 Skipped (treated as error) : 0 Edge jitter error (maybe fixed) : 0 Atom jitter error (maybe fixed) : 0 Drift error (maybe fixed) : 0 Dropped bytes error (maybe fixed) : 0 Duplicated bytes error (maybe fixed) : 0 Inconsistency in error sectors : 0

Track 10 Filename : /Users/lmcg/Desktop/XLD temp/10 Chris Farlowe - Paint It Black.m4a /Users/lmcg/Desktop/XLD temp/10 Chris Farlowe - Paint It Black.flac Pre-gap length : 00:01:00

Track gain : -7.41 dB Peak : 0.976044 CRC32 hash (test run) : C792007D CRC32 hash : C792007D CRC32 hash (skip zero) : 677817B5 AccurateRip signature : 41A181DA ->Accurately ripped! (confidence 4) Statistics Read error : 0 Skipped (treated as error) : 0 Edge jitter error (maybe fixed) : 0 Atom jitter error (maybe fixed) : 0 Drift error (maybe fixed) : 0 Dropped bytes error (maybe fixed) : 0 Duplicated bytes error (maybe fixed) : 0 Inconsistency in error sectors : 0

Track 11 Filename : /Users/lmcg/Desktop/XLD temp/11 Screaming Lord Sutch - Murder in the Graveyard.m4a /Users/lmcg/Desktop/XLD temp/11 Screaming Lord Sutch - Murder in the Graveyard.flac Pre-gap length : 00:01:00

Track gain : -8.81 dB Peak : 0.983337 CRC32 hash (test run) : B5C714C0 CRC32 hash : B5C714C0 CRC32 hash (skip zero) : 4C60FBCE AccurateRip signature : AF7425CF ->Accurately ripped! (confidence 4) Statistics Read error : 0 Skipped (treated as error) : 0 Edge jitter error (maybe fixed) : 0 Atom jitter error (maybe fixed) : 0 Drift error (maybe fixed) : 0 Dropped bytes error (maybe fixed) : 0 Duplicated bytes error (maybe fixed) : 0 Inconsistency in error sectors : 0

Track 12 Filename : /Users/lmcg/Desktop/XLD temp/12 Duane Eddy - Rebel Rouser.m4a /Users/lmcg/Desktop/XLD temp/12 Duane Eddy - Rebel Rouser.flac Pre-gap length : 00:02:00

Track gain : -7.71 dB Peak : 0.968811 CRC32 hash (test run) : 0ECA2E81 CRC32 hash : 0ECA2E81 CRC32 hash (skip zero) : 92B2E064 AccurateRip signature : 9F033DDA ->Accurately ripped! (confidence 4) Statistics Read error : 0 Skipped (treated as error) : 0 Edge jitter error (maybe fixed) : 0 Atom jitter error (maybe fixed) : 0 Drift error (maybe fixed) : 0 Dropped bytes error (maybe fixed) : 0 Duplicated bytes error (maybe fixed) : 0 Inconsistency in error sectors : 0

No errors occurred

End of status report
 
TITLE "Tarantino Experience (disc 1)"REM DATE "2008"REM DISCID A5089C0CFILE "01 Nancy Sinatra - Bang Bang (My Baby Shot Me Down).wav" WAVE TRACK 01 AUDIO TITLE "Bang Bang (My Baby Shot Me Down)" PERFORMER "Nancy Sinatra" INDEX 01 00:00:00 TRACK 02 AUDIO TITLE "Girl, You'll Be a Woman Soon" PERFORMER "Urge Overkill" INDEX 00 02:39:02FILE "02 Urge Overkill - Girl, You'll Be a Woman Soon.wav" WAVE INDEX 01 00:00:00 TRACK 03 AUDIO TITLE "Always on the Telephone" PERFORMER "The Ladybug Transistor" INDEX 00 03:09:06FILE "03 The Ladybug Transistor - Always on the Telephone.wav" WAVE INDEX 01 00:00:00 TRACK 04 AUDIO TITLE "Out of Limits" PERFORMER "The Hurricanes" INDEX 00 03:53:51FILE "04 The Hurricanes - Out of Limits.wav" WAVE INDEX 01 00:00:00 TRACK 05 AUDIO TITLE "Sad Shades of Blue" PERFORMER "Geater Davis" INDEX 00 02:03:55FILE "05 Geater Davis - Sad Shades of Blue.wav" WAVE INDEX 01 00:00:00 TRACK 06 AUDIO TITLE "Woman to Woman" PERFORMER "Joe Cocker" INDEX 00 04:11:06FILE "06 Joe Cocker - Woman to Woman.wav" WAVE INDEX 01 00:00:00 TRACK 07 AUDIO TITLE "I Put a Spell on You" PERFORMER "Screamin' Jay Hawkins" INDEX 00 04:24:42FILE "07 Screamin' Jay Hawkins - I Put a Spell on You.wav" WAVE INDEX 01 00:00:00 TRACK 08 AUDIO TITLE "Pipeline" PERFORMER "The Surf Coronados" INDEX 00 02:23:27FILE "08 The Surf Coronados - Pipeline.wav" WAVE INDEX 01 00:00:00 TRACK 09 AUDIO TITLE "Fever" PERFORMER "Billie Jo Spears" INDEX 00 02:11:11FILE "09 Billie Jo Spears - Fever.wav" WAVE INDEX 01 00:00:00 TRACK 10 AUDIO TITLE "Paint It Black" PERFORMER "Chris Farlowe" INDEX 00 02:53:67FILE "10 Chris Farlowe - Paint It Black.wav" WAVE INDEX 01 00:00:00 TRACK 11 AUDIO TITLE "Murder in the Graveyard" PERFORMER "Screaming Lord Sutch" INDEX 00 03:27:56FILE "11 Screaming Lord Sutch - Murder in the Graveyard.wav" WAVE INDEX 01 00:00:00 TRACK 12 AUDIO TITLE "Rebel Rouser" PERFORMER "Duane Eddy" INDEX 00 02:54:35FILE "12 Duane Eddy - Rebel Rouser.wav" WAVE INDEX 01 00:00:00
 
X Lossless Decoder version 20100907 (121.1)

XLD extraction logfile from 2010-09-07 16:21:50 +0100

Various Artists / Tarantino Experience (disc 2)

Used drive : HL-DT-ST DVDRW GSA-S10N (revision BP10)

Use cdparanoia mode : YES (CDParanoia III 10.2 engine)Disable audio cache : OK for the drive with cache less than 2750KBMake use of C2 pointers : NORead offset correction : 667Max retry count : 100Gap status : Analyzed, Appended

TOC of the extracted CD Track | Start | Length | Start sector | End sector --------------------------------------------------------- 1 | 00:00:00 | 02:15:39 | 0 | 10163 2 | 02:15:39 | 04:39:45 | 10164 | 31133 3 | 06:55:09 | 02:48:06 | 31134 | 43739 4 | 09:43:15 | 03:12:66 | 43740 | 58205 5 | 12:56:06 | 02:54:06 | 58206 | 71261 6 | 15:50:12 | 02:35:27 | 71262 | 82913 7 | 18:25:39 | 03:06:38 | 82914 | 96901 8 | 21:32:02 | 02:47:32 | 96902 | 109458 9 | 24:19:34 | 02:53:52 | 109459 | 122485 10 | 27:13:11 | 02:43:30 | 122486 | 134740 11 | 29:56:41 | 02:48:09 | 134741 | 147349 12 | 32:44:50 | 02:41:24 | 147350 | 159448

All Tracks Album gain : -7.82 dB Peak : 1.000000

Track 01 Filename : /Users/lmcg/Desktop/XLD temp/01 Dick Dale and His Del-Tones - Misirlou.m4a /Users/lmcg/Desktop/XLD temp/01 Dick Dale and His Del-Tones - Misirlou.flac Pre-gap length : 00:02:00

Track gain : -7.68 dB Peak : 0.966187 CRC32 hash (test run) : BC7B93C4 CRC32 hash : BC7B93C4 CRC32 hash (skip zero) : 2D563DA4 AccurateRip signature : 8A77A269 ->Accurately ripped! (confidence 8) Statistics Read error : 0 Skipped (treated as error) : 0 Edge jitter error (maybe fixed) : 0 Atom jitter error (maybe fixed) : 0 Drift error (maybe fixed) : 0 Dropped bytes error (maybe fixed) : 0 Duplicated bytes error (maybe fixed) : 0 Inconsistency in error sectors : 0

Track 02 Filename : /Users/lmcg/Desktop/XLD temp/02 The Fendermen - Ghost Riders in the Sky.m4a /Users/lmcg/Desktop/XLD temp/02 The Fendermen - Ghost Riders in the Sky.flac Pre-gap length : 00:02:00

Track gain : -7.02 dB Peak : 1.000000 CRC32 hash (test run) : 5B013CAC CRC32 hash : 5B013CAC CRC32 hash (skip zero) : 732AB1FA AccurateRip signature : 4B033768 ->Accurately ripped! (confidence 9) Statistics Read error : 0 Skipped (treated as error) : 0 Edge jitter error (maybe fixed) : 0 Atom jitter error (maybe fixed) : 0 Drift error (maybe fixed) : 0 Dropped bytes error (maybe fixed) : 0 Duplicated bytes error (maybe fixed) : 0 Inconsistency in error sectors : 0

Track 03 Filename : /Users/lmcg/Desktop/XLD temp/03 Classics IV - Spooky.m4a /Users/lmcg/Desktop/XLD temp/03 Classics IV - Spooky.flac Pre-gap length : 00:02:00

Track gain : -8.46 dB Peak : 0.966370 CRC32 hash (test run) : 92F471C9 CRC32 hash : 92F471C9 CRC32 hash (skip zero) : 1233AD2E AccurateRip signature : 88C1CB74 ->Accurately ripped! (confidence 12) Statistics Read error : 0 Skipped (treated as error) : 0 Edge jitter error (maybe fixed) : 0 Atom jitter error (maybe fixed) : 0 Drift error (maybe fixed) : 0 Dropped bytes error (maybe fixed) : 0 Duplicated bytes error (maybe fixed) : 0 Inconsistency in error sectors : 0

Track 04 Filename : /Users/lmcg/Desktop/XLD temp/04 The Meters - Look-Ka-Py-Py.m4a /Users/lmcg/Desktop/XLD temp/04 The Meters - Look-Ka-Py-Py.flac Pre-gap length : 00:02:00

Track gain : -6.48 dB Peak : 1.000000 CRC32 hash (test run) : E99A1BE3 CRC32 hash : E99A1BE3 CRC32 hash (skip zero) : BDC46210 AccurateRip signature : F3685AD5 ->Accurately ripped! (confidence 12) Statistics Read error : 0 Skipped (treated as error) : 0 Edge jitter error (maybe fixed) : 0 Atom jitter error (maybe fixed) : 0 Drift error (maybe fixed) : 0 Dropped bytes error (maybe fixed) : 0 Duplicated bytes error (maybe fixed) : 0 Inconsistency in error sectors : 0

Track 05 Filename : /Users/lmcg/Desktop/XLD temp/05 Wilson Pickett - Something You Got.m4a /Users/lmcg/Desktop/XLD temp/05 Wilson Pickett - Something You Got.flac Pre-gap length : 00:02:00

Track gain : -7.30 dB Peak : 0.973572 CRC32 hash (test run) : 05B9FD7B CRC32 hash : 05B9FD7B CRC32 hash (skip zero) : 14111E86 AccurateRip signature : 0DCA3773 ->Accurately ripped! (confidence 11) Statistics Read error : 0 Skipped (treated as error) : 0 Edge jitter error (maybe fixed) : 0 Atom jitter error (maybe fixed) : 0 Drift error (maybe fixed) : 0 Dropped bytes error (maybe fixed) : 0 Duplicated bytes error (maybe fixed) : 0 Inconsistency in error sectors : 0

Track 06 Filename : /Users/lmcg/Desktop/XLD temp/06 1910 Fruitgum Company - Indian Giver.m4a /Users/lmcg/Desktop/XLD temp/06 1910 Fruitgum Company - Indian Giver.flac Pre-gap length : 00:02:00

Track gain : -8.62 dB Peak : 0.959412 CRC32 hash (test run) : E51E985E CRC32 hash : E51E985E CRC32 hash (skip zero) : 4DE14C99 AccurateRip signature : B9594D04 ->Accurately ripped! (confidence 11) Statistics Read error : 0 Skipped (treated as error) : 0 Edge jitter error (maybe fixed) : 0 Atom jitter error (maybe fixed) : 0 Drift error (maybe fixed) : 0 Dropped bytes error (maybe fixed) : 0 Duplicated bytes error (maybe fixed) : 0 Inconsistency in error sectors : 0

Track 07 Filename : /Users/lmcg/Desktop/XLD temp/07 Lobo - Me and You and a Dog Named Boo.m4a /Users/lmcg/Desktop/XLD temp/07 Lobo - Me and You and a Dog Named Boo.flac Pre-gap length : 00:02:00

Track gain : -8.04 dB Peak : 0.997467 CRC32 hash (test run) : 29BC2A55 CRC32 hash : 29BC2A55 CRC32 hash (skip zero) : F135CB30 AccurateRip signature : E1BD18FB ->Accurately ripped! (confidence 10) Statistics Read error : 0 Skipped (treated as error) : 0 Edge jitter error (maybe fixed) : 0 Atom jitter error (maybe fixed) : 0 Drift error (maybe fixed) : 0 Dropped bytes error (maybe fixed) : 0 Duplicated bytes error (maybe fixed) : 0 Inconsistency in error sectors : 0

Track 08 Filename : /Users/lmcg/Desktop/XLD temp/08 The Grass Roots - Midnight Confessions.m4a /Users/lmcg/Desktop/XLD temp/08 The Grass Roots - Midnight Confessions.flac Pre-gap length : 00:02:00

Track gain : -8.07 dB Peak : 0.965973 CRC32 hash (test run) : 36C57FD8 CRC32 hash : 36C57FD8 CRC32 hash (skip zero) : 5C3BB399 AccurateRip signature : 126B818B ->Accurately ripped! (confidence 11) Statistics Read error : 0 Skipped (treated as error) : 0 Edge jitter error (maybe fixed) : 0 Atom jitter error (maybe fixed) : 0 Drift error (maybe fixed) : 0 Dropped bytes error (maybe fixed) : 0 Duplicated bytes error (maybe fixed) : 0 Inconsistency in error sectors : 0

Track 09 Filename : /Users/lmcg/Desktop/XLD temp/09 John Fred & His Playboy Band - Judy in Disguise.m4a /Users/lmcg/Desktop/XLD temp/09 John Fred & His Playboy Band - Judy in Disguise.flac Pre-gap length : 00:02:00

Track gain : -8.29 dB Peak : 0.970184 CRC32 hash (test run) : 2F2CA7A6 CRC32 hash : 2F2CA7A6 CRC32 hash (skip zero) : DC4FC6BB AccurateRip signature : BE5E1EC9 ->Accurately ripped! (confidence 11) Statistics Read error : 0 Skipped (treated as error) : 0 Edge jitter error (maybe fixed) : 0 Atom jitter error (maybe fixed) : 0 Drift error (maybe fixed) : 0 Dropped bytes error (maybe fixed) : 0 Duplicated bytes error (maybe fixed) : 0 Inconsistency in error sectors : 0

Track 10 Filename : /Users/lmcg/Desktop/XLD temp/10 Nino Tempo & April Stevens - Deep Purple.m4a /Users/lmcg/Desktop/XLD temp/10 Nino Tempo & April Stevens - Deep Purple.flac Pre-gap length : 00:02:00

Track gain : -7.18 dB Peak : 0.963531 CRC32 hash (test run) : 20B5B4A7 CRC32 hash : 20B5B4A7 CRC32 hash (skip zero) : 27379A58 AccurateRip signature : 2261E107 ->Accurately ripped! (confidence 11) Statistics Read error : 0 Skipped (treated as error) : 0 Edge jitter error (maybe fixed) : 0 Atom jitter error (maybe fixed) : 0 Drift error (maybe fixed) : 0 Dropped bytes error (maybe fixed) : 0 Duplicated bytes error (maybe fixed) : 0 Inconsistency in error sectors : 0

Track 11 Filename : /Users/lmcg/Desktop/XLD temp/11 Richard Twang & His Cadillacs - Apache.m4a /Users/lmcg/Desktop/XLD temp/11 Richard Twang & His Cadillacs - Apache.flac Pre-gap length : 00:02:00

Track gain : -6.69 dB Peak : 1.000000 CRC32 hash (test run) : 1D8289A6 CRC32 hash : 1D8289A6 CRC32 hash (skip zero) : D0DC325F AccurateRip signature : 03C76679 ->Accurately ripped! (confidence 12) Statistics Read error : 0 Skipped (treated as error) : 0 Edge jitter error (maybe fixed) : 0 Atom jitter error (maybe fixed) : 0 Drift error (maybe fixed) : 0 Dropped bytes error (maybe fixed) : 0 Duplicated bytes error (maybe fixed) : 0 Inconsistency in error sectors : 0

Track 12 Filename : /Users/lmcg/Desktop/XLD temp/12 Johnny Cash - I Walk the Line.m4a /Users/lmcg/Desktop/XLD temp/12 Johnny Cash - I Walk the Line.flac Pre-gap length : 00:02:00

Track gain : -7.77 dB Peak : 0.970245 CRC32 hash (test run) : CD21ADCD CRC32 hash : CD21ADCD CRC32 hash (skip zero) : 634BD49F AccurateRip signature : 950A53FF ->Accurately ripped! (confidence 11) Statistics Read error : 0 Skipped (treated as error) : 0 Edge jitter error (maybe fixed) : 0 Atom jitter error (maybe fixed) : 0 Drift error (maybe fixed) : 0 Dropped bytes error (maybe fixed) : 0 Duplicated bytes error (maybe fixed) : 0 Inconsistency in error sectors : 0

No errors occurred

End of status report
 
TITLE "Tarantino Experience (disc 2)"REM DATE "2008"REM DISCID B4084D0CFILE "01 Dick Dale and His Del-Tones - Misirlou.wav" WAVE TRACK 01 AUDIO TITLE "Misirlou" PERFORMER "Dick Dale and His Del-Tones" INDEX 01 00:00:00 TRACK 02 AUDIO TITLE "Ghost Riders in the Sky" PERFORMER "The Fendermen" INDEX 00 02:13:39FILE "02 The Fendermen - Ghost Riders in the Sky.wav" WAVE INDEX 01 00:00:00 TRACK 03 AUDIO TITLE "Spooky" PERFORMER "Classics IV" INDEX 00 04:37:45FILE "03 Classics IV - Spooky.wav" WAVE INDEX 01 00:00:00 TRACK 04 AUDIO TITLE "Look-Ka-Py-Py" PERFORMER "The Meters" INDEX 00 02:46:06FILE "04 The Meters - Look-Ka-Py-Py.wav" WAVE INDEX 01 00:00:00 TRACK 05 AUDIO TITLE "Something You Got" PERFORMER "Wilson Pickett" INDEX 00 03:10:66FILE "05 Wilson Pickett - Something You Got.wav" WAVE INDEX 01 00:00:00 TRACK 06 AUDIO TITLE "Indian Giver" PERFORMER "1910 Fruitgum Company" INDEX 00 02:52:06FILE "06 1910 Fruitgum Company - Indian Giver.wav" WAVE INDEX 01 00:00:00 TRACK 07 AUDIO TITLE "Me and You and a Dog Named Boo" PERFORMER "Lobo" INDEX 00 02:33:27FILE "07 Lobo - Me and You and a Dog Named Boo.wav" WAVE INDEX 01 00:00:00 TRACK 08 AUDIO TITLE "Midnight Confessions" PERFORMER "The Grass Roots" INDEX 00 03:04:38FILE "08 The Grass Roots - Midnight Confessions.wav" WAVE INDEX 01 00:00:00 TRACK 09 AUDIO TITLE "Judy in Disguise" PERFORMER "John Fred & His Playboy Band" INDEX 00 02:45:32FILE "09 John Fred & His Playboy Band - Judy in Disguise.wav" WAVE INDEX 01 00:00:00 TRACK 10 AUDIO TITLE "Deep Purple" PERFORMER "Nino Tempo & April Stevens" INDEX 00 02:51:52FILE "10 Nino Tempo & April Stevens - Deep Purple.wav" WAVE INDEX 01 00:00:00 TRACK 11 AUDIO TITLE "Apache" PERFORMER "Richard Twang & His Cadillacs" INDEX 00 02:41:30FILE "11 Richard Twang & His Cadillacs - Apache.wav" WAVE INDEX 01 00:00:00 TRACK 12 AUDIO TITLE "I Walk the Line" PERFORMER "Johnny Cash" INDEX 00 02:46:09FILE "12 Johnny Cash - I Walk the Line.wav" WAVE INDEX 01 00:00:00



Трекер:  [ 07-Июл-2011 23:38 ]

  

Скачать .torrent

Размер .torrent файла 20 KB


Размер: 1.26 GB
Хэш (hash) релиза: 417c0fc0f16c751cfa78514ad0476f07a8212eba

Торренты, похожие на Tarantino Experience скачать торрент

Форум Название Автор Размер S L Добавлен
Саундтреки к фильмам и мультфильмам (mp3) ·· (Soundtrack) The Tarantino Experience: The Ultimate Tribute To Quentin Tarantino (2 CD) - 2008, MP3 (tracks), 320 kbps AqvaGen 171466752164 MB 0 0 1292266413

21:53

13-Дек-10

Саундтреки к фильмам и мультфильмам (mp3) ·· (Soundtrack) VA - Tarantino Experience: Take II (2 CD) - 2010, MP3 (tracks), VBR 128-192 kbps Galfimbul 8655747383 MB 0 0 1292266404

21:53

13-Дек-10

Еще никто не оставлял запись к записи скачать торрент Tarantino Experience . Будь первым!

!Обратная связь