Скачать через торрент музыку Призрак оперы Das Phantom Der Oper бесплатно без регистрации torrent

Если у вас наблюдаются проблемы со скриншотами, переходом по ссылками, скачиванием торрентов - проблемы в блокировщике рекламы AdBlock. #хорошегоДня!


Статистика раздачи
Размер:  366 MB   |    Зарегистрирован:  6 лет 5 месяцев   |    .torrent скачан:  48 раз   |   
Раздают:  1  
   
Загрузка...
 
Автор Сообщение

Galfimbul

avatar Galfimbul


Призрак оперы / Das Phantom Der Oper

Жанр: Soundtrack / Musical
Год выпуска диска: 2004
Производитель диска: Германия
Аудио кодек: FLAC
Тип рипа: image +.cue
Битрейт аудио: lossless
Продолжительность: 01:12:32
Трэклист:
01. Ouverture (2:45) / Instrumental
02. Denk an Mich (3:40) / Jana Werner, Carsten A. Lepper
03. Engel der Muse (2:42) / Jana Werner, Jana Stelley, Uwe Kroger
04. Der Spiegel (Engel der Muse) 1:59) / Uwe Kroger, Jana Werner
05. Das Phantom der Oper (3:34) / Uwe Kroger, Jana Werner
06. Die Musik der Nacht (5:38) / Uwe Kroger
07. Die Erinnerung kommt zuruck (3:21) / Uwe Kroger, Jana Werner
08. Primadonna (3:28) / Hartwig Rudolz, Wolfgang Hoeltzel, Carsten A. Lepper, Jasna Ivir, Gabriele Ramm, Jana Stelley, Marcello Ronchietto
09. Warum so weit hinauf (3:04) / Carsten A. Lepper, Jana Werner
10. Mehr will Ich nicht von Dir (4:53) / Carsten A. Lepper, Jana Werner
11. Mehr will Ich nicht von Dir (Reprise) (2:15) / Uwe Kroger, Jana Werner, Carsten A. Lepper
12. Maskenball (5:30) / All
13. Konntest du doch wieder bei mir sein (3:42) / Jana Werner
14. Nun gibt es kein zuruck (8:00) / Uwe Kroger, Jana Werner
15. Spurt diesen Morder auf (12:45) / Uwe Kroger, Jana Werner, Carsten A. Lepper
16. Dein Weg ist einsam (2:26) / Jana Werner
17. Learn to be lonely (2:26) / Minnie Driver
 
Exact Audio Copy V0.99 prebeta 5 from 4. May 2009

Отчёт EAC об извлечении, выполненном 11. сентября 2009, 15:57

Film Cast (Kroeger, Werner, Lepper) / Andrew Lloyd Webber - Das Phantom der Oper (Film Cast)

Дисковод: TOSHIBA CD/DVDW SDR5372V Adapter: 3 ID: 0

Режим чтения : ДостоверностьИспользование точного потока : ДаОтключение кэша аудио : ДаИспользование указателей C2 : Нет

Коррекция смещения при чтении : 704Способность читать области Lead-in и Lead-out : НетЗаполнение пропущенных сэмплов тишиной : ДаУдаление блоков с тишиной в начале и конце : НетПри вычислениях CRC использовались нулевые сэмплы : ДаИнтерфейс : Встроенный Win32-интерфейс для Win NT/2000

Выходной формат : Пользовательский кодировщикВыбранный битрейт : 1024 kBit/sКачество : ВысокийДобавление ID3-тэга : НетУтилита сжатия : C:\Program Files\Exact Audio Copy\FLAC\FLAC.EXEДополнительные параметры : -6 -V -T "ARTIST=%a" -T "TITLE=%t" -T "ALBUM=%g" -T "DATE=%y" -T "TRACKNUMBER=%n" -T "GENRE=%m" -T "COMMENT=%e" %s -o %d

TOC извлечённого CD

Трек | Старт | Длительность | Начальный сектор | Конечный сектор --------------------------------------------------------------------- 1 | 0:00.00 | 2:46.45 | 0 | 12494 2 | 2:46.45 | 3:41.09 | 12495 | 29078 3 | 6:27.54 | 2:44.02 | 29079 | 41380 4 | 9:11.56 | 1:59.51 | 41381 | 50356 5 | 11:11.32 | 3:39.00 | 50357 | 66781 6 | 14:50.32 | 5:39.56 | 66782 | 92262 7 | 20:30.13 | 3:27.17 | 92263 | 107804 8 | 23:57.30 | 3:28.00 | 107805 | 123404 9 | 27:25.30 | 3:04.69 | 123405 | 137273 10 | 30:30.24 | 4:53.36 | 137274 | 159284 11 | 35:23.60 | 2:16.31 | 159285 | 169515 12 | 37:40.16 | 5:31.44 | 169516 | 194384 13 | 43:11.60 | 3:46.35 | 194385 | 211369 14 | 46:58.20 | 7:57.49 | 211370 | 247193 15 | 54:55.69 | 12:49.35 | 247194 | 304903 16 | 67:45.29 | 2:26.08 | 304904 | 315861 17 | 70:11.37 | 2:26.73 | 315862 | 326884

Характеристики диапазона извлечения и сообщения об ошибках

Выбранный диапазон

Имя файла D:\torrent\Das Phantom der Oper 2004 loseless\Film Cast (Kroeger, Werner, Lepper) - Andrew Lloyd Webber - Das Phantom der Oper (Film Cast).wav

Пиковый уровень 99.2 % Качество диапазона 100.0 % CRC теста E9765947 CRC копии E9765947 Копирование... OK

Ошибок не произошло

AccurateRip: сводка

Трек 1 точное извлечение (доверие 4) [7639EEC5]Трек 2 точное извлечение (доверие 4) [8A225BD7]Трек 3 точное извлечение (доверие 4) [284DA9AE]Трек 4 точное извлечение (доверие 4) [B633FC2B]Трек 5 точное извлечение (доверие 4) [66EBB84E]Трек 6 точное извлечение (доверие 4) [2F771D35]Трек 7 точное извлечение (доверие 4) [3B111F70]Трек 8 точное извлечение (доверие 4) [711BFA75]Трек 9 точное извлечение (доверие 4) [A3085168]Трек 10 точное извлечение (доверие 4) [19B84DE2]Трек 11 точное извлечение (доверие 4) [AB4C046C]Трек 12 точное извлечение (доверие 4) [33EC2C87]Трек 13 точное извлечение (доверие 4) [47022C5D]Трек 14 точное извлечение (доверие 4) [5324D9C3]Трек 15 точное извлечение (доверие 4) [7920DD06]Трек 16 точное извлечение (доверие 4) [3C272E33]Трек 17 точное извлечение (доверие 4) [8DDA9BE9]

Все треки извлечены точно

Конец отчёта


Трекер:  [ 07-Июл-2011 23:38 ]

  

Скачать .torrent

Размер .torrent файла 15 KB


Размер: 366 MB
Хэш (hash) релиза: d96c490315b051317c8492beb2d37a87f1adad01

Торренты, похожие на Призрак оперы Das Phantom Der Oper скачать торрент

Форум Название Автор Размер S L Добавлен
Саундтреки к фильмам и мультфильмам (mp3) ·· (Soundtrack) Das Phantom der Oper / Призрак Оперы (Andrew Lloyd Webber) - 2004 (tracks), 160 kbps Mos 8720221283 MB 0 0 1292268125

22:22

13-Дек-10

Еще никто не оставлял запись к записи скачать торрент Призрак оперы Das Phantom Der Oper . Будь первым!

!Обратная связь