Скачать через торрент музыку Ennio Morricone - The Complete Edition бесплатно без регистрации torrent

Если у вас наблюдаются проблемы со скриншотами, переходом по ссылками, скачиванием торрентов - проблемы в блокировщике рекламы AdBlock. #хорошегоДня!


Статистика раздачи
Размер:  4.84 GB   |    Зарегистрирован:  6 лет 5 месяцев   |    .torrent скачан:  40 раз   |   
Раздают:  1  
   
Загрузка...
 
Автор Сообщение

Galfimbul

avatar Galfimbul


Ennio Morricone - The Complete Edition

Жанр: Score / Soundtrack
Год выпуска диска: 2008
Производитель диска: GDM Music 4-029758-943922
Аудио кодек: FLAC
Тип рипа: tracks+.cue
Битрейт аудио: lossless
Продолжительность: 15:17:41
Трэклист:

Music for Cinema
1. IL FEDERALE Titoli (02:03)
2. LA VOGLIA MATTA Sole e sogni (02:30)
3. I BASILISCHI Canzone (02:46)
4. IL SUCCESSO Il successo (02:02)
5. LE MONACHINE Fughetta nell'orto (02:55)
6. E LA DONNA CREO' L'UOMO E la donna creò l'uomo (01:54)
7. PER UN PUGNO DI DOLLARI Titoli (02:55)
8. EL GRECO Exultate Deo (02:14)
9. I MALAMONDO Penso a te (02:11)
10. AMANTI D'OLTRETOMBA Amanti d'oltretomba (01:23)
11. IDOLI CONTROLUCE Le meno importanti (04:08)
12. I PUGNI IN TASCA I pugni in tasca (03:30)
13. UNA PISTOLA PER RINGO Una pistola per Ringo (02:17)
14. LA TRAPPOLA SCATTA A BEIRUT Agente 505: Missione compiuta (04:50)
15. MENAGE ALL'ITALIANA Menage all'italiana (01:38)
16. SLALOM Slalom (01:29)
17. UCCELLACCI E UCCELLINI S. Francesco parla agli uccelli (01:24)
18. IL RITORNO DI RINGO La pace torna a Mimbres (02:19)
19. UN UOMO A META' Accettare, comprendere, questo il senso, il segreto (03:37)
20. PER QUALCHE DOLLARO IN PIU' La resa dei conti (03:02)
1. IL BUONO, IL BRUTTO, IL CATTIVO Il buono, il brutto, il cattivo (02:39)
2. LA BATTAGLIA DI ALGERI Algeri 1 Novembre 1954 (02:24)
3. SVEGLIATI E UCCIDI Svegliati e uccidi (02:26)
4. LA RESA DEI CONTI La caccia (02:40)
5. L'AVVENTURIERO L'avventuriero (04:45)
6. AD OGNI COSTO Punto e basta (02:54)
7. L'HAREM L'harem (02:55)
8. MI VEDRAI TORNARE Mi vedrai tornare (02:36)
9. E PER TETTO UN CIELO DI STELLE E per tetto un cielo di stelle (03:27)
10. ECCE HOMO Venuta dal mare (02:09)
11. GRAZIE ZIA Guerra e pace pollo e brace (02:25)
12. ESCALATION Escalation (02:18)
13. GALILEO Galileo (02:11)
14. IL MERCENARIO Il mercenario (L'arena) (04:43)
15. H2S H2S (04:20)
16. LA TENDA ROSSA La tenda rossa (03:31)
17. SCUSI FACCIAMO L'AMORE A Lydia (03:18)
18. UN TRANQUILLO POSTO DI CAMPAGNA Musica per 11 violini (06:51)
1. C'ERA UNA VOLTA IL WEST C'era una volta il West (03:41)
2. IL CLAN DEI SICILIANI Il clan dei siciliani (03:35)
3. L'ALIBI Una fotografia (02:29)
4. CUORE DI MAMMA Ouverture del mattino (05:24)
5. I CANNIBALI Dove sei, dove siete voi (02:21)
6. GOTT MIT UNS Lontano (04:28)
7. METTI UNA SERA A CENA Metti una sera a cena (04:52)
8. LA MONACA DI MONZA Falsa tranquillità (03:04)
9. L'ASSOLUTO NATURALEL'assoluto naturale (03:38)
10. QUEIMADA Abolicao (05:05)
11. LA DONNA INVISIBILE Ritratto d'autore (05:04)
12. SAI COSA FACEVA STALIN ALLE DONNE? Sai cosa faceva Stalin alle donne? (04:37)
13. INDAGINE SU UN CITTADINO AL DI SOPRA DI OGNI SOSPETTO Indagine su un cittadino al di sopra di ogni sospetto (03:25)
14. LA CALIFFA La califfa (02:37)
15. CITTA' VIOLENTA Città violenta (02:23)
16. IL GATTO A NOVE CODE Ninna nanna in blu (02:36)
17. LA MOGLIE PIU' BELLA La moglie più bella (02:13)
18. METELLO Metello (02:39)
19. VAMOS A MATAR COMPANEROS Vamos a matar companeros (02:21)
20. L'UCCELLO DALLE PIUME DI CRISTALLO Violenza inattesa (04:10)
1. GIU' LA TESTA Giù la testa (04:15)
2. SACCO E VANZETTI Speranze di libertà (02:31)
3. GLI SCASSINATORI Gli scassinatori (03:17)
4. LA CORTA NOTTE DELLE BAMBOLE DI VETRO Valzer (02:15)
5. ADDIO FRATELLO CRUDELE Giovanni e Annabella (02:20)
6. LA CLASSE OPERAIA VA IN PARADISO La classe operaia va in Paradiso (05:20)
7. MADDALENA Chi mai (03:26)
8. QUATTRO MOSCHE DI VELLUTO GRIGIO Come un madrigale (03:39)
9. OCEANO Oceano (06:18)
10. LA TARANTOLA DAL VENTRE NEROL'abbraccio caldo della tarantola (03:58)
11. SENZA MOVENTE Senza motivo apparente (04:22)
12. VERUSCHKA Veruschka (02:34)
13. QUESTA SPECIE D'AMORE Questa specie d'amore (02:32)
14. COSA AVETE FATTO A SOLANGE? Cosa avete fatto a Solange? (02:35)
15. ANCHE SE VOLESSI LAVORARE CHE FACCIO? Lei se ne more (04:42)
16. BARBABLU' Barbablù (03:57)
17. IL DIAVOLO NEL CERVELLO La ragione, il cuore, l'amore (03:26)
18. D'AMORE SI MUORE Si muore d'amore (03:47)
19. I BAMBINI CI CHIEDONO PERCHE' Nuovi angeli (02:33)
20. IL MAESTRO E MARGHERITA Incontro (04:15)
1. IL MIO NOME E' NESSUNO Il mio nome è nessuno (03:10)
2. GIORDANO BRUNO Giordano Bruno (03:20)
3. RAPPRESAGLIA (Massacro a Roma) Reprisal (02:31)
4. ALLONSANFAN Rabbia e tarantella (03:53)
5. REVOLVER Inseguimento e fuga (03:44)
6. IL GIRO NEL MONDO DEGLI INNAMORATI DI PEYNET Forse basta (04:54)
7. IL FIORE DELLE MILLE E UNA NOTTE Tema di Dunja (02:43)
8. MUSSOLINI ULTIMO ATTO Ultimo atto (03:23)
9. IL SEGRETO Il segreto (02:23)
10. TRIO INFERNALE Trio infernale (04:16)
11. MACCHIE SOLARI Macchie solari (03:42)
12. MILANO ODIA LA POLIZIA NON PUO' SPARARE Milano odia la polizia non può sparare (02:22)
13. SPASMO Spasmo (01:55)
14. GENTE DI RISPETTO Mandolini e chitarre (02:40)
15. LIBERA AMORE MIO Estate 1943 (03:53)
16. LA DONNA DELLA DOMENICA La donna della domenica (03:21)
17. IL POLIZIOTTO DELLA BRIGATA CRIMINALE Paura sulla città (04:10)
18. LEONOR Leonor (03:53)
19. L'ULTIMO TRENO DELLA NOTTE Coincidenze (04:00)
20. PER LE ANTICHE SCALE Per le antiche scale (03:26)
1. IL DESERTO DEI TARTARI Il deserto come estasi (04:11)
2. NOVECENTO Romanzo (04:05)
3. L'EREDITA' FERRAMONTI Irene-Dominique (01:57)
4. SAN BABILA ORE 20 UN DELITTO INUTILE San Babila ore 20 (03:12)
5. PER AMORE Per amore (04:02)
6. UNA VITA VENDUTA Una piazza di Siviglia (02:01)
7. IL GATTO Il gatto (03:05)
8. COSI' COME SEI Così come sei (03:52)
9. DOVE VAI IN VACANZA Laringomania (03:30)
10. L'IMMORALITA' Perchè Simona (03:03)
11. IL VIZIETTO Il vizietto (03:12)
12. L'UMANOIDE Un uomo nello spazio (06:50)
13. VIAGGIO CON ANITA Viaggio con Anita (02:53)
14. I COME ICARO I come Icaro (03:52)
15. IL GIOCATTOLO Una tenera moglie (03:51)
16. OGRO Atto di dolore (02:23)
17. IL PRATO Il prato (04:48)
1. LA BANCHIERA Dedicace (03:40)
2. IL LADRONE Il ladrone (03:49)
3. PROFESSIONE FIGLIO Dolcissima (02:28)
4. UOMINI E NO Fucilazione (05:32)
5. STARK SYSTEM Stark system (02:32)
6. IL BANDITO DAGLI OCCHI AZZURRI Città viva (02:35)
7. UN SACCO BELLO Un sacco bello (03:00)
8. BIANCO, ROSSO E VERDONE Bianco, Rosso e Verdone (02:18)
9. LA DISUBBIDIENZA La disubbidienza (04:10)
10. LA STORIA VERA DELLA SIGNORA DELLE CAMELIE Alfonsina delle Camelie (02:12)
11. LA TRAGEDIA DI UN UOMO RIDICOLO La tragedia di un uomo ridicolo (02:13)
12. OCCHIO ALLA PENNA Non fare l'indiano (03:26)
13. COPKILLER Copkiller (02:54)
14. ALZATI SPIA Marche en La (03:05)
15. LE MARGINAL Le marginal (03:54)
16. LES VOLEURS DE LA NUIT Theme of young lovers (03:43)
17. LE RUFFIAN Western (03:40)
1. C'ERA UNA VOLTA IN AMERICA Deborah's theme (Edda's version 2008) (04:23)
2. IL PENTITO Il pentito (04:51)
3. LA GABBIA Incatenato (05:04)
4. LA VENEXIANA Baci dopo il tramonto (03:30)
5. THE MISSION Gabriel's oboe (02:12)
6. QUARTIERE Romanza quartiere (03:35)
7. MOSCA ADDIO Mosca addio (04:52)
8. THE UNTOUCHABLES The strength of the righteous (02:26)
9. NUOVO CINEMA PARADISO Nuovo cinema Paradiso (02:27)
10. LEGAMI Legami (02:42)
11. TEMPO DI UCCIDERE Tempo di angoscia (03:25)
12. CACCIATORI DI NAVI Cacciatori di navi (07:23)
13. MIO CARO DOTTOR GRASLER Capable of love (03:10)
14. STANNO TUTTI BENE Viaggio (04:58)
15. BUGSY Bugsy (03:20)
16. LA VILLA DEL VENERDI' La villa del venerdì (02:32)
17. LA SCORTA La scorta (02:47)
18. JONAH CHE VISSE NELLA BALENA Ricordi d'infanzia (02:11)
19. IL LUNGO SILENZIO In morte di un magistrato (02:57)
1. LA NOTTE E IL MOMENTO A caccia di lei (03:20)
2. L'UOMO PROIETTILE L'uomo proiettile (03:36)
3. LA LUPA La lupa (04:05)
4. PASOLINI UN DELITTO ITALIANO Vedi il mio corpo crocifisso (02:37)
5. I MAGI RANDAGI E' nato (04:20)
6. NINFA PLEBEA Una favola (02:42)
7. LA LEGGENDA DEL PIANISTA SULL'OCEANO The legend of the pianist on the ocean (08:04)
8. CARTONI ANIMATI Cartoni animati (03:17)
9. CANONE INVERSO Finale di un concerto romantico interrotto (04:21)
10. MALENA Malena (04:21)
11. VATEL Vatel (03:16)
12. LA LUZ PRODIGIOSA Passato remoto (03:55)
13. MUSASHI Brivido di guerra (04:20)
14. AL CUORE SI COMANDA Amore in salvo (04:16)
15. LA SCONOSCIUTA Giochi infantili (01:27)
16. TUTTE LE DONNE DELLA MIA VITA Zucchero filato (03:44)
17. RISOLUZIONE 819 Terza lamentazione (05:36)
Music for Television - CD 10/11
1. TRE DONNE Sulla via del Campidoglio (02:41)
2. DIETRO IL PROCESSO Dietro il processo (02:56)
3. INVITO ALLO SPORT Staffetta per due (03:35)
4. LE MANI SPORCHE Nostalgia dei ricordi (03:33)
5. ORIENT EXPRESS Le train (03:13)
6. MARCO POLO Marco Polo (03:21)
7. LA PIOVRA 2 Mille echi (03:26)
8. VIA MALA Via Mala (02:33)
9. IL SEGRETO DEL SAHARA Secret of the Sahara (04:27)
10. LA PIOVRA 3 Una strana bambina (04:01)
11. GLI INDIFFERENTI Gli indifferenti (05:14)
12. GLI ANGELI DEL POTERE Primavera a Praga (04:06)
13. I PROMESSI SPOSI I promessi sposi (03:18)
14. LA PIOVRA 4 Intimamente (03:22)
15. THE ENDLESS GAME The endless game (03:43)
16. VIAGGIO NEL TERRORE (Il sequestro dell'Achille Lauro) - Lauro (02:12)
17. LA PIOVRA 5 Giustizia (02:47)
18. IL PRINCIPE DEL DESERTO Il figlio e la nostalgia (03:42)
1. LA PIOVRA 6 Inizio del caso (05:34)
2. IL BARONE Il barone (03:27)
3. MISSUS Senza ritorno (02:58)
4. LA PIOVRA 7 Dolore nell'anima (04:27)
5. NOSTROMO The tropical variation (03:17)
6. LA CASA BRUCIATA Sia fatta la tua volontà (04:02)
7. IN FONDO AL CUORE Strada di notte (04:13)
8. ULTIMO Ultimo (03:34)
9. ULTIMO - LA SFIDA Città terrestre (03:44)
10. I GUARDIANI DEL CIELO I guardiani del cielo (04:25)
11. PERLASCA Un canto antico (03:06)
12. IL PAPA BUONOIl Papa buono (04:19)
13. CEFALONIA Nell'isola, soli (03:48)
14. IL CUORE NEL POZZO Il cuore nel pozzo (02:59)
15. LUCIA Serena notte (04:15)
16. KAROL, UN UOMO DIVENTATO PAPA Habemus Papam Giovanni Paolo II (03:43)
17. KAROL, UN PAPA RIMASTO UOMO Un Papa rimasto uomo (02:15)
18. LA PROVINCIALE La provinciale (04:04)
19. GIOVANNI FALCONE L'UOMO CHE SFIDO' COSA NOSTRA Pietas (04:19)
20. L'ULTIMO DEI CORLEONESI Borsellino e Falcone (03:26)
Contemporary Classical Music
1. MELA (01:36)
2. RAG IN FRANTUMI per pianoforte (04:39)
3. CADENZA per flauto e nastro magnetico (11:52)
4. UT per tromba, archi, timpani e grancassa (13:00)
5. QUARTO CONCERTO per organo, due trombe, due tromboni e orchestra (20:49)
6. ESERCIZI: Melodia interrotta e improvviso canonico - Romanze (03:15)
Original Songs
1. QUELLO CHE CONTA Luigi Tenco (02:50)
2. CANTATA BASILISCA Fausto Cigliano (02:43)
3. IN FONDO AI MIEI OCCHI Anna Moffo (03:23)
4. UCCELLACCI E UCCELLINI Domenico Modugno (00:39)
5. ANGEL FACE Maurizio Graf (02:17)
6. SE TELEFONANDO Mina (02:57)
7. PIOGGIA SUL TUO VISO The Sorrows (02:38)
8. RUN MAN RUN Christy (02:50)
9. CANZONE DELLA LIBERTA' Sergio Endrigo (03:00)
10. LA BALLATA DI HANK MC CAIN Jackie Lynton (02:06)
11. HERE'S TO YOU Joan Baez (03:09)
12. CHI MAI Lisa Gastoni (03:22)
13. LA CALIFFA Milva (02:42)
14. A FLOWER'S ALL YOU NEED Demis Roussos (05:10)
15. SAHARAN DREAM Amii Stewart (03:05)
16. CONRADIANA Andrea Bocelli (03:48)
17. AND WILL YOU LOVE ME? Antonella Ruggero (04:24)
18. L'ALBA VERRA' Filippa Giordano & Peppe Servillo (04:26)
Orchestral Arrangements
1. QUANDO, QUANDO, QUANDO (02:23)
2. YOU GO TO MY HEAD (02:50)
3. IO CHE AMO SOLO TE (02:41)
4. GREENSLEEVES (02:51)
5. THE PINK PANTHER (meglio stasera) (02:29)
6. TU CA NUN CHIAGNE (02:21)
7. PIOVE (Ciao ciao bambina) (02:23)
8. AMOREVOLE (05:30)
9. EXODUS (03:42)
10. PARLAMI D'AMORE MARIU' (02:23)
11. SUMMER AND SMOKE (03:05)
12. SCETATE (04:49)
13. FASCINATION (02:49)
14. IL SILENZIO (03:12)
15. L'ULTIMO ARLECCHINO (03:18)
16. CIRIBIRIBIN (03:46)
Hit Songs Arrangements
1. IL CIELO IN UNA STANZA Gino Paoli (02:50)
2. GUARDA COME DONDOLO Edoardo Vianello (02:33)
3. IL BARATTOLO Gianni Meccia (03:09)
4. SAPORE DI SALE Gino Paoli (03:29)
5. O MIO SIGNORE Edoardo Vianello (03:32)
6. QUANDO VEDRETE IL MIO CARO AMORE Donatella Moretti (03:43)
7. OGNI VOLTA Paul Anka (02:22)
8. CHE COSA C'E' Gino Paoli (02:39)
9. ABBRONZATISSIMA Edoardo Vianello (02:30)
10. NON SON DEGNO DI TE Gianni Morandi (03:03)
11. TE LO LEGGO NEGLI OCCHI Dino (02:38)
12. IL MONDO Jimmy Fontana (02:45)
13. ANDIAMO A MIETERE IL GRANO Louiselle (02:32)
14. LA FISARMONICA Gianni Morandi (02:52)
15. ALLORA SI Jimmy Fontana (02:38)
16. C'ERA UN RAGAZZO CHE COME ME AMAVA I BEATLES E I ROLLING STONES Gianni Morandi (03:07)
Доп. информация:
 
Exact Audio Copy V0.99 prebeta 4 from 23. January 2008

EAC extraction logfile from 15. March 2009, 2:28

Ennio Morricone / The Complete Edition - Music For Cinema (Disc 1)

Used drive : PLEXTOR CD-R PREMIUM Adapter: 3 ID: 1

Read mode : SecureUtilize accurate stream : YesDefeat audio cache : YesMake use of C2 pointers : No

Read offset correction : 30Overread into Lead-In and Lead-Out : YesFill up missing offset samples with silence : YesDelete leading and trailing silent blocks : NoNull samples used in CRC calculations : YesUsed interface : Native Win32 interface for Win NT & 2000Gap handling : Appended to previous track

Used output format : User Defined EncoderSelected bitrate : 768 kBit/sQuality : HighAdd ID3 tag : NoCommand line compressor : E:\Program Files\Exact Audio Copy\FLAC\FLAC.EXEAdditional command line options : -8 -V -T "ARTIST=%a" -T "TITLE=%t" -T "ALBUM=%g" -T "DATE=%y" -T "TRACKNUMBER=%n" -T "TOTALTRACKS=%x" -T "GENRE=%m" -T "ALBUMARTIST=%v" -T "ALBUM ARTIST=%v" -T "COMMENT=EAC V0.99 prebeta 4, Secure Mode, Test & Copy, Accurat

TOC of the extracted CD

Track | Start | Length | Start sector | End sector---------------------------------------------------------1 | 0:00.00 | 2:03.52 | 0 | 92762 | 2:03.52 | 2:32.11 | 9277 | 206873 | 4:35.63 | 2:49.74 | 20688 | 334364 | 7:25.62 | 2:05.23 | 33437 | 428345 | 9:31.10 | 1:37.03 | 42835 | 501126 | 11:08.13 | 1:57.28 | 50113 | 589157 | 13:05.41 | 2:59.13 | 58916 | 723538 | 16:04.54 | 2:23.48 | 72354 | 831269 | 18:28.27 | 2:12.10 | 83127 | 9303610 | 20:40.37 | 2:19.56 | 93037 | 10351711 | 23:00.18 | 2:06.71 | 103518 | 11303812 | 25:07.14 | 1:39.29 | 113039 | 12049213 | 26:46.43 | 2:21.27 | 120493 | 13109414 | 29:07.70 | 4:53.09 | 131095 | 15307815 | 34:01.04 | 1:39.72 | 153079 | 16057516 | 35:41.01 | 1:56.64 | 160576 | 16933917 | 37:37.65 | 1:30.14 | 169340 | 17610318 | 39:08.04 | 2:22.37 | 176104 | 18679019 | 41:30.41 | 3:39.68 | 186791 | 20328320 | 45:10.34 | 3:04.07 | 203284 | 217090

Track 1

Filename R:\EAC Rips\01 - Il Federale - Titoli.wav

Pre-gap length 0:00:02.00

Peak level 95.6 %Track quality 100.0 %Test CRC B2078C8FCopy CRC B2078C8FTrack not present in AccurateRip databaseCopy OK

Track 2

Filename R:\EAC Rips\02 - La Voglia Matta - Sole e Sogni.wav

Pre-gap length 0:00:01.00

Peak level 100.0 %Track quality 100.0 %Test CRC 75468321Copy CRC 75468321Track not present in AccurateRip databaseCopy OK

Track 3

Filename R:\EAC Rips\03 - I Basilischi - Canzone.wav

Pre-gap length 0:00:01.00

Peak level 28.5 %Track quality 99.9 %Test CRC 77D13E19Copy CRC 77D13E19Track not present in AccurateRip databaseCopy OK

Track 4

Filename R:\EAC Rips\04 - Il Successo - Il Successo.wav

Pre-gap length 0:00:01.00

Peak level 94.5 %Track quality 100.0 %Test CRC 22D479B1Copy CRC 22D479B1Track not present in AccurateRip databaseCopy OK

Track 5

Filename R:\EAC Rips\05 - Le Monachine - Fughetta nell'Orto.wav

Pre-gap length 0:00:01.00

Peak level 100.0 %Track quality 100.0 %Test CRC 326E5C92Copy CRC 326E5C92Track not present in AccurateRip databaseCopy OK

Track 6

Filename R:\EAC Rips\06 - E la Donna Creo' l'Uomo - E la Donna Creo' l'Uomo.wav

Pre-gap length 0:00:01.00

Peak level 100.0 %Track quality 100.0 %Test CRC C394C647Copy CRC C394C647Track not present in AccurateRip databaseCopy OK

Track 7

Filename R:\EAC Rips\07 - Per un Pugno di Dollari - Titoli.wav

Pre-gap length 0:00:01.00

Peak level 83.9 %Track quality 100.0 %Test CRC 0C59A5CACopy CRC 0C59A5CATrack not present in AccurateRip databaseCopy OK

Track 8

Filename R:\EAC Rips\08 - El Greco - Exultate Deo.wav

Pre-gap length 0:00:01.00

Peak level 95.4 %Track quality 100.0 %Test CRC B31CCF64Copy CRC B31CCF64Track not present in AccurateRip databaseCopy OK

Track 9

Filename R:\EAC Rips\09 - I Malamondo - Penso a te.wav

Pre-gap length 0:00:01.00

Peak level 65.8 %Track quality 100.0 %Test CRC CD9966C2Copy CRC CD9966C2Track not present in AccurateRip databaseCopy OK

Track 10

Filename R:\EAC Rips\10 - Amanti d'Oltretomba - Amanti d'Oltretomba.wav

Pre-gap length 0:00:01.00

Peak level 100.0 %Track quality 100.0 %Test CRC 3D9803B4Copy CRC 3D9803B4Track not present in AccurateRip databaseCopy OK

Track 11

Filename R:\EAC Rips\11 - Idoli Controluce - Le Meno Importanti.wav

Pre-gap length 0:00:01.00

Peak level 100.0 %Track quality 100.0 %Test CRC 74441A4BCopy CRC 74441A4BTrack not present in AccurateRip databaseCopy OK

Track 12

Filename R:\EAC Rips\12 - I Pugni in Tasca - I Pugni in Tasca.wav

Pre-gap length 0:00:01.00

Peak level 74.3 %Track quality 100.0 %Test CRC B715FA33Copy CRC B715FA33Track not present in AccurateRip databaseCopy OK

Track 13

Filename R:\EAC Rips\13 - Una Pistola per Ringo - Una Pistola per Ringo.wav

Pre-gap length 0:00:01.00

Peak level 94.3 %Track quality 100.0 %Test CRC F4C2B28BCopy CRC F4C2B28BTrack not present in AccurateRip databaseCopy OK

Track 14

Filename R:\EAC Rips\14 - La Trappola Scatta a Beirut - Agente 505 Missione Compiuta.wav

Pre-gap length 0:00:01.00

Peak level 64.1 %Track quality 100.0 %Test CRC 69C131E2Copy CRC 69C131E2Track not present in AccurateRip databaseCopy OK

Track 15

Filename R:\EAC Rips\15 - Menage all'Italiana - Menage all'Italiana.wav

Pre-gap length 0:00:01.00

Peak level 60.2 %Track quality 99.8 %Test CRC 66668917Copy CRC 66668917Track not present in AccurateRip databaseCopy OK

Track 16

Filename R:\EAC Rips\16 - Slalom - Slalom.wav

Pre-gap length 0:00:01.00

Peak level 98.1 %Track quality 100.0 %Test CRC 7C93F20ACopy CRC 7C93F20ATrack not present in AccurateRip databaseCopy OK

Track 17

Filename R:\EAC Rips\17 - Uccellacci e Uccellini - S. Francesco Parla agli Uccelli.wav

Pre-gap length 0:00:01.00

Peak level 69.0 %Track quality 100.0 %Test CRC 06A8007CCopy CRC 06A8007CTrack not present in AccurateRip databaseCopy OK

Track 18

Filename R:\EAC Rips\18 - Il Ritorno di Ringo - La Pace Torna a Mimbres.wav

Pre-gap length 0:00:01.00

Peak level 83.4 %Track quality 100.0 %Test CRC C4C87AE2Copy CRC C4C87AE2Track not present in AccurateRip databaseCopy OK

Track 19

Filename R:\EAC Rips\19 - Un Uomo a Meta' - Accettare, Comprendere, Questo il Senso, il Segreto.wav

Pre-gap length 0:00:01.00

Peak level 69.5 %Track quality 100.0 %Test CRC A669AA43Copy CRC A669AA43Track not present in AccurateRip databaseCopy OK

Track 20

Filename R:\EAC Rips\20 - Per Qualche Dollaro in Piu' - La Resa dei Conti.wav

Pre-gap length 0:00:01.00

Peak level 92.5 %Track quality 100.0 %Test CRC 92B9850CCopy CRC 92B9850CTrack not present in AccurateRip databaseCopy OK

None of the tracks are present in the AccurateRip database

No errors occurred

End of status report
 
Exact Audio Copy V0.99 prebeta 4 from 23. January 2008

EAC extraction logfile from 15. March 2009, 2:58

Ennio Morricone / The Complete Edition - Music For Cinema (Disc 2)

Used drive : PLEXTOR CD-R PREMIUM Adapter: 3 ID: 1

Read mode : SecureUtilize accurate stream : YesDefeat audio cache : YesMake use of C2 pointers : No

Read offset correction : 30Overread into Lead-In and Lead-Out : YesFill up missing offset samples with silence : YesDelete leading and trailing silent blocks : NoNull samples used in CRC calculations : YesUsed interface : Native Win32 interface for Win NT & 2000Gap handling : Appended to previous track

Used output format : User Defined EncoderSelected bitrate : 768 kBit/sQuality : HighAdd ID3 tag : NoCommand line compressor : E:\Program Files\Exact Audio Copy\FLAC\FLAC.EXEAdditional command line options : -8 -V -T "ARTIST=%a" -T "TITLE=%t" -T "ALBUM=%g" -T "DATE=%y" -T "TRACKNUMBER=%n" -T "TOTALTRACKS=%x" -T "GENRE=%m" -T "ALBUMARTIST=%v" -T "ALBUM ARTIST=%v" -T "COMMENT=EAC V0.99 prebeta 4, Secure Mode, Test & Copy, Accurat

TOC of the extracted CD

Track | Start | Length | Start sector | End sector --------------------------------------------------------- 1 | 0:00.00 | 2:43.29 | 0 | 12253 2 | 2:43.29 | 2:28.32 | 12254 | 23385 3 | 5:11.61 | 2:30.00 | 23386 | 34635 4 | 7:41.61 | 2:40.62 | 34636 | 46697 5 | 10:22.48 | 4:51.00 | 46698 | 68522 6 | 15:13.48 | 2:58.30 | 68523 | 81902 7 | 18:12.03 | 3:06.56 | 81903 | 95908 8 | 21:18.59 | 2:37.55 | 95909 | 107738 9 | 23:56.39 | 3:24.28 | 107739 | 123066 10 | 27:20.67 | 2:10.64 | 123067 | 132880 11 | 29:31.56 | 2:28.05 | 132881 | 143985 12 | 31:59.61 | 2:20.25 | 143986 | 154510 13 | 34:20.11 | 2:14.40 | 154511 | 164600 14 | 36:34.51 | 4:45.48 | 164601 | 186023 15 | 41:20.24 | 4:21.38 | 186024 | 205636 16 | 45:41.62 | 3:34.72 | 205637 | 221758 17 | 49:16.59 | 3:20.19 | 221759 | 236777 18 | 52:37.03 | 6:44.31 | 236778 | 267108

Track 1

Filename R:\EAC Rips\01 - Il Buono, il Brutto, il Cattivo - Il Buono, il Brutto, il Cattivo.wav

Pre-gap length 0:00:02.00

Peak level 95.0 % Track quality 99.9 % Test CRC 089C7545 Copy CRC 089C7545 Track not present in AccurateRip database Copy OK

Track 2

Filename R:\EAC Rips\02 - La Battaglia di Algeri - Algeri 1 Novembre 1954.wav

Pre-gap length 0:00:01.00

Peak level 86.2 % Track quality 99.9 % Test CRC 6D4BD216 Copy CRC 6D4BD216 Track not present in AccurateRip database Copy OK

Track 3

Filename R:\EAC Rips\03 - Svegliati e Uccidi - Svegliati e Uccidi.wav

Pre-gap length 0:00:01.00

Peak level 84.5 % Track quality 100.0 % Test CRC 8B74B616 Copy CRC 8B74B616 Track not present in AccurateRip database Copy OK

Track 4

Filename R:\EAC Rips\04 - La Resa dei Conti - La Caccia.wav

Pre-gap length 0:00:01.00

Peak level 71.0 % Track quality 100.0 % Test CRC A723CBB0 Copy CRC A723CBB0 Track not present in AccurateRip database Copy OK

Track 5

Filename R:\EAC Rips\05 - L'Avventuriero - L'Avventuriero.wav

Pre-gap length 0:00:01.00

Peak level 92.2 % Track quality 100.0 % Test CRC C9A12C49 Copy CRC C9A12C49 Track not present in AccurateRip database Copy OK

Track 6

Filename R:\EAC Rips\06 - Ad Ogni Costo - Punto e Basta.wav

Pre-gap length 0:00:01.00

Peak level 80.1 % Track quality 100.0 % Test CRC EBBA53F9 Copy CRC EBBA53F9 Track not present in AccurateRip database Copy OK

Track 7

Filename R:\EAC Rips\07 - L'Harem - L'Harem.wav

Pre-gap length 0:00:01.00

Peak level 69.2 % Track quality 100.0 % Test CRC B2F9A903 Copy CRC B2F9A903 Track not present in AccurateRip database Copy OK

Track 8

Filename R:\EAC Rips\08 - Mi Vedrai Tornare - Mi Vedrai Tornare.wav

Pre-gap length 0:00:02.00

Peak level 98.1 % Track quality 99.9 % Test CRC D272237F Copy CRC D272237F Track not present in AccurateRip database Copy OK

Track 9

Filename R:\EAC Rips\09 - E per Tetto un Cielo di Stelle - E per Tetto un Cielo di Stelle.wav

Pre-gap length 0:00:01.00

Peak level 88.5 % Track quality 100.0 % Test CRC C7CD4C6F Copy CRC C7CD4C6F Track not present in AccurateRip database Copy OK

Track 10

Filename R:\EAC Rips\10 - Ecce Homo - Venuta dal Mare.wav

Pre-gap length 0:00:01.00

Peak level 68.9 % Track quality 99.9 % Test CRC 4A187E45 Copy CRC 4A187E45 Track not present in AccurateRip database Copy OK

Track 11

Filename R:\EAC Rips\11 - Grazie Zia - Guerra e Pace Pollo e Brace.wav

Pre-gap length 0:00:01.00

Peak level 91.9 % Track quality 99.9 % Test CRC 0404046D Copy CRC 0404046D Track not present in AccurateRip database Copy OK

Track 12

Filename R:\EAC Rips\12 - Escalation - Escalation.wav

Pre-gap length 0:00:01.00

Peak level 65.4 % Track quality 100.0 % Test CRC 6FDED794 Copy CRC 6FDED794 Track not present in AccurateRip database Copy OK

Track 13

Filename R:\EAC Rips\13 - Galileo - Galileo.wav

Pre-gap length 0:00:01.00

Peak level 53.7 % Track quality 100.0 % Test CRC 7FD0B22B Copy CRC 7FD0B22B Track not present in AccurateRip database Copy OK

Track 14

Filename R:\EAC Rips\14 - Il Mercenario - Il Mercenario (L'Arena).wav

Pre-gap length 0:00:01.00

Peak level 98.0 % Track quality 100.0 % Test CRC F35140DA Copy CRC F35140DA Track not present in AccurateRip database Copy OK

Track 15

Filename R:\EAC Rips\15 - H2S - H2S.wav

Pre-gap length 0:00:01.00

Peak level 84.0 % Track quality 100.0 % Test CRC D093F7FF Copy CRC D093F7FF Track not present in AccurateRip database Copy OK

Track 16

Filename R:\EAC Rips\16 - La Tenda Rossa - La Tenda Rossa.wav

Pre-gap length 0:00:01.00

Peak level 93.5 % Track quality 100.0 % Test CRC 73B7944D Copy CRC 73B7944D Track not present in AccurateRip database Copy OK

Track 17

Filename R:\EAC Rips\17 - Scusi Facciamo l'Amore - A Lydia.wav

Pre-gap length 0:00:01.00

Peak level 98.3 % Track quality 99.9 % Test CRC C0120879 Copy CRC C0120879 Track not present in AccurateRip database Copy OK

Track 18

Filename R:\EAC Rips\18 - Un Tranquillo Posto di Campagna - Musica per 11 Violini.wav

Pre-gap length 0:00:01.00

Peak level 57.3 % Track quality 100.0 % Test CRC D174576A Copy CRC D174576A Track not present in AccurateRip database Copy OK

None of the tracks are present in the AccurateRip database

No errors occurred

End of status report
 
Exact Audio Copy V0.99 prebeta 4 from 23. January 2008

EAC extraction logfile from 15. March 2009, 3:31

Ennio Morricone / The Complete Edition - Music For Cinema (Disc 3)

Used drive : PLEXTOR CD-R PREMIUM Adapter: 3 ID: 1

Read mode : SecureUtilize accurate stream : YesDefeat audio cache : YesMake use of C2 pointers : No

Read offset correction : 30Overread into Lead-In and Lead-Out : YesFill up missing offset samples with silence : YesDelete leading and trailing silent blocks : NoNull samples used in CRC calculations : YesUsed interface : Native Win32 interface for Win NT & 2000Gap handling : Appended to previous track

Used output format : User Defined EncoderSelected bitrate : 768 kBit/sQuality : HighAdd ID3 tag : NoCommand line compressor : E:\Program Files\Exact Audio Copy\FLAC\FLAC.EXEAdditional command line options : -8 -V -T "ARTIST=%a" -T "TITLE=%t" -T "ALBUM=%g" -T "DATE=%y" -T "TRACKNUMBER=%n" -T "TOTALTRACKS=%x" -T "GENRE=%m" -T "ALBUMARTIST=%v" -T "ALBUM ARTIST=%v" -T "COMMENT=EAC V0.99 prebeta 4, Secure Mode, Test & Copy, Accurat

TOC of the extracted CD

Track | Start | Length | Start sector | End sector --------------------------------------------------------- 1 | 0:00.00 | 3:44.09 | 0 | 16808 2 | 3:44.09 | 3:37.42 | 16809 | 33125 3 | 7:21.51 | 2:31.35 | 33126 | 44485 4 | 9:53.11 | 5:23.20 | 44486 | 68730 5 | 15:16.31 | 2:26.15 | 68731 | 79695 6 | 17:42.46 | 4:27.20 | 79696 | 99740 7 | 22:09.66 | 4:32.03 | 99741 | 120143 8 | 26:41.69 | 3:09.28 | 120144 | 134346 9 | 29:51.22 | 3:36.71 | 134347 | 150617 10 | 33:28.18 | 5:08.29 | 150618 | 173746 11 | 38:36.47 | 5:05.12 | 173747 | 196633 12 | 43:41.59 | 4:42.25 | 196634 | 217808 13 | 48:24.09 | 3:28.39 | 217809 | 233447 14 | 51:52.48 | 2:38.62 | 233448 | 245359 15 | 54:31.35 | 2:28.74 | 245360 | 256533 16 | 57:00.34 | 2:40.23 | 256534 | 268556 17 | 59:40.57 | 2:15.12 | 268557 | 278693 18 | 61:55.69 | 2:47.23 | 278694 | 291241 19 | 64:43.17 | 2:27.20 | 291242 | 302286 20 | 67:10.37 | 4:08.05 | 302287 | 320891

Track 1

Filename R:\EAC Rips\01 - C'era una Volta il West - C'era una Volta il West.wav

Pre-gap length 0:00:02.00

Peak level 99.9 % Track quality 99.9 % Test CRC 6C2648C6 Copy CRC 6C2648C6 Track not present in AccurateRip database Copy OK

Track 2

Filename R:\EAC Rips\02 - Il Clan dei Siciliani - Il Clan dei Siciliani.wav

Pre-gap length 0:00:01.00

Peak level 78.0 % Track quality 100.0 % Test CRC 9980160B Copy CRC 9980160B Track not present in AccurateRip database Copy OK

Track 3

Filename R:\EAC Rips\03 - L'Alibi - Una Fotografia.wav

Pre-gap length 0:00:01.00

Peak level 79.4 % Track quality 100.0 % Test CRC FD5F781E Copy CRC FD5F781E Track not present in AccurateRip database Copy OK

Track 4

Filename R:\EAC Rips\04 - Cuore di Mamma - Ouverture del Mattino.wav

Pre-gap length 0:00:01.00

Peak level 100.0 % Track quality 100.0 % Test CRC 33638DCB Copy CRC 33638DCB Track not present in AccurateRip database Copy OK

Track 5

Filename R:\EAC Rips\05 - I Cannibali - Dove Sei, Dove Siete Voi.wav

Pre-gap length 0:00:01.00

Peak level 58.4 % Track quality 100.0 % Test CRC 29A2A92E Copy CRC 29A2A92E Track not present in AccurateRip database Copy OK

Track 6

Filename R:\EAC Rips\06 - Gott Mitt Uns - Lontano.wav

Pre-gap length 0:00:01.00

Peak level 95.6 % Track quality 100.0 % Test CRC DB336115 Copy CRC DB336115 Track not present in AccurateRip database Copy OK

Track 7

Filename R:\EAC Rips\07 - Metti una Sera a Cena - Metti una Sera a Cena.wav

Pre-gap length 0:00:01.00

Peak level 100.0 % Track quality 100.0 % Test CRC D5FD9A36 Copy CRC D5FD9A36 Track not present in AccurateRip database Copy OK

Track 8

Filename R:\EAC Rips\08 - La Monaca di Monza - Falsa Tranquillita'.wav

Pre-gap length 0:00:01.00

Peak level 66.6 % Track quality 100.0 % Test CRC 57912987 Copy CRC 57912987 Track not present in AccurateRip database Copy OK

Track 9

Filename R:\EAC Rips\09 - L'Assoluto Naturale - L'Assoluto Naturale.wav

Pre-gap length 0:00:01.00

Peak level 84.4 % Track quality 100.0 % Test CRC EFEC4333 Copy CRC EFEC4333 Track not present in AccurateRip database Copy OK

Track 10

Filename R:\EAC Rips\10 - Queimada - Abolicao.wav

Pre-gap length 0:00:01.00

Peak level 100.0 % Track quality 100.0 % Test CRC 31906864 Copy CRC 31906864 Track not present in AccurateRip database Copy OK

Track 11

Filename R:\EAC Rips\11 - La Donna Invisibile - Ritratto d'Autore.wav

Pre-gap length 0:00:01.00

Peak level 91.3 % Track quality 99.9 % Test CRC 1AB85F63 Copy CRC 1AB85F63 Track not present in AccurateRip database Copy OK

Track 12

Filename R:\EAC Rips\12 - Sai Cosa Faceva Stalin alle Donne - Sai Cosa Faceva Stalin alle Donne.wav

Pre-gap length 0:00:01.00

Peak level 85.3 % Track quality 100.0 % Test CRC ECFC9813 Copy CRC ECFC9813 Track not present in AccurateRip database Copy OK

Track 13

Filename R:\EAC Rips\13 - Indagine su un Cittadino al di Sopra di Ogni Sospetto - Indagine su un Cittadino....wav

Pre-gap length 0:00:01.00

Peak level 94.8 % Track quality 99.9 % Test CRC 8E57AA1F Copy CRC 8E57AA1F Track not present in AccurateRip database Copy OK

Track 14

Filename R:\EAC Rips\14 - La Califfa - La Califfa.wav

Pre-gap length 0:00:00.98

Peak level 99.8 % Track quality 100.0 % Test CRC 1649C713 Copy CRC 1649C713 Track not present in AccurateRip database Copy OK

Track 15

Filename R:\EAC Rips\15 - Citta' Violenta - Citta' Violenta.wav

Pre-gap length 0:00:01.00

Peak level 100.0 % Track quality 100.0 % Test CRC 8131AD84 Copy CRC 8131AD84 Track not present in AccurateRip database Copy OK

Track 16

Filename R:\EAC Rips\16 - Il Gatto a Novo Code - Ninna Nanna in Blu.wav

Pre-gap length 0:00:01.00

Peak level 83.3 % Track quality 100.0 % Test CRC 0AAD5192 Copy CRC 0AAD5192 Track not present in AccurateRip database Copy OK

Track 17

Filename R:\EAC Rips\17 - La Moglie Piu' Bella - La Moglie Piu' Bella.wav

Pre-gap length 0:00:01.00

Peak level 100.0 % Track quality 99.9 % Test CRC DFDA7A51 Copy CRC DFDA7A51 Track not present in AccurateRip database Copy OK

Track 18

Filename R:\EAC Rips\18 - Metello - Metello.wav

Pre-gap length 0:00:01.00

Peak level 73.0 % Track quality 100.0 % Test CRC 8A47E417 Copy CRC 8A47E417 Track not present in AccurateRip database Copy OK

Track 19

Filename R:\EAC Rips\19 - Vamos a Matar Companeros - Vamos a Matar Companeros.wav

Pre-gap length 0:00:01.00

Peak level 100.0 % Track quality 100.0 % Test CRC 98AAB684 Copy CRC 98AAB684 Track not present in AccurateRip database Copy OK

Track 20

Filename R:\EAC Rips\20 - L'Uccello dalle Piume di Cristallo - Violenza Inattesa.wav

Pre-gap length 0:00:01.00

Peak level 100.0 % Track quality 99.9 % Test CRC E956E8CF Copy CRC E956E8CF Track not present in AccurateRip database Copy OK

None of the tracks are present in the AccurateRip database

No errors occurred

End of status report
 
Exact Audio Copy V0.99 prebeta 4 from 23. January 2008

EAC extraction logfile from 15. March 2009, 5:08

Ennio Morricone / The Complete Edition - Music For Cinema (Disc 4)

Used drive : PLEXTOR CD-R PREMIUM Adapter: 3 ID: 1

Read mode : SecureUtilize accurate stream : YesDefeat audio cache : YesMake use of C2 pointers : No

Read offset correction : 30Overread into Lead-In and Lead-Out : YesFill up missing offset samples with silence : YesDelete leading and trailing silent blocks : NoNull samples used in CRC calculations : YesUsed interface : Native Win32 interface for Win NT & 2000Gap handling : Appended to previous track

Used output format : User Defined EncoderSelected bitrate : 768 kBit/sQuality : HighAdd ID3 tag : NoCommand line compressor : E:\Program Files\Exact Audio Copy\FLAC\FLAC.EXEAdditional command line options : -8 -V -T "ARTIST=%a" -T "TITLE=%t" -T "ALBUM=%g" -T "DATE=%y" -T "TRACKNUMBER=%n" -T "TOTALTRACKS=%x" -T "GENRE=%m" -T "ALBUMARTIST=%v" -T "ALBUM ARTIST=%v" -T "COMMENT=EAC V0.99 prebeta 4, Secure Mode, Test & Copy, Accurat

TOC of the extracted CD

Track | Start | Length | Start sector | End sector --------------------------------------------------------- 1 | 0:00.00 | 4:16.01 | 0 | 19200 2 | 4:16.01 | 2:30.11 | 19201 | 30461 3 | 6:46.12 | 3:20.47 | 30462 | 45508 4 | 10:06.59 | 2:17.50 | 45509 | 55833 5 | 12:24.34 | 2:26.06 | 55834 | 66789 6 | 14:50.40 | 5:24.00 | 66790 | 91089 7 | 20:14.40 | 3:30.12 | 91090 | 106851 8 | 23:44.52 | 3:40.57 | 106852 | 123408 9 | 27:25.34 | 4:07.25 | 123409 | 141958 10 | 31:32.59 | 4:02.57 | 141959 | 160165 11 | 35:35.41 | 4:23.59 | 160166 | 179949 12 | 39:59.25 | 2:55.39 | 179950 | 193113 13 | 42:54.64 | 2:39.31 | 193114 | 205069 14 | 45:34.20 | 2:42.02 | 205070 | 217221 15 | 48:16.22 | 4:46.35 | 217222 | 238706 16 | 53:02.57 | 4:01.50 | 238707 | 256831 17 | 57:04.32 | 3:30.37 | 256832 | 272618 18 | 60:34.69 | 3:49.21 | 272619 | 289814 19 | 64:24.15 | 2:00.53 | 289815 | 298867 20 | 66:24.68 | 4:13.69 | 298868 | 317911

Track 1

Filename R:\EAC Rips\01 - Giu' la Testa - Giu' la Testa.wav

Pre-gap length 0:00:02.00

Peak level 100.0 % Track quality 99.9 % Test CRC 7126F6F4 Copy CRC 7126F6F4 Track not present in AccurateRip database Copy OK

Track 2

Filename R:\EAC Rips\02 - Sacco e Vanzetti - Speranze di Liberta'.wav

Pre-gap length 0:00:01.00

Peak level 67.1 % Track quality 100.0 % Test CRC 9DCCA7B7 Copy CRC 9DCCA7B7 Track not present in AccurateRip database Copy OK

Track 3

Filename R:\EAC Rips\03 - Gli Scassinatori - Gli Scassinatori.wav

Pre-gap length 0:00:01.00

Peak level 86.8 % Track quality 100.0 % Test CRC 3B8EE47A Copy CRC 3B8EE47A Track not present in AccurateRip database Copy OK

Track 4

Filename R:\EAC Rips\04 - La Corta Notte delle Bambole di Vetro - Valzer.wav

Pre-gap length 0:00:01.00

Peak level 98.0 % Track quality 100.0 % Test CRC 84E05E21 Copy CRC 84E05E21 Track not present in AccurateRip database Copy OK

Track 5

Filename R:\EAC Rips\05 - Addio Fratello Crudele - Giovanni e Annabella.wav

Pre-gap length 0:00:01.00

Peak level 99.9 % Track quality 100.0 % Test CRC 9E10C386 Copy CRC 9E10C386 Track not present in AccurateRip database Copy OK

Track 6

Filename R:\EAC Rips\06 - La Classe Operaia Va in Paradiso - La Classe Operaia Va in Paradiso.wav

Pre-gap length 0:00:01.00

Peak level 100.0 % Track quality 100.0 % Test CRC 157647AD Copy CRC 157647AD Track not present in AccurateRip database Copy OK

Track 7

Filename R:\EAC Rips\07 - Maddalena - Chi Mai.wav

Pre-gap length 0:00:01.00

Peak level 82.6 % Track quality 99.9 % Test CRC 2A5A987E Copy CRC 2A5A987E Track not present in AccurateRip database Copy OK

Track 8

Filename R:\EAC Rips\08 - Quattro Mosche di Velluto Grigio - Come un Madrigale.wav

Pre-gap length 0:00:01.00

Peak level 63.6 % Track quality 100.0 % Test CRC 536CEBF8 Copy CRC 536CEBF8 Track not present in AccurateRip database Copy OK

Track 9

Filename R:\EAC Rips\09 - Oceano - Oceano.wav

Pre-gap length 0:00:01.00

Peak level 54.8 % Track quality 100.0 % Test CRC 293D1FC1 Copy CRC 293D1FC1 Track not present in AccurateRip database Copy OK

Track 10

Filename R:\EAC Rips\10 - La Tarantola dal Ventre Nero - L'Abbraccio Caldo della Tarantola.wav

Pre-gap length 0:00:01.00

Peak level 100.0 % Track quality 99.9 % Test CRC 209CFE38 Copy CRC 209CFE38 Track not present in AccurateRip database Copy OK

Track 11

Filename R:\EAC Rips\11 - Senza Movente - Senza Motivo Apparente.wav

Pre-gap length 0:00:01.00

Peak level 100.0 % Track quality 100.0 % Test CRC DD9AF2F5 Copy CRC DD9AF2F5 Track not present in AccurateRip database Copy OK

Track 12

Filename R:\EAC Rips\12 - Veruschka - Veruschka.wav

Pre-gap length 0:00:01.00

Peak level 89.4 % Track quality 100.0 % Test CRC C30CA643 Copy CRC C30CA643 Track not present in AccurateRip database Copy OK

Track 13

Filename R:\EAC Rips\13 - Questa Specie d'Amore - Questa Specie d'Amore.wav

Pre-gap length 0:00:01.00

Peak level 100.0 % Track quality 99.9 % Test CRC 7BF5AD8D Copy CRC 7BF5AD8D Track not present in AccurateRip database Copy OK

Track 14

Filename R:\EAC Rips\14 - Cosa Avete Fatto a Solange - Cosa Avete Fatto a Solange.wav

Pre-gap length 0:00:01.00

Peak level 100.0 % Track quality 99.9 % Test CRC F44828E4 Copy CRC F44828E4 Track not present in AccurateRip database Copy OK

Track 15

Filename R:\EAC Rips\15 - Anche se Volessi Lavorare che Faccio - Lei se ne More.wav

Pre-gap length 0:00:01.00

Peak level 71.9 % Track quality 100.0 % Test CRC 67CA840A Copy CRC 67CA840A Track not present in AccurateRip database Copy OK

Track 16

Filename R:\EAC Rips\16 - Barbablu' - Barbablu'.wav

Pre-gap length 0:00:01.00

Peak level 76.4 % Track quality 100.0 % Test CRC A12E8589 Copy CRC A12E8589 Track not present in AccurateRip database Copy OK

Track 17

Filename R:\EAC Rips\17 - Il Diavolo nel Cervello - La Ragione, il Cuore, l'Amore.wav

Pre-gap length 0:00:01.00

Peak level 87.0 % Track quality 99.9 % Test CRC 5D6AC8DC Copy CRC 5D6AC8DC Track not present in AccurateRip database Copy OK

Track 18

Filename R:\EAC Rips\18 - D'Amore si Muore - Si Muore d'Amore.wav

Pre-gap length 0:00:01.00

Peak level 81.1 % Track quality 100.0 % Test CRC BDF61940 Copy CRC BDF61940 Track not present in AccurateRip database Copy OK

Track 19

Filename R:\EAC Rips\19 - I Bambini ci Chiedone Perche' - Nuovi Angeli.wav

Pre-gap length 0:00:01.00

Peak level 100.0 % Track quality 100.0 % Test CRC 07DF67D2 Copy CRC 07DF67D2 Track not present in AccurateRip database Copy OK

Track 20

Filename R:\EAC Rips\20 - Il Maestro e Margherita - Incontro.wav

Pre-gap length 0:00:01.00

Peak level 87.7 % Track quality 100.0 % Test CRC 41CE9357 Copy CRC 41CE9357 Track not present in AccurateRip database Copy OK

None of the tracks are present in the AccurateRip database

No errors occurred

End of status report
 
Exact Audio Copy V0.99 prebeta 4 from 23. January 2008

EAC extraction logfile from 15. March 2009, 12:17

Ennio Morricone / The Complete Edition - Music For Cinema (Disc 5)

Used drive : PLEXTOR CD-R PREMIUM Adapter: 3 ID: 1

Read mode : SecureUtilize accurate stream : YesDefeat audio cache : YesMake use of C2 pointers : No

Read offset correction : 30Overread into Lead-In and Lead-Out : YesFill up missing offset samples with silence : YesDelete leading and trailing silent blocks : NoNull samples used in CRC calculations : YesUsed interface : Native Win32 interface for Win NT & 2000Gap handling : Appended to previous track

Used output format : User Defined EncoderSelected bitrate : 768 kBit/sQuality : HighAdd ID3 tag : NoCommand line compressor : E:\Program Files\Exact Audio Copy\FLAC\FLAC.EXEAdditional command line options : -8 -V -T "ARTIST=%a" -T "TITLE=%t" -T "ALBUM=%g" -T "DATE=%y" -T "TRACKNUMBER=%n" -T "TOTALTRACKS=%x" -T "GENRE=%m" -T "ALBUMARTIST=%v" -T "ALBUM ARTIST=%v" -T "COMMENT=EAC V0.99 prebeta 4, Secure Mode, Test & Copy, Accurat

TOC of the extracted CD

Track | Start | Length | Start sector | End sector --------------------------------------------------------- 1 | 0:00.00 | 3:08.57 | 0 | 14156 2 | 3:08.57 | 3:24.09 | 14157 | 29465 3 | 6:32.66 | 2:33.40 | 29466 | 40980 4 | 9:06.31 | 3:52.52 | 40981 | 58432 5 | 12:59.08 | 3:38.42 | 58433 | 74824 6 | 16:37.50 | 3:40.16 | 74825 | 91340 7 | 20:17.66 | 2:40.34 | 91341 | 103374 8 | 22:58.25 | 3:22.23 | 103375 | 118547 9 | 26:20.48 | 4:54.68 | 118548 | 140665 10 | 31:15.41 | 4:14.61 | 140666 | 159776 11 | 35:30.27 | 3:40.60 | 159777 | 176336 12 | 39:11.12 | 2:27.49 | 176337 | 187410 13 | 41:38.61 | 1:55.50 | 187411 | 196085 14 | 43:34.36 | 2:41.68 | 196086 | 208228 15 | 46:16.29 | 3:58.42 | 208229 | 226120 16 | 50:14.71 | 3:22.16 | 226121 | 241286 17 | 53:37.12 | 4:12.15 | 241287 | 260201 18 | 57:49.27 | 4:00.23 | 260202 | 278224 19 | 61:49.50 | 4:04.22 | 278225 | 296546 20 | 65:53.72 | 3:26.54 | 296547 | 312050

Track 1

Filename R:\EAC Rips\01 - Il Mio Nome e' Nessuno - Il Mio Nome e' Nessuno.wav

Pre-gap length 0:00:02.00

Peak level 92.6 % Track quality 100.0 % Test CRC 48DB747B Copy CRC 48DB747B Track not present in AccurateRip database Copy OK

Track 2

Filename R:\EAC Rips\02 - Giordano Bruno - Giordano Bruno.wav

Pre-gap length 0:00:01.00

Peak level 100.0 % Track quality 100.0 % Test CRC 5D46F5BF Copy CRC 5D46F5BF Track not present in AccurateRip database Copy OK

Track 3

Filename R:\EAC Rips\03 - Rappresaglia (Massacro a Roma) - Reprisal.wav

Pre-gap length 0:00:01.00

Peak level 84.3 % Track quality 100.0 % Test CRC CAC2D1A1 Copy CRC CAC2D1A1 Track not present in AccurateRip database Copy OK

Track 4

Filename R:\EAC Rips\04 - Allonsanfan - Rabbia e Tarantella.wav

Pre-gap length 0:00:01.00

Peak level 100.0 % Track quality 100.0 % Test CRC 2A308805 Copy CRC 2A308805 Track not present in AccurateRip database Copy OK

Track 5

Filename R:\EAC Rips\05 - Revolver - Inseguimento e Fuga.wav

Pre-gap length 0:00:01.00

Peak level 100.0 % Track quality 100.0 % Test CRC 0C01505B Copy CRC 0C01505B Track not present in AccurateRip database Copy OK

Track 6

Filename R:\EAC Rips\06 - Il Giro nel Mondo degli Innamorati di Peynet - Forse Basta.wav

Pre-gap length 0:00:01.00

Peak level 84.5 % Track quality 100.0 % Test CRC BE40D26C Copy CRC BE40D26C Track not present in AccurateRip database Copy OK

Track 7

Filename R:\EAC Rips\07 - Il Fiore delle Mille e una Notte - Tema di Dunja.wav

Pre-gap length 0:00:01.00

Peak level 100.0 % Track quality 100.0 % Test CRC 4E08D812 Copy CRC 4E08D812 Track not present in AccurateRip database Copy OK

Track 8

Filename R:\EAC Rips\08 - Mussolini Ultimo Atto - Ultimo Atto.wav

Pre-gap length 0:00:01.00

Peak level 50.5 % Track quality 100.0 % Test CRC 3F5319CF Copy CRC 3F5319CF Track not present in AccurateRip database Copy OK

Track 9

Filename R:\EAC Rips\09 - Il Segreto - Il Segreto.wav

Pre-gap length 0:00:01.00

Peak level 89.4 % Track quality 100.0 % Test CRC B7D4742E Copy CRC B7D4742E Track not present in AccurateRip database Copy OK

Track 10

Filename R:\EAC Rips\10 - Trio Infernale - Trio Infernale.wav

Pre-gap length 0:00:01.00

Peak level 88.2 % Track quality 100.0 % Test CRC 912E4A98 Copy CRC 912E4A98 Track not present in AccurateRip database Copy OK

Track 11

Filename R:\EAC Rips\11 - Macchie Solari - Macchie Solari.wav

Pre-gap length 0:00:01.00

Peak level 100.0 % Track quality 99.9 % Test CRC 2D781DE2 Copy CRC 2D781DE2 Track not present in AccurateRip database Copy OK

Track 12

Filename R:\EAC Rips\12 - Milano odia la Polzia non Puo' Sparare - Milano odia la Polzia non Puo' Sparare.wav

Pre-gap length 0:00:01.00

Peak level 78.3 % Track quality 100.0 % Test CRC 9DEBD24F Copy CRC 9DEBD24F Track not present in AccurateRip database Copy OK

Track 13

Filename R:\EAC Rips\13 - Spasmo - Spasmo.wav

Pre-gap length 0:00:01.00

Peak level 66.1 % Track quality 100.0 % Test CRC A9BE304C Copy CRC A9BE304C Track not present in AccurateRip database Copy OK

Track 14

Filename R:\EAC Rips\14 - Gente di Rispetto - Mandolini e Chitarre.wav

Pre-gap length 0:00:01.00

Peak level 63.2 % Track quality 100.0 % Test CRC C8E11864 Copy CRC C8E11864 Track not present in AccurateRip database Copy OK

Track 15

Filename R:\EAC Rips\15 - Libera Amore Mio - Estate 1943.wav

Pre-gap length 0:00:01.00

Peak level 100.0 % Track quality 100.0 % Test CRC E1EA2CA7 Copy CRC E1EA2CA7 Track not present in AccurateRip database Copy OK

Track 16

Filename R:\EAC Rips\16 - La Donna della Domenica - La Donna della Domenica.wav

Pre-gap length 0:00:01.00

Peak level 99.2 % Track quality 99.9 % Test CRC A9776EED Copy CRC A9776EED Track not present in AccurateRip database Copy OK

Track 17

Filename R:\EAC Rips\17 - Il Poliziotto della Brigata Criminale -Paura sulla Citta'.wav

Pre-gap length 0:00:01.00

Peak level 96.1 % Track quality 100.0 % Test CRC F07DE089 Copy CRC F07DE089 Track not present in AccurateRip database Copy OK

Track 18

Filename R:\EAC Rips\18 - Leonor - Leonor.wav

Pre-gap length 0:00:01.00

Peak level 100.0 % Track quality 100.0 % Test CRC F0D93DD8 Copy CRC F0D93DD8 Track not present in AccurateRip database Copy OK

Track 19

Filename R:\EAC Rips\19 - L'Ultimo Treno della Notte - Coincidenze.wav

Pre-gap length 0:00:01.00

Peak level 97.6 % Track quality 100.0 % Test CRC 525096A2 Copy CRC 525096A2 Track not present in AccurateRip database Copy OK

Track 20

Filename R:\EAC Rips\20 - Per le Antiche Scale - Per le Antiche Scale.wav

Pre-gap length 0:00:01.00

Peak level 68.1 % Track quality 100.0 % Test CRC 494ED5C2 Copy CRC 494ED5C2 Track not present in AccurateRip database Copy OK

None of the tracks are present in the AccurateRip database

No errors occurred

End of status report
 
Exact Audio Copy V0.99 prebeta 4 from 23. January 2008

EAC extraction logfile from 15. March 2009, 12:42

Ennio Morricone / The Complete Edition - Music For Cinema (Disc 6)

Used drive : PLEXTOR CD-R PREMIUM Adapter: 3 ID: 1

Read mode : SecureUtilize accurate stream : YesDefeat audio cache : YesMake use of C2 pointers : No

Read offset correction : 30Overread into Lead-In and Lead-Out : YesFill up missing offset samples with silence : YesDelete leading and trailing silent blocks : NoNull samples used in CRC calculations : YesUsed interface : Native Win32 interface for Win NT & 2000Gap handling : Appended to previous track

Used output format : User Defined EncoderSelected bitrate : 768 kBit/sQuality : HighAdd ID3 tag : NoCommand line compressor : E:\Program Files\Exact Audio Copy\FLAC\FLAC.EXEAdditional command line options : -8 -V -T "ARTIST=%a" -T "TITLE=%t" -T "ALBUM=%g" -T "DATE=%y" -T "TRACKNUMBER=%n" -T "TOTALTRACKS=%x" -T "GENRE=%m" -T "ALBUMARTIST=%v" -T "ALBUM ARTIST=%v" -T "COMMENT=EAC V0.99 prebeta 4, Secure Mode, Test & Copy, Accurat

TOC of the extracted CD

Track | Start | Length | Start sector | End sector --------------------------------------------------------- 1 | 0:00.00 | 4:10.04 | 0 | 18753 2 | 4:10.04 | 4:11.00 | 18754 | 37578 3 | 8:21.04 | 1:57.04 | 37579 | 46357 4 | 10:18.08 | 3:16.41 | 46358 | 61098 5 | 13:34.49 | 4:02.50 | 61099 | 79298 6 | 17:37.24 | 2:05.14 | 79299 | 88687 7 | 19:42.38 | 3:10.53 | 88688 | 102990 8 | 22:53.16 | 3:49.62 | 102991 | 120227 9 | 26:43.03 | 3:29.29 | 120228 | 135931 10 | 30:12.32 | 3:09.58 | 135932 | 150164 11 | 33:22.15 | 3:14.02 | 150165 | 164716 12 | 36:36.17 | 5:55.00 | 164717 | 191341 13 | 42:31.17 | 2:56.74 | 191342 | 204615 14 | 45:28.16 | 3:54.12 | 204616 | 222177 15 | 49:22.28 | 3:53.10 | 222178 | 239662 16 | 53:15.38 | 2:25.26 | 239663 | 250563 17 | 55:40.64 | 4:48.40 | 250564 | 272203

Track 1

Filename R:\EAC Rips\01 - Il Deserto dei Tartari - Il Deserto Come Estasi.wav

Pre-gap length 0:00:02.00

Peak level 84.0 % Track quality 99.9 % Test CRC 6BC9C46C Copy CRC 6BC9C46C Track not present in AccurateRip database Copy OK

Track 2

Filename R:\EAC Rips\02 - Novecento - Romanzo.wav

Pre-gap length 0:00:01.00

Peak level 74.0 % Track quality 100.0 % Test CRC 42FC2268 Copy CRC 42FC2268 Track not present in AccurateRip database Copy OK

Track 3

Filename R:\EAC Rips\03 - L'Eredita' Ferramonti - Irene-Dominique.wav

Pre-gap length 0:00:01.00

Peak level 64.8 % Track quality 100.0 % Test CRC E32F226C Copy CRC E32F226C Track not present in AccurateRip database Copy OK

Track 4

Filename R:\EAC Rips\04 - San Babila Ore 20 Un Delito Inutile - San Babila Ore 20.wav

Pre-gap length 0:00:01.00

Peak level 69.6 % Track quality 99.9 % Test CRC F56E3761 Copy CRC F56E3761 Track not present in AccurateRip database Copy OK

Track 5

Filename R:\EAC Rips\05 - Per Amore - Per Amore.wav

Pre-gap length 0:00:01.00

Peak level 81.1 % Track quality 100.0 % Test CRC 1E25B3B3 Copy CRC 1E25B3B3 Track not present in AccurateRip database Copy OK

Track 6

Filename R:\EAC Rips\06 - Una Vita Venduta - Una Piazza di Siviglia.wav

Pre-gap length 0:00:01.00

Peak level 41.8 % Track quality 99.9 % Test CRC 5878E8C6 Copy CRC 5878E8C6 Track not present in AccurateRip database Copy OK

Track 7

Filename R:\EAC Rips\07 - Il Gatto - Il Gatto.wav

Pre-gap length 0:00:01.00

Peak level 88.1 % Track quality 100.0 % Test CRC AACE56E7 Copy CRC AACE56E7 Track not present in AccurateRip database Copy OK

Track 8

Filename R:\EAC Rips\08 - Cosi' Come Sei - Cosi' Come Sei.wav

Pre-gap length 0:00:01.00

Peak level 63.3 % Track quality 100.0 % Test CRC DE913353 Copy CRC DE913353 Track not present in AccurateRip database Copy OK

Track 9

Filename R:\EAC Rips\09 - Dove Vai in Vacanza - Laringomania.wav

Pre-gap length 0:00:01.00

Peak level 100.0 % Track quality 100.0 % Test CRC 40FFE900 Copy CRC 40FFE900 Track not present in AccurateRip database Copy OK

Track 10

Filename R:\EAC Rips\10 - L'Immoralita' - Perche' Simona.wav

Pre-gap length 0:00:01.00

Peak level 79.3 % Track quality 100.0 % Test CRC 581D93D6 Copy CRC 581D93D6 Track not present in AccurateRip database Copy OK

Track 11

Filename R:\EAC Rips\11 - Il Vizietto - Il Vizietto.wav

Pre-gap length 0:00:01.00

Peak level 81.9 % Track quality 100.0 % Test CRC A2A98EA7 Copy CRC A2A98EA7 Track not present in AccurateRip database Copy OK

Track 12

Filename R:\EAC Rips\12 - L'Umanoide - Un Uomo nello Spazio.wav

Pre-gap length 0:00:01.00

Peak level 78.1 % Track quality 99.9 % Test CRC 0EFB9CC0 Copy CRC 0EFB9CC0 Track not present in AccurateRip database Copy OK

Track 13

Filename R:\EAC Rips\13 - Viaggio con Anita - Viaggio con Anita.wav

Pre-gap length 0:00:01.00

Peak level 100.0 % Track quality 99.9 % Test CRC F749E5AD Copy CRC F749E5AD Track not present in AccurateRip database Copy OK

Track 14

Filename R:\EAC Rips\14 - I Come Icaro - I Come Icaro.wav

Pre-gap length 0:00:01.00

Peak level 100.0 % Track quality 100.0 % Test CRC FDD04F14 Copy CRC FDD04F14 Track not present in AccurateRip database Copy OK

Track 15

Filename R:\EAC Rips\15 - Il Giocattolo - Una Tenera Moglie.wav

Pre-gap length 0:00:01.00

Peak level 66.7 % Track quality 100.0 % Test CRC 6C858E21 Copy CRC 6C858E21 Track not present in AccurateRip database Copy OK

Track 16

Filename R:\EAC Rips\16 - Ogro - Atto di Dolore.wav

Pre-gap length 0:00:01.00

Peak level 79.3 % Track quality 100.0 % Test CRC 953427FD Copy CRC 953427FD Track not present in AccurateRip database Copy OK

Track 17

Filename R:\EAC Rips\17 - Il Prato - Il Prato.wav

Pre-gap length 0:00:01.00

Peak level 57.3 % Track quality 99.9 % Test CRC B7576682 Copy CRC B7576682 Track not present in AccurateRip database Copy OK

None of the tracks are present in the AccurateRip database

No errors occurred

End of status report
 
Exact Audio Copy V0.99 prebeta 4 from 23. January 2008

EAC extraction logfile from 15. March 2009, 13:11

Ennio Morricone / The Complete Edition - Music For Cinema (Disc 7)

Used drive : PLEXTOR CD-R PREMIUM Adapter: 3 ID: 1

Read mode : SecureUtilize accurate stream : YesDefeat audio cache : YesMake use of C2 pointers : No

Read offset correction : 30Overread into Lead-In and Lead-Out : YesFill up missing offset samples with silence : YesDelete leading and trailing silent blocks : NoNull samples used in CRC calculations : YesUsed interface : Native Win32 interface for Win NT & 2000Gap handling : Appended to previous track

Used output format : User Defined EncoderSelected bitrate : 768 kBit/sQuality : HighAdd ID3 tag : NoCommand line compressor : E:\Program Files\Exact Audio Copy\FLAC\FLAC.EXEAdditional command line options : -8 -V -T "ARTIST=%a" -T "TITLE=%t" -T "ALBUM=%g" -T "DATE=%y" -T "TRACKNUMBER=%n" -T "TOTALTRACKS=%x" -T "GENRE=%m" -T "ALBUMARTIST=%v" -T "ALBUM ARTIST=%v" -T "COMMENT=EAC V0.99 prebeta 4, Secure Mode, Test & Copy, Accurat

TOC of the extracted CD

Track | Start | Length | Start sector | End sector --------------------------------------------------------- 1 | 0:00.00 | 3:35.00 | 0 | 16124 2 | 3:35.00 | 3:59.27 | 16125 | 34076 3 | 7:34.27 | 2:27.48 | 34077 | 45149 4 | 10:02.00 | 5:33.54 | 45150 | 70178 5 | 15:35.54 | 2:33.20 | 70179 | 81673 6 | 18:08.74 | 2:36.57 | 81674 | 93430 7 | 20:45.56 | 3:00.25 | 93431 | 106955 8 | 23:46.06 | 2:16.39 | 106956 | 117194 9 | 26:02.45 | 4:07.45 | 117195 | 135764 10 | 30:10.15 | 2:14.68 | 135765 | 145882 11 | 32:25.08 | 2:13.57 | 145883 | 155914 12 | 34:38.65 | 3:18.19 | 155915 | 170783 13 | 37:57.09 | 2:54.03 | 170784 | 183836 14 | 40:51.12 | 3:01.54 | 183837 | 197465 15 | 43:52.66 | 3:59.66 | 197466 | 215456 16 | 47:52.57 | 3:50.23 | 215457 | 232729 17 | 51:43.05 | 3:39.23 | 232730 | 249177

Track 1

Filename R:\EAC Rips\01 - La Banchiera - Dedicace.wav

Pre-gap length 0:00:02.00

Peak level 57.2 % Track quality 100.0 % Test CRC DB2D2AA6 Copy CRC DB2D2AA6 Track not present in AccurateRip database Copy OK

Track 2

Filename R:\EAC Rips\02 - Il Ladrone - Il Ladrone.wav

Pre-gap length 0:00:02.00

Peak level 100.0 % Track quality 100.0 % Test CRC DDE3356D Copy CRC DDE3356D Track not present in AccurateRip database Copy OK

Track 3

Filename R:\EAC Rips\03 - Professione Figlio - Dolcissima.wav

Pre-gap length 0:00:02.00

Peak level 80.9 % Track quality 100.0 % Test CRC 87F61ED3 Copy CRC 87F61ED3 Track not present in AccurateRip database Copy OK

Track 4

Filename R:\EAC Rips\04 - Uomini e No - Fucilazione.wav

Pre-gap length 0:00:01.00

Peak level 73.3 % Track quality 99.9 % Test CRC CB9EAB6F Copy CRC CB9EAB6F Track not present in AccurateRip database Copy OK

Track 5

Filename R:\EAC Rips\05 - Stark System - Stark System.wav

Pre-gap length 0:00:01.00

Peak level 72.8 % Track quality 100.0 % Test CRC 53ABDE1F Copy CRC 53ABDE1F Track not present in AccurateRip database Copy OK

Track 6

Filename R:\EAC Rips\06 - Il Bandito Dagli Occhi Azzurri - Citta' Viva.wav

Pre-gap length 0:00:01.00

Peak level 93.2 % Track quality 100.0 % Test CRC 2954F087 Copy CRC 2954F087 Track not present in AccurateRip database Copy OK

Track 7

Filename R:\EAC Rips\07 - Un Sacco Bello - Un Sacco Bello.wav

Pre-gap length 0:00:01.00

Peak level 67.7 % Track quality 99.9 % Test CRC B32730CE Copy CRC B32730CE Track not present in AccurateRip database Copy OK

Track 8

Filename R:\EAC Rips\08 - Bianco, Rosso e Verdone - Bianco, Rosso e Verdone.wav

Pre-gap length 0:00:01.00

Peak level 70.6 % Track quality 100.0 % Test CRC 767293B3 Copy CRC 767293B3 Track not present in AccurateRip database Copy OK

Track 9

Filename R:\EAC Rips\09 - La Disubbidienza - La Disubbidienza.wav

Pre-gap length 0:00:01.00

Peak level 54.5 % Track quality 100.0 % Test CRC 5166A44C Copy CRC 5166A44C Track not present in AccurateRip database Copy OK

Track 10

Filename R:\EAC Rips\10 - La Storia Vera Della Signora Delle Camelie - Alfonsina Delle Camelie.wav

Pre-gap length 0:00:01.00

Peak level 76.7 % Track quality 100.0 % Test CRC 5618982B Copy CRC 5618982B Track not present in AccurateRip database Copy OK

Track 11

Filename R:\EAC Rips\11 - La Tragedia di un Uomo Ridicolo - La Tragedia di un Uomo Ridicolo.wav

Pre-gap length 0:00:01.00

Peak level 74.7 % Track quality 100.0 % Test CRC BDF46BD2 Copy CRC BDF46BD2 Track not present in AccurateRip database Copy OK

Track 12

Filename R:\EAC Rips\12 - Occhio Alla Penna - Non Fare l'Indiano.wav

Pre-gap length 0:00:01.00

Peak level 100.0 % Track quality 99.9 % Test CRC 64F393B2 Copy CRC 64F393B2 Track not present in AccurateRip database Copy OK

Track 13

Filename R:\EAC Rips\13 - Copkiller - Copkiller.wav

Pre-gap length 0:00:01.00

Peak level 96.4 % Track quality 100.0 % Test CRC 7B35D631 Copy CRC 7B35D631 Track not present in AccurateRip database Copy OK

Track 14

Filename R:\EAC Rips\14 - Alzati Spia - Marche En La.wav

Pre-gap length 0:00:01.00

Peak level 80.8 % Track quality 100.0 % Test CRC DC102DDD Copy CRC DC102DDD Track not present in AccurateRip database Copy OK

Track 15

Filename R:\EAC Rips\15 - Le Marginal - Le Marginal.wav

Pre-gap length 0:00:01.00

Peak level 100.0 % Track quality 100.0 % Test CRC 64F169C2 Copy CRC 64F169C2 Track not present in AccurateRip database Copy OK

Track 16

Filename R:\EAC Rips\16 - Les Voleurs de la Nuit - Theme of Young Lovers.wav

Pre-gap length 0:00:01.00

Peak level 100.0 % Track quality 100.0 % Test CRC 6D632E42 Copy CRC 6D632E42 Track not present in AccurateRip database Copy OK

Track 17

Filename R:\EAC Rips\17 - Le Ruffian - Western.wav

Pre-gap length 0:00:01.00

Peak level 100.0 % Track quality 100.0 % Test CRC E139A486 Copy CRC E139A486 Track not present in AccurateRip database Copy OK

None of the tracks are present in the AccurateRip database

No errors occurred

End of status report
 
Exact Audio Copy V0.99 prebeta 4 from 23. January 2008

EAC extraction logfile from 15. March 2009, 13:37

Ennio Morricone / The Complete Edition - Music For Cinema (Disc 8)

Used drive : PLEXTOR CD-R PREMIUM Adapter: 3 ID: 1

Read mode : SecureUtilize accurate stream : YesDefeat audio cache : YesMake use of C2 pointers : No

Read offset correction : 30Overread into Lead-In and Lead-Out : YesFill up missing offset samples with silence : YesDelete leading and trailing silent blocks : NoNull samples used in CRC calculations : YesUsed interface : Native Win32 interface for Win NT & 2000Gap handling : Appended to previous track

Used output format : User Defined EncoderSelected bitrate : 768 kBit/sQuality : HighAdd ID3 tag : NoCommand line compressor : E:\Program Files\Exact Audio Copy\FLAC\FLAC.EXEAdditional command line options : -8 -V -T "ARTIST=%a" -T "TITLE=%t" -T "ALBUM=%g" -T "DATE=%y" -T "TRACKNUMBER=%n" -T "TOTALTRACKS=%x" -T "GENRE=%m" -T "ALBUMARTIST=%v" -T "ALBUM ARTIST=%v" -T "COMMENT=EAC V0.99 prebeta 4, Secure Mode, Test & Copy, Accurat

TOC of the extracted CD

Track | Start | Length | Start sector | End sector --------------------------------------------------------- 1 | 0:00.00 | 3:39.27 | 0 | 16451 2 | 3:39.27 | 4:53.37 | 16452 | 38463 3 | 8:32.64 | 5:01.42 | 38464 | 61080 4 | 13:34.31 | 3:41.01 | 61081 | 77656 5 | 17:15.32 | 2:26.11 | 77657 | 88617 6 | 19:41.43 | 3:41.01 | 88618 | 105193 7 | 23:22.44 | 4:50.21 | 105194 | 126964 8 | 28:12.65 | 1:59.48 | 126965 | 135937 9 | 30:12.38 | 2:27.09 | 135938 | 146971 10 | 32:39.47 | 2:44.18 | 146972 | 159289 11 | 35:23.65 | 3:27.65 | 159290 | 174879 12 | 38:51.55 | 7:24.36 | 174880 | 208215 13 | 46:16.16 | 3:06.14 | 208216 | 222179 14 | 49:22.30 | 5:01.48 | 222180 | 244802 15 | 54:24.03 | 4:22.04 | 244803 | 264456 16 | 58:46.07 | 2:35.68 | 264457 | 276149 17 | 61:22.00 | 2:49.29 | 276150 | 288853 18 | 64:11.29 | 2:14.50 | 288854 | 298953 19 | 66:26.04 | 2:59.00 | 298954 | 312378

Track 1

Filename R:\EAC Rips\01 - C'era una Volta in America - Deborah's Theme (Edda's Version 2008).wav

Pre-gap length 0:00:02.00

Peak level 98.8 % Track quality 100.0 % Test CRC 2E64D56C Copy CRC 2E64D56C Track not present in AccurateRip database Copy OK

Track 2

Filename R:\EAC Rips\02 - Il Pentito - Il Pentito.wav

Pre-gap length 0:00:01.00

Peak level 92.3 % Track quality 100.0 % Test CRC 4E0EF65A Copy CRC 4E0EF65A Track not present in AccurateRip database Copy OK

Track 3

Filename R:\EAC Rips\03 - La Gabbia - Incatenato.wav

Pre-gap length 0:00:01.00

Peak level 85.9 % Track quality 100.0 % Test CRC EA141B74 Copy CRC EA141B74 Track not present in AccurateRip database Copy OK

Track 4

Filename R:\EAC Rips\04 - La Venexiana - Baci Dopo il Tramonto.wav

Pre-gap length 0:00:01.00

Peak level 97.5 % Track quality 100.0 % Test CRC 306CAD7D Copy CRC 306CAD7D Track not present in AccurateRip database Copy OK

Track 5

Filename R:\EAC Rips\05 - The Mission - Gabriel's Oboe.wav

Pre-gap length 0:00:01.00

Peak level 69.5 % Track quality 100.0 % Test CRC 76314F40 Copy CRC 76314F40 Track not present in AccurateRip database Copy OK

Track 6

Filename R:\EAC Rips\06 - Quartiere - Romanzo Quartiere.wav

Pre-gap length 0:00:01.00

Peak level 100.0 % Track quality 100.0 % Test CRC 6BC1BE68 Copy CRC 6BC1BE68 Track not present in AccurateRip database Copy OK

Track 7

Filename R:\EAC Rips\07 - Mosca Addio - Mosca Addio.wav

Pre-gap length 0:00:01.00

Peak level 100.0 % Track quality 100.0 % Test CRC 43BFB174 Copy CRC 43BFB174 Track not present in AccurateRip database Copy OK

Track 8

Filename R:\EAC Rips\08 - The Untouchables - The Strength Of The Righteous.wav

Pre-gap length 0:00:01.00

Peak level 99.9 % Track quality 100.0 % Test CRC 187424CF Copy CRC 187424CF Track not present in AccurateRip database Copy OK

Track 9

Filename R:\EAC Rips\09 - Nuovo Cinema Paradiso - Nuovo Cinema Paradiso.wav

Pre-gap length 0:00:01.00

Peak level 99.9 % Track quality 100.0 % Test CRC F9CE7BBA Copy CRC F9CE7BBA Track not present in AccurateRip database Copy OK

Track 10

Filename R:\EAC Rips\10 - Legami - Legami.wav

Pre-gap length 0:00:01.00

Peak level 91.4 % Track quality 100.0 % Test CRC 7F23831D Copy CRC 7F23831D Track not present in AccurateRip database Copy OK

Track 11

Filename R:\EAC Rips\11 - Tempo di Uccidere - Tempo di Angoscia.wav

Pre-gap length 0:00:01.00

Peak level 69.5 % Track quality 99.9 % Test CRC FA24A0BD Copy CRC FA24A0BD Track not present in AccurateRip database Copy OK

Track 12

Filename R:\EAC Rips\12 - Cacciatori di Navi - Cacciatori di Navi.wav

Pre-gap length 0:00:01.00

Peak level 96.0 % Track quality 100.0 % Test CRC 652BDFEC Copy CRC 652BDFEC Track not present in AccurateRip database Copy OK

Track 13

Filename R:\EAC Rips\13 - Mio Caro Dottor Grasler - Capable Of Love.wav

Pre-gap length 0:00:01.00

Peak level 30.9 % Track quality 100.0 % Test CRC 937CB1E0 Copy CRC 937CB1E0 Track not present in AccurateRip database Copy OK

Track 14

Filename R:\EAC Rips\14 - Stanno Tutti Bene - Viaggio.wav

Pre-gap length 0:00:01.00

Peak level 60.2 % Track quality 100.0 % Test CRC 89749A56 Copy CRC 89749A56 Track not present in AccurateRip database Copy OK

Track 15

Filename R:\EAC Rips\15 - Bugsy - Bugsy.wav

Pre-gap length 0:00:01.00

Peak level 98.0 % Track quality 100.0 % Test CRC 62BD798A Copy CRC 62BD798A Track not present in AccurateRip database Copy OK

Track 16

Filename R:\EAC Rips\16 - La Villa del Venerdi' - La Villa del Venerdi'.wav

Pre-gap length 0:00:01.00

Peak level 40.1 % Track quality 100.0 % Test CRC 463DA4C6 Copy CRC 463DA4C6 Track not present in AccurateRip database Copy OK

Track 17

Filename R:\EAC Rips\17 - La Scorta - La Scorta.wav

Pre-gap length 0:00:01.00

Peak level 94.1 % Track quality 100.0 % Test CRC 11655B0B Copy CRC 11655B0B Track not present in AccurateRip database Copy OK

Track 18

Filename R:\EAC Rips\18 - Jonah Che Visse nella Balena - Ricordi d'Infanzia.wav

Pre-gap length 0:00:01.00

Peak level 71.1 % Track quality 100.0 % Test CRC E0596AE6 Copy CRC E0596AE6 Track not present in AccurateRip database Copy OK

Track 19

Filename R:\EAC Rips\19 - Il Lungo Silenzio - In Morte di un Magistrato.wav

Pre-gap length 0:00:01.00

Peak level 95.3 % Track quality 99.9 % Test CRC 52A38FD9 Copy CRC 52A38FD9 Track not present in AccurateRip database Copy OK

None of the tracks are present in the AccurateRip database

No errors occurred

End of status report
 
Exact Audio Copy V0.99 prebeta 4 from 23. January 2008

EAC extraction logfile from 15. March 2009, 14:00

Ennio Morricone / The Complete Edition - Music For Cinema (Disc 9)

Used drive : PLEXTOR CD-R PREMIUM Adapter: 3 ID: 1

Read mode : SecureUtilize accurate stream : YesDefeat audio cache : YesMake use of C2 pointers : No

Read offset correction : 30Overread into Lead-In and Lead-Out : YesFill up missing offset samples with silence : YesDelete leading and trailing silent blocks : NoNull samples used in CRC calculations : YesUsed interface : Native Win32 interface for Win NT & 2000Gap handling : Appended to previous track

Used output format : User Defined EncoderSelected bitrate : 768 kBit/sQuality : HighAdd ID3 tag : NoCommand line compressor : E:\Program Files\Exact Audio Copy\FLAC\FLAC.EXEAdditional command line options : -8 -V -T "ARTIST=%a" -T "TITLE=%t" -T "ALBUM=%g" -T "DATE=%y" -T "TRACKNUMBER=%n" -T "TOTALTRACKS=%x" -T "GENRE=%m" -T "ALBUMARTIST=%v" -T "ALBUM ARTIST=%v" -T "COMMENT=EAC V0.99 prebeta 4, Secure Mode, Test & Copy, Accurat

TOC of the extracted CD

Track | Start | Length | Start sector | End sector --------------------------------------------------------- 1 | 0:00.00 | 3:23.38 | 0 | 15262 2 | 3:23.38 | 3:35.73 | 15263 | 31460 3 | 6:59.36 | 4:08.07 | 31461 | 50067 4 | 11:07.43 | 2:40.51 | 50068 | 62118 5 | 13:48.19 | 4:23.20 | 62119 | 81863 6 | 18:11.39 | 2:43.05 | 81864 | 94093 7 | 20:54.44 | 7:37.31 | 94094 | 128399 8 | 28:32.00 | 3:19.71 | 128400 | 143395 9 | 31:51.71 | 4:26.17 | 143396 | 163362 10 | 36:18.13 | 4:22.15 | 163363 | 183027 11 | 40:40.28 | 4:16.54 | 183028 | 202281 12 | 44:57.07 | 3:55.34 | 202282 | 219940 13 | 48:52.41 | 5:02.53 | 219941 | 242643 14 | 53:55.19 | 4:17.26 | 242644 | 261944 15 | 58:12.45 | 1:32.07 | 261945 | 268851 16 | 59:44.52 | 3:44.56 | 268852 | 285707 17 | 63:29.33 | 5:37.32 | 285708 | 311014

Track 1

Filename R:\EAC Rips\01 - La Notte e il Momento - A Caccia di Lei.wav

Pre-gap length 0:00:02.00

Peak level 99.6 % Track quality 100.0 % Test CRC B67099B4 Copy CRC B67099B4 Track not present in AccurateRip database Copy OK

Track 2

Filename R:\EAC Rips\02 - L'Uomo Proiettile - L'Uomo Proiettile.wav

Pre-gap length 0:00:01.00

Peak level 99.1 % Track quality 100.0 % Test CRC 747FCE72 Copy CRC 747FCE72 Track not present in AccurateRip database Copy OK

Track 3

Filename R:\EAC Rips\03 - La Lupa - La Lupa.wav

Pre-gap length 0:00:01.00

Peak level 95.8 % Track quality 100.0 % Test CRC 1C72C22B Copy CRC 1C72C22B Track not present in AccurateRip database Copy OK

Track 4

Filename R:\EAC Rips\04 - Pasolini un Delitto Italiano - Vedi il Mio Corpo Crocifisso.wav

Pre-gap length 0:00:01.00

Peak level 39.1 % Track quality 100.0 % Test CRC D4727BDE Copy CRC D4727BDE Track not present in AccurateRip database Copy OK

Track 5

Filename R:\EAC Rips\05 - I Magi Randagi - E' Nato.wav

Pre-gap length 0:00:01.00

Peak level 81.7 % Track quality 100.0 % Test CRC CBBE2E67 Copy CRC CBBE2E67 Track not present in AccurateRip database Copy OK

Track 6

Filename R:\EAC Rips\06 - Ninfa Plebea - Una Favola.wav

Pre-gap length 0:00:01.00

Peak level 95.4 % Track quality 100.0 % Test CRC 2012C274 Copy CRC 2012C274 Track not present in AccurateRip database Copy OK

Track 7

Filename R:\EAC Rips\07 - La Leggenda del Pianista sull'Oceano - The Legend Of The Pianist On The Ocean.wav

Pre-gap length 0:00:01.00

Peak level 100.0 % Track quality 100.0 % Test CRC EF903DB5 Copy CRC EF903DB5 Track not present in AccurateRip database Copy OK

Track 8

Filename R:\EAC Rips\08 - Cartoni Animati - Cartoni Animati.wav

Pre-gap length 0:00:01.00

Peak level 82.5 % Track quality 100.0 % Test CRC 1D809321 Copy CRC 1D809321 Track not present in AccurateRip database Copy OK

Track 9

Filename R:\EAC Rips\09 - Canone Inverso - Finale di un Concerto Romantico Interrotto.wav

Pre-gap length 0:00:01.00

Peak level 99.9 % Track quality 100.0 % Test CRC B132CC08 Copy CRC B132CC08 Track not present in AccurateRip database Copy OK

Track 10

Filename R:\EAC Rips\10 - Malena - Malena.wav

Pre-gap length 0:00:02.00

Peak level 89.1 % Track quality 100.0 % Test CRC CE76729D Copy CRC CE76729D Track not present in AccurateRip database Copy OK

Track 11

Filename R:\EAC Rips\11 - Vatel - Vatel.wav

Pre-gap length 0:00:01.00

Peak level 99.8 % Track quality 100.0 % Test CRC 9231943E Copy CRC 9231943E Track not present in AccurateRip database Copy OK

Track 12

Filename R:\EAC Rips\12 - La Luz Prodigiosa - Passato Remoto.wav

Pre-gap length 0:00:01.00

Peak level 99.0 % Track quality 99.9 % Test CRC A9D876D5 Copy CRC A9D876D5 Track not present in AccurateRip database Copy OK

Track 13

Filename R:\EAC Rips\13 - Musashi - Brivido di Guerra.wav

Pre-gap length 0:00:01.00

Peak level 100.0 % Track quality 100.0 % Test CRC 5FB06B81 Copy CRC 5FB06B81 Track not present in AccurateRip database Copy OK

Track 14

Filename R:\EAC Rips\14 - Al Cuore si Commanda - Amore in Salvo.wav

Pre-gap length 0:00:01.00

Peak level 100.0 % Track quality 99.9 % Test CRC CFEF0A2F Copy CRC CFEF0A2F Track not present in AccurateRip database Copy OK

Track 15

Filename R:\EAC Rips\15 - La Sconosciuta - Giochi Infantili.wav

Pre-gap length 0:00:01.00

Peak level 100.0 % Track quality 100.0 % Test CRC CFFA7838 Copy CRC CFFA7838 Track not present in AccurateRip database Copy OK

Track 16

Filename R:\EAC Rips\16 - Tutte le Donne della mia Vita - Zucchero Filato.wav

Pre-gap length 0:00:01.00

Peak level 97.5 % Track quality 100.0 % Test CRC 130F1AE3 Copy CRC 130F1AE3 Track not present in AccurateRip database Copy OK

Track 17

Filename R:\EAC Rips\17 - Risoluzione 819 - Terza Lamentazione.wav

Pre-gap length 0:00:01.00

Peak level 69.6 % Track quality 100.0 % Test CRC 2186810F Copy CRC 2186810F Track not present in AccurateRip database Copy OK

None of the tracks are present in the AccurateRip database

No errors occurred

End of status report
 
Exact Audio Copy V0.99 prebeta 4 from 23. January 2008

EAC extraction logfile from 15. March 2009, 14:33

Ennio Morricone / The Complete Edition - Music For Television (Disc 10)

Used drive : PLEXTOR CD-R PREMIUM Adapter: 3 ID: 1

Read mode : SecureUtilize accurate stream : YesDefeat audio cache : YesMake use of C2 pointers : No

Read offset correction : 30Overread into Lead-In and Lead-Out : YesFill up missing offset samples with silence : YesDelete leading and trailing silent blocks : NoNull samples used in CRC calculations : YesUsed interface : Native Win32 interface for Win NT & 2000Gap handling : Appended to previous track

Used output format : User Defined EncoderSelected bitrate : 768 kBit/sQuality : HighAdd ID3 tag : NoCommand line compressor : E:\Program Files\Exact Audio Copy\FLAC\FLAC.EXEAdditional command line options : -8 -V -T "ARTIST=%a" -T "TITLE=%t" -T "ALBUM=%g" -T "DATE=%y" -T "TRACKNUMBER=%n" -T "TOTALTRACKS=%x" -T "GENRE=%m" -T "ALBUMARTIST=%v" -T "ALBUM ARTIST=%v" -T "COMMENT=EAC V0.99 prebeta 4, Secure Mode, Test & Copy, Accurat

TOC of the extracted CD

Track | Start | Length | Start sector | End sector --------------------------------------------------------- 1 | 0:00.00 | 2:42.60 | 0 | 12209 2 | 2:42.60 | 3:01.57 | 12210 | 25841 3 | 5:44.42 | 3:37.42 | 25842 | 42158 4 | 9:22.09 | 3:34.35 | 42159 | 58243 5 | 12:56.44 | 3:15.24 | 58244 | 72892 6 | 16:11.68 | 3:21.70 | 72893 | 88037 7 | 19:33.63 | 3:22.26 | 88038 | 103213 8 | 22:56.14 | 2:36.65 | 103214 | 114978 9 | 25:33.04 | 4:30.12 | 114979 | 135240 10 | 30:03.16 | 3:56.71 | 135241 | 153011 11 | 34:00.12 | 7:15.60 | 153012 | 185696 12 | 41:15.72 | 4:08.60 | 185697 | 204356 13 | 45:24.57 | 3:20.18 | 204357 | 219374 14 | 48:45.00 | 3:19.31 | 219375 | 234330 15 | 52:04.31 | 3:48.30 | 234331 | 251460 16 | 55:52.61 | 2:14.72 | 251461 | 261582 17 | 58:07.58 | 2:44.26 | 261583 | 273908 18 | 60:52.09 | 3:43.14 | 273909 | 290647

Track 1

Filename R:\EAC Rips\01 - Tre Donne - Sulla Via del Campidoglio.wav

Pre-gap length 0:00:02.00

Peak level 100.0 % Track quality 100.0 % Test CRC 4DC0833B Copy CRC 4DC0833B Track not present in AccurateRip database Copy OK

Track 2

Filename R:\EAC Rips\02 - Dietro il Processo - Dietro il Processo.wav

Pre-gap length 0:00:02.00

Peak level 89.0 % Track quality 100.0 % Test CRC B07F1931 Copy CRC B07F1931 Track not present in AccurateRip database Copy OK

Track 3

Filename R:\EAC Rips\03 - Invito allo Sport - Stafetta per Due.wav

Pre-gap length 0:00:02.00

Peak level 100.0 % Track quality 100.0 % Test CRC 30DB953C Copy CRC 30DB953C Track not present in AccurateRip database Copy OK

Track 4

Filename R:\EAC Rips\04 - Le Mani Sporche - Nostalgia dei Ricordi.wav

Pre-gap length 0:00:02.00

Peak level 81.1 % Track quality 100.0 % Test CRC 08D908A5 Copy CRC 08D908A5 Track not present in AccurateRip database Copy OK

Track 5

Filename R:\EAC Rips\05 - Orient Express - Le Train.wav

Pre-gap length 0:00:02.00

Peak level 92.8 % Track quality 100.0 % Test CRC A6A7B336 Copy CRC A6A7B336 Track not present in AccurateRip database Copy OK

Track 6

Filename R:\EAC Rips\06 - Marco Polo - Marco Polo.wav

Pre-gap length 0:00:02.00

Peak level 92.8 % Track quality 100.0 % Test CRC FF164BEE Copy CRC FF164BEE Track not present in AccurateRip database Copy OK

Track 7

Filename R:\EAC Rips\07 - La Piovra 2 - Mille Echi.wav

Pre-gap length 0:00:02.00

Peak level 79.2 % Track quality 100.0 % Test CRC D640419D Copy CRC D640419D Track not present in AccurateRip database Copy OK

Track 8

Filename R:\EAC Rips\08 - Via Mala - Via Mala.wav

Pre-gap length 0:00:02.00

Peak level 100.0 % Track quality 100.0 % Test CRC AEEB045C Copy CRC AEEB045C Track not present in AccurateRip database Copy OK

Track 9

Filename R:\EAC Rips\09 - Il Segreto del Sahara - Secret of The Sahara.wav

Pre-gap length 0:00:02.00

Peak level 93.8 % Track quality 100.0 % Test CRC 3A9CCE60 Copy CRC 3A9CCE60 Track not present in AccurateRip database Copy OK

Track 10

Filename R:\EAC Rips\10 - La Piovra 3 - Una Strana Bambina.wav

Pre-gap length 0:00:02.00

Peak level 77.3 % Track quality 100.0 % Test CRC 8C3E9F8B Copy CRC 8C3E9F8B Track not present in AccurateRip database Copy OK

Track 11

Filename R:\EAC Rips\11 - Gli Indifferenti - Gli Indifferenti.wav

Pre-gap length 0:00:02.00

Peak level 94.8 % Track quality 100.0 % Test CRC A92975FD Copy CRC A92975FD Track not present in AccurateRip database Copy OK

Track 12

Filename R:\EAC Rips\12 - Gli Angeli del Potere - Primavera a Praga.wav

Pre-gap length 0:00:02.00

Peak level 97.0 % Track quality 100.0 % Test CRC 9EA77859 Copy CRC 9EA77859 Track not present in AccurateRip database Copy OK

Track 13

Filename R:\EAC Rips\13 - I Promessi Sposi - I Promessi Sposi.wav

Pre-gap length 0:00:02.00

Peak level 97.3 % Track quality 99.9 % Test CRC 8363AC5D Copy CRC 8363AC5D Track not present in AccurateRip database Copy OK

Track 14

Filename R:\EAC Rips\14 - La Piovra 4 - Intimamente.wav

Pre-gap length 0:00:02.00

Peak level 57.8 % Track quality 100.0 % Test CRC 41A15D68 Copy CRC 41A15D68 Track not present in AccurateRip database Copy OK

Track 15

Filename R:\EAC Rips\15 - The Endless Game - The Endless Game.wav

Pre-gap length 0:00:02.00

Peak level 67.8 % Track quality 100.0 % Test CRC 7C2A2D1F Copy CRC 7C2A2D1F Track not present in AccurateRip database Copy OK

Track 16

Filename R:\EAC Rips\16 - Viaggio nel Terrore (Il Sequestro dell'Achille Lauro) - Lauro.wav

Pre-gap length 0:00:02.00

Peak level 91.3 % Track quality 100.0 % Test CRC D29767F9 Copy CRC D29767F9 Track not present in AccurateRip database Copy OK

Track 17

Filename R:\EAC Rips\17 - La Piovra 5 - Giustizia.wav

Pre-gap length 0:00:02.00

Peak level 79.0 % Track quality 99.9 % Test CRC EBCCA243 Copy CRC EBCCA243 Track not present in AccurateRip database Copy OK

Track 18

Filename R:\EAC Rips\18 - Il Principe del Deserto - Il Figlio e la Nostalgia.wav

Pre-gap length 0:00:02.00

Peak level 63.2 % Track quality 100.0 % Test CRC 4E93977F Copy CRC 4E93977F Track not present in AccurateRip database Copy OK

None of the tracks are present in the AccurateRip database

No errors occurred

End of status report
 
Exact Audio Copy V0.99 prebeta 4 from 23. January 2008

EAC extraction logfile from 15. March 2009, 15:15

Ennio Morricone / The Complete Edition - Music For Television (Disc 11)

Used drive : PLEXTOR CD-R PREMIUM Adapter: 3 ID: 1

Read mode : SecureUtilize accurate stream : YesDefeat audio cache : YesMake use of C2 pointers : No

Read offset correction : 30Overread into Lead-In and Lead-Out : YesFill up missing offset samples with silence : YesDelete leading and trailing silent blocks : NoNull samples used in CRC calculations : YesUsed interface : Native Win32 interface for Win NT & 2000Gap handling : Appended to previous track

Used output format : User Defined EncoderSelected bitrate : 768 kBit/sQuality : HighAdd ID3 tag : NoCommand line compressor : E:\Program Files\Exact Audio Copy\FLAC\FLAC.EXEAdditional command line options : -8 -V -T "ARTIST=%a" -T "TITLE=%t" -T "ALBUM=%g" -T "DATE=%y" -T "TRACKNUMBER=%n" -T "TOTALTRACKS=%x" -T "GENRE=%m" -T "ALBUMARTIST=%v" -T "ALBUM ARTIST=%v" -T "COMMENT=EAC V0.99 prebeta 4, Secure Mode, Test & Copy, Accurat

TOC of the extracted CD

Track | Start | Length | Start sector | End sector --------------------------------------------------------- 1 | 0:00.00 | 3:24.25 | 0 | 15324 2 | 3:24.25 | 3:29.37 | 15325 | 31036 3 | 6:53.62 | 3:00.37 | 31037 | 44573 4 | 9:54.24 | 4:27.55 | 44574 | 64653 5 | 14:22.04 | 3:06.13 | 64654 | 78616 6 | 17:28.17 | 4:01.34 | 78617 | 96725 7 | 21:29.51 | 4:16.26 | 96726 | 115951 8 | 25:46.02 | 3:20.17 | 115952 | 130968 9 | 29:06.19 | 3:45.55 | 130969 | 147898 10 | 32:51.74 | 4:25.16 | 147899 | 167789 11 | 37:17.15 | 3:08.36 | 167790 | 181925 12 | 40:25.51 | 5:47.55 | 181926 | 208005 13 | 46:13.31 | 3:47.66 | 208006 | 225096 14 | 50:01.22 | 2:59.54 | 225097 | 238575 15 | 53:01.01 | 2:16.54 | 238576 | 248829 16 | 55:17.55 | 3:39.58 | 248830 | 265312 17 | 58:57.38 | 2:16.72 | 265313 | 275584 18 | 61:14.35 | 4:10.09 | 275585 | 294343 19 | 65:24.44 | 2:57.54 | 294344 | 307672 20 | 68:22.23 | 3:45.26 | 307673 | 324573

Track 1

Filename R:\EAC Rips\01 - La Piovra 6 - Inizio del Caso.wav

Pre-gap length 0:00:02.00

Peak level 100.0 % Track quality 100.0 % Test CRC 203F37E0 Copy CRC 203F37E0 Track not present in AccurateRip database Copy OK

Track 2

Filename R:\EAC Rips\02 - Il Barone - Il Barone.wav

Pre-gap length 0:00:01.00

Peak level 85.1 % Track quality 100.0 % Test CRC 73FA9305 Copy CRC 73FA9305 Track not present in AccurateRip database Copy OK

Track 3

Filename R:\EAC Rips\03 - Missus - Senza Ritorno.wav

Pre-gap length 0:00:01.00

Peak level 94.0 % Track quality 100.0 % Test CRC B796504D Copy CRC B796504D Track not present in AccurateRip database Copy OK

Track 4

Filename R:\EAC Rips\04 - La Piovra 7 - Dolore nell'Anima.wav

Pre-gap length 0:00:01.00

Peak level 100.0 % Track quality 100.0 % Test CRC A85727D0 Copy CRC A85727D0 Track not present in AccurateRip database Copy OK

Track 5

Filename R:\EAC Rips\05 - Nostromo - The Tropical Variation.wav

Pre-gap length 0:00:01.00

Peak level 99.9 % Track quality 100.0 % Test CRC 2AD9963A Copy CRC 2AD9963A Track not present in AccurateRip database Copy OK

Track 6

Filename R:\EAC Rips\06 - La Casa Bruciata - Sia Fatta la tua Volonta'.wav

Pre-gap length 0:00:01.00

Peak level 100.0 % Track quality 100.0 % Test CRC F070E3FF Copy CRC F070E3FF Track not present in AccurateRip database Copy OK

Track 7

Filename R:\EAC Rips\07 - In Fondo al Cuore - Strada di Notte.wav

Pre-gap length 0:00:01.00

Peak level 100.0 % Track quality 99.9 % Test CRC 7B9D5466 Copy CRC 7B9D5466 Track not present in AccurateRip database Copy OK

Track 8

Filename R:\EAC Rips\08 - Ultimo - Ultimo.wav

Pre-gap length 0:00:01.00

Peak level 63.7 % Track quality 99.9 % Test CRC E7009160 Copy CRC E7009160 Track not present in AccurateRip database Copy OK

Track 9

Filename R:\EAC Rips\09 - Ultimo - La Sfida - Citta' Terrestre.wav

Pre-gap length 0:00:01.00

Peak level 62.7 % Track quality 100.0 % Test CRC D4AD70D4 Copy CRC D4AD70D4 Track not present in AccurateRip database Copy OK

Track 10

Filename R:\EAC Rips\10 - I Guardiani del Cielo - I Guardiani del Cielo.wav

Pre-gap length 0:00:01.00

Peak level 89.1 % Track quality 100.0 % Test CRC 9C33B347 Copy CRC 9C33B347 Track not present in AccurateRip database Copy OK

Track 11

Filename R:\EAC Rips\11 - Perlasca - Un Canto Antico.wav

Pre-gap length 0:00:01.00

Peak level 94.2 % Track quality 100.0 % Test CRC 521C0A22 Copy CRC 521C0A22 Track not present in AccurateRip database Copy OK

Track 12

Filename R:\EAC Rips\12 - Il Papa Buono - Il Papa Buono.wav

Pre-gap length 0:00:01.00

Peak level 76.5 % Track quality 100.0 % Test CRC 0E992899 Copy CRC 0E992899 Track not present in AccurateRip database Copy OK

Track 13

Filename R:\EAC Rips\13 - Cefalonia - Nell'Isola, Soli.wav

Pre-gap length 0:00:01.00

Peak level 100.0 % Track quality 100.0 % Test CRC 22323739 Copy CRC 22323739 Track not present in AccurateRip database Copy OK

Track 14

Filename R:\EAC Rips\14 - Il Cuore nel Pozzo - Il Cuore nel Pozzo.wav

Pre-gap length 0:00:01.00

Peak level 93.5 % Track quality 100.0 % Test CRC E85B62D7 Copy CRC E85B62D7 Track not present in AccurateRip database Copy OK

Track 15

Filename R:\EAC Rips\15 - Lucia - Serena Notte.wav

Pre-gap length 0:00:01.00

Peak level 73.2 % Track quality 100.0 % Test CRC 2235AA7B Copy CRC 2235AA7B Track not present in AccurateRip database Copy OK

Track 16

Filename R:\EAC Rips\16 - Karol, un Uomo Diventato Papa - Habemus Papam Giovanni Paolo II.wav

Pre-gap length 0:00:01.00

Peak level 70.6 % Track quality 100.0 % Test CRC DB67102A Copy CRC DB67102A Track not present in AccurateRip database Copy OK

Track 17

Filename R:\EAC Rips\17 - Karol, un Papa Rimasto Uomo - Un Papa Rimasto Uomo.wav

Pre-gap length 0:00:01.00

Peak level 63.0 % Track quality 100.0 % Test CRC 45D203F6 Copy CRC 45D203F6 Track not present in AccurateRip database Copy OK

Track 18

Filename R:\EAC Rips\18 - La Provinciale - La Provinciale.wav

Pre-gap length 0:00:01.00

Peak level 100.0 % Track quality 100.0 % Test CRC B578E8E1 Copy CRC B578E8E1 Track not present in AccurateRip database Copy OK

Track 19

Filename R:\EAC Rips\19 - Giovanni Falcone l'Uomo Che Sfido' Cosa Nostra - Pietas.wav

Pre-gap length 0:00:01.00

Peak level 100.0 % Track quality 100.0 % Test CRC 709F8B82 Copy CRC 709F8B82 Track not present in AccurateRip database Copy OK

Track 20

Filename R:\EAC Rips\20 - L'Ultimo dei Corleonesi - Borsellino e Falcone.wav

Pre-gap length 0:00:01.00

Peak level 99.9 % Track quality 100.0 % Test CRC DFC2A7DE Copy CRC DFC2A7DE Track not present in AccurateRip database Copy OK

None of the tracks are present in the AccurateRip database

No errors occurred

End of status report
 
Exact Audio Copy V0.99 prebeta 4 from 23. January 2008

EAC extraction logfile from 15. March 2009, 15:59

Ennio Morricone / The Complete Edition - Contemporary Classical Music (Disc 12)

Used drive : PLEXTOR CD-R PREMIUM Adapter: 3 ID: 1

Read mode : SecureUtilize accurate stream : YesDefeat audio cache : YesMake use of C2 pointers : No

Read offset correction : 30Overread into Lead-In and Lead-Out : YesFill up missing offset samples with silence : YesDelete leading and trailing silent blocks : NoNull samples used in CRC calculations : YesUsed interface : Native Win32 interface for Win NT & 2000Gap handling : Appended to previous track

Used output format : User Defined EncoderSelected bitrate : 768 kBit/sQuality : HighAdd ID3 tag : NoCommand line compressor : E:\Program Files\Exact Audio Copy\FLAC\FLAC.EXEAdditional command line options : -8 -V -T "ARTIST=%a" -T "TITLE=%t" -T "ALBUM=%g" -T "DATE=%y" -T "TRACKNUMBER=%n" -T "TOTALTRACKS=%x" -T "GENRE=%m" -T "ALBUMARTIST=%v" -T "ALBUM ARTIST=%v" -T "COMMENT=EAC V0.99 prebeta 4, Secure Mode, Test & Copy, Accurat

TOC of the extracted CD

Track | Start | Length | Start sector | End sector --------------------------------------------------------- 1 | 0:00.00 | 1:37.29 | 0 | 7303 2 | 1:37.29 | 4:38.56 | 7304 | 28209 3 | 6:16.10 | 11:54.61 | 28210 | 81820 4 | 18:10.71 | 13:03.15 | 81821 | 140560 5 | 31:14.11 | 20:48.42 | 140561 | 234202 6 | 52:02.53 | 11:05.24 | 234203 | 284101

Track 1

Filename R:\EAC Rips\01 - Mela.wav

Pre-gap length 0:00:02.00

Peak level 100.0 % Track quality 100.0 % Test CRC C94C5E56 Copy CRC C94C5E56 Track not present in AccurateRip database Copy OK

Track 2

Filename R:\EAC Rips\02 - Rag in Frantumi - Per Pianoforte.wav

Pre-gap length 0:00:02.00

Peak level 70.3 % Track quality 100.0 % Test CRC 49B8E8F3 Copy CRC 49B8E8F3 Track not present in AccurateRip database Copy OK

Track 3

Filename R:\EAC Rips\03 - Cadenza - Per Flauto e Nastro Magnetico.wav

Pre-gap length 0:00:02.00

Peak level 54.4 % Track quality 100.0 % Test CRC E973C8C0 Copy CRC E973C8C0 Track not present in AccurateRip database Copy OK

Track 4

Filename R:\EAC Rips\04 - UT - Per Tromba, Archi, Timpani e Grancassa.wav

Pre-gap length 0:00:02.00

Peak level 96.7 % Track quality 100.0 % Test CRC 6FC53B82 Copy CRC 6FC53B82 Track not present in AccurateRip database Copy OK

Track 5

Filename R:\EAC Rips\05 - Quarto Concerto - Per Organo, Due Trombe, Due Tromboni e Orchestra.wav

Pre-gap length 0:00:02.00

Peak level 94.7 % Track quality 99.9 % Test CRC DCC7FFA9 Copy CRC DCC7FFA9 Track not present in AccurateRip database Copy OK

Track 6

Filename R:\EAC Rips\06 - Esercizi - Melodia Interrotta e Improvviso Canonico - Romanze.wav

Pre-gap length 0:00:02.00

Peak level 95.4 % Track quality 100.0 % Test CRC 24E80CBA Copy CRC 24E80CBA Track not present in AccurateRip database Copy OK

None of the tracks are present in the AccurateRip database

No errors occurred

End of status report
 
Exact Audio Copy V0.99 prebeta 4 from 23. January 2008

EAC extraction logfile from 15. March 2009, 16:46

Various / The Complete Edition - Original Songs (Disc 13)

Used drive : PLEXTOR CD-R PREMIUM Adapter: 3 ID: 1

Read mode : SecureUtilize accurate stream : YesDefeat audio cache : YesMake use of C2 pointers : No

Read offset correction : 30Overread into Lead-In and Lead-Out : YesFill up missing offset samples with silence : YesDelete leading and trailing silent blocks : NoNull samples used in CRC calculations : YesUsed interface : Native Win32 interface for Win NT & 2000Gap handling : Appended to previous track

Used output format : User Defined EncoderSelected bitrate : 768 kBit/sQuality : HighAdd ID3 tag : NoCommand line compressor : E:\Program Files\Exact Audio Copy\FLAC\FLAC.EXEAdditional command line options : -8 -V -T "ARTIST=%a" -T "TITLE=%t" -T "ALBUM=%g" -T "DATE=%y" -T "TRACKNUMBER=%n" -T "TOTALTRACKS=%x" -T "GENRE=%m" -T "ALBUMARTIST=%v" -T "ALBUM ARTIST=%v" -T "COMMENT=EAC V0.99 prebeta 4, Secure Mode, Test & Copy, Accurat

TOC of the extracted CD

Track | Start | Length | Start sector | End sector --------------------------------------------------------- 1 | 0:00.00 | 2:50.01 | 0 | 12750 2 | 2:50.01 | 2:41.38 | 12751 | 24863 3 | 5:31.39 | 3:23.33 | 24864 | 40121 4 | 8:54.72 | 2:27.15 | 40122 | 51161 5 | 11:22.12 | 2:18.56 | 51162 | 61567 6 | 13:40.68 | 2:58.38 | 61568 | 74955 7 | 16:39.31 | 2:26.59 | 74956 | 85964 8 | 19:06.15 | 2:49.43 | 85965 | 98682 9 | 21:55.58 | 3:01.15 | 98683 | 112272 10 | 24:56.73 | 2:09.33 | 112273 | 121980 11 | 27:06.31 | 3:07.42 | 121981 | 136047 12 | 30:13.73 | 3:23.04 | 136048 | 151276 13 | 33:37.02 | 2:42.60 | 151277 | 163486 14 | 36:19.62 | 5:07.59 | 163487 | 186570 15 | 41:27.46 | 3:07.72 | 186571 | 200667 16 | 44:35.43 | 3:31.60 | 200668 | 216552 17 | 48:07.28 | 4:25.02 | 216553 | 236429 18 | 52:32.30 | 4:26.04 | 236430 | 256383

Track 1

Filename R:\EAC Rips\01 - Luigi Tenco - Quello Che Conta.wav

Pre-gap length 0:00:02.00

Peak level 59.4 % Track quality 99.9 % Test CRC A2AB30FE Copy CRC A2AB30FE Track not present in AccurateRip database Copy OK

Track 2

Filename R:\EAC Rips\02 - Fausto Cigliano - Cantata Basilisca.wav

Pre-gap length 0:00:01.00

Peak level 96.7 % Track quality 100.0 % Test CRC 0C723BE1 Copy CRC 0C723BE1 Track not present in AccurateRip database Copy OK

Track 3

Filename R:\EAC Rips\03 - Anna Moffo - In Fondo ai Miei Occhi.wav

Pre-gap length 0:00:01.00

Peak level 66.5 % Track quality 100.0 % Test CRC 36458F2B Copy CRC 36458F2B Track not present in AccurateRip database Copy OK

Track 4

Filename R:\EAC Rips\04 - Domenico Modugno - Uccellacci ed Uccellini.wav

Pre-gap length 0:00:01.00

Peak level 100.0 % Track quality 100.0 % Test CRC 17382F3A Copy CRC 17382F3A Track not present in AccurateRip database Copy OK

Track 5

Filename R:\EAC Rips\05 - Maurizio Graf - Angel Face.wav

Pre-gap length 0:00:01.00

Peak level 79.3 % Track quality 100.0 % Test CRC D5ED6575 Copy CRC D5ED6575 Track not present in AccurateRip database Copy OK

Track 6

Filename R:\EAC Rips\06 - Mina - Se Telefonando.wav

Pre-gap length 0:00:01.00

Peak level 75.0 % Track quality 100.0 % Test CRC D476C3E9 Copy CRC D476C3E9 Track not present in AccurateRip database Copy OK

Track 7

Filename R:\EAC Rips\07 - The Sorrows - Pioggia sul Tuo Viso.wav

Pre-gap length 0:00:01.00

Peak level 100.0 % Track quality 99.9 % Test CRC B2997686 Copy CRC B2997686 Track not present in AccurateRip database Copy OK

Track 8

Filename R:\EAC Rips\08 - Christy - Run Man Run.wav

Pre-gap length 0:00:01.00

Peak level 99.9 % Track quality 100.0 % Test CRC D62CC0F2 Copy CRC D62CC0F2 Track not present in AccurateRip database Copy OK

Track 9

Filename R:\EAC Rips\09 - Sergio Endrigo - Canzone della Liberta'.wav

Pre-gap length 0:00:01.00

Peak level 83.9 % Track quality 100.0 % Test CRC 8534838D Copy CRC 8534838D Track not present in AccurateRip database Copy OK

Track 10

Filename R:\EAC Rips\10 - Jackie Lynton - La Ballata di Hank Mc Cain.wav

Pre-gap length 0:00:01.00

Peak level 99.9 % Track quality 100.0 % Test CRC 63BBF423 Copy CRC 63BBF423 Track not present in AccurateRip database Copy OK

Track 11

Filename R:\EAC Rips\11 - Joan Baez - Here's to You.wav

Pre-gap length 0:00:01.00

Peak level 79.3 % Track quality 100.0 % Test CRC 3D9F5B14 Copy CRC 3D9F5B14 Track not present in AccurateRip database Copy OK

Track 12

Filename R:\EAC Rips\12 - Lisa Gastoni - Chi Mai.wav

Pre-gap length 0:00:01.00

Peak level 95.8 % Track quality 100.0 % Test CRC 5776001D Copy CRC 5776001D Track not present in AccurateRip database Copy OK

Track 13

Filename R:\EAC Rips\13 - Milva - La Califfa.wav

Pre-gap length 0:00:01.00

Peak level 88.6 % Track quality 100.0 % Test CRC 7597C540 Copy CRC 7597C540 Track not present in AccurateRip database Copy OK

Track 14

Filename R:\EAC Rips\14 - Demis Roussos - A Flower's All You Need.wav

Pre-gap length 0:00:01.00

Peak level 100.0 % Track quality 99.9 % Test CRC CAD1C12F Copy CRC CAD1C12F Track not present in AccurateRip database Copy OK

Track 15

Filename R:\EAC Rips\15 - Amii Stewart - Saharan Dream.wav

Pre-gap length 0:00:01.00

Peak level 75.9 % Track quality 99.9 % Test CRC D94C58DA Copy CRC D94C58DA Track not present in AccurateRip database Copy OK

Track 16

Filename R:\EAC Rips\16 - Andrea Bocelli - Conradiana.wav

Pre-gap length 0:00:01.00

Peak level 97.8 % Track quality 100.0 % Test CRC E075AB39 Copy CRC E075AB39 Track not present in AccurateRip database Copy OK

Track 17

Filename R:\EAC Rips\17 - Antonella Ruggero - And Will You Love Me.wav

Pre-gap length 0:00:01.00

Peak level 89.1 % Track quality 100.0 % Test CRC B3AC1CD9 Copy CRC B3AC1CD9 Track not present in AccurateRip database Copy OK

Track 18

Filename R:\EAC Rips\18 - Filippa Giordano & Peppe Servillo - L'Alba Verra'.wav

Pre-gap length 0:00:01.00

Peak level 88.1 % Track quality 100.0 % Test CRC B767A7B6 Copy CRC B767A7B6 Track not present in AccurateRip database Copy OK

None of the tracks are present in the AccurateRip database

No errors occurred

End of status report


Трекер:  [ 07-Июл-2011 23:37 ]

  

Скачать .torrent

Размер .torrent файла 56 KB


Размер: 4.84 GB
Хэш (hash) релиза: ffa78f2754e3f82c45865251c2cef9b741a8f355

Еще никто не оставлял запись к записи скачать торрент Ennio Morricone - The Complete Edition . Будь первым!

!Обратная связь