Скачать через торрент музыку Steak Смени лицо бесплатно без регистрации torrent

Если у вас наблюдаются проблемы со скриншотами, переходом по ссылками, скачиванием торрентов - проблемы в блокировщике рекламы AdBlock. #хорошегоДня!


Статистика раздачи
Размер:  207 MB   |    Зарегистрирован:  6 лет 5 месяцев   |    .torrent скачан:  44 раза   |   
Раздают:  1  
   
Загрузка...
 
Автор Сообщение

Galfimbul

avatar Galfimbul


Sebastien Tellier & Mr. Oizo & SebastiAn - Steak


Жанр: Score / Electro
Год выпуска диска: 2007
Производитель диска: France
Catalog: BEC5772112
Аудио кодек: FLAC
Тип рипа: tracks+.cue
Битрейт аудио: lossless
Продолжительность: 00:36:50

1. SebastiAn - Arrival (0:59)
2. Mr. Oizo - Skatesteak (2:10)
3. Sebastien Tellier & Mr. Oizo - Chivers as a Female (2:15)
4. Mr. Oizo - Chuck (0:34)
5. SebastiAn - Letrablise (0:57)
6. Mr. Oizo - Ringardos (2:11)
7. Sebastien Tellier - Stadium (1:39)
8. SebastiAn - Itea (2:04)
9. Sebastien Tellier & Mr. Oizo - Plug It (2:45)
10. Mr. Oizo - X Schmidt (1:05)
11. Sebastien Tellier & Mr. Oizo - Hashis Vers (2:00)
12. Mr. Oizo - Blue Wet Shirt (0:42)
13. SebastiAn - Victimo (1:27)
14. Sebastien Tellier & Mr. Oizo - Top 50 (2:02)
15. Sebastien Tellier - Exploites (3:06)
16. Mr. Oizo - C.H.I.V.E.R.S (2:04)
17. Mr. Oizo - Bonhomme (2:32)
18. Sebastien Tellier & Mr. Oizo - Toizelle (2:11)
19. SebastiAn - Kinder (0:47)
20. Mr. Oizo - Bleue (2:24)
21. Sebastien Tellier & Mr. Oizo - Construction (0:56)


 
Exact Audio Copy V0.99 prebeta 5 from 4. May 2009

EAC extraction logfile from 24. September 2010, 16:04

Various Artists / Steak

Used drive : TSSTcorpCDDVDW SH-S223F Adapter: 1 ID: 1

Read mode : SecureUtilize accurate stream : YesDefeat audio cache : YesMake use of C2 pointers : No

Read offset correction : 6Overread into Lead-In and Lead-Out : NoFill up missing offset samples with silence : YesDelete leading and trailing silent blocks : NoNull samples used in CRC calculations : YesUsed interface : Native Win32 interface for Win NT & 2000Gap handling : Appended to previous track

Used output format : User Defined EncoderSelected bitrate : 1024 kBit/sQuality : HighAdd ID3 tag : NoCommand line compressor : C:\Program Files\Exact Audio Copy\Flac\flac.exeAdditional command line options : -V -8 -T "artist=%a" -T "title=%t" -T "album=%g" -T "date=%y" -T "tracknumber=%n" -T "genre=%m" %s

TOC of the extracted CD

Track | Start | Length | Start sector | End sector --------------------------------------------------------- 1 | 0:00.00 | 0:59.48 | 0 | 4472 2 | 0:59.48 | 2:10.31 | 4473 | 14253 3 | 3:10.04 | 2:15.21 | 14254 | 24399 4 | 5:25.25 | 0:34.21 | 24400 | 26970 5 | 5:59.46 | 0:57.08 | 26971 | 31253 6 | 6:56.54 | 2:11.15 | 31254 | 41093 7 | 9:07.69 | 1:39.36 | 41094 | 48554 8 | 10:47.30 | 2:04.56 | 48555 | 57910 9 | 12:52.11 | 2:45.15 | 57911 | 70300 10 | 15:37.26 | 1:05.03 | 70301 | 75178 11 | 16:42.29 | 2:00.64 | 75179 | 84242 12 | 18:43.18 | 0:42.02 | 84243 | 87394 13 | 19:25.20 | 1:27.33 | 87395 | 93952 14 | 20:52.53 | 2:02.15 | 93953 | 103117 15 | 22:54.68 | 3:06.09 | 103118 | 117076 16 | 26:01.02 | 2:04.31 | 117077 | 126407 17 | 28:05.33 | 2:32.06 | 126408 | 137813 18 | 30:37.39 | 2:11.21 | 137814 | 147659 19 | 32:48.60 | 0:47.44 | 147660 | 151228 20 | 33:36.29 | 2:24.54 | 151229 | 162082 21 | 36:01.08 | 0:56.08 | 162083 | 166290

Track 1

Filename C:\EAC\Steak (2007) - FLAC\01 - SebastiAn - Arrival.wav

Pre-gap length 0:00:02.00

Peak level 83.2 % Track quality 100.0 % Test CRC D8C5903E Copy CRC D8C5903E Accurately ripped (confidence 3) [5C8A3662] Copy OK

Track 2

Filename C:\EAC\Steak (2007) - FLAC\02 - Mr. Oizo - Skatesteak.wav

Pre-gap length 0:00:00.89

Peak level 100.0 % Track quality 100.0 % Test CRC 4303480D Copy CRC 4303480D Accurately ripped (confidence 3) [77EE10FA] Copy OK

Track 3

Filename C:\EAC\Steak (2007) - FLAC\03 - Sebastien Tellier & Mr. Oizo - Chivers as a Female.wav

Pre-gap length 0:00:00.32

Peak level 100.0 % Track quality 100.0 % Test CRC EAD7707F Copy CRC EAD7707F Accurately ripped (confidence 3) [CA672B18] Copy OK

Track 4

Filename C:\EAC\Steak (2007) - FLAC\04 - Mr. Oizo - Chuck.wav

Peak level 79.4 % Track quality 100.0 % Test CRC A01B58EF Copy CRC A01B58EF Accurately ripped (confidence 3) [D236565E] Copy OK

Track 5

Filename C:\EAC\Steak (2007) - FLAC\05 - SebastiAn - Letrablise.wav

Pre-gap length 0:00:00.89

Peak level 92.7 % Track quality 99.8 % Test CRC E44919A8 Copy CRC E44919A8 Accurately ripped (confidence 3) [68A3E3B0] Copy OK

Track 6

Filename C:\EAC\Steak (2007) - FLAC\06 - Mr. Oizo - Ringardos.wav

Pre-gap length 0:00:00.92

Peak level 100.0 % Track quality 100.0 % Test CRC 3461737D Copy CRC 3461737D Accurately ripped (confidence 3) [FA00A8FA] Copy OK

Track 7

Filename C:\EAC\Steak (2007) - FLAC\07 - Sebastien Tellier - Stadium.wav

Pre-gap length 0:00:03.22

Peak level 99.9 % Track quality 100.0 % Test CRC 7FDDC216 Copy CRC 7FDDC216 Accurately ripped (confidence 3) [B247524E] Copy OK

Track 8

Filename C:\EAC\Steak (2007) - FLAC\08 - SebastiAn - Itea.wav

Pre-gap length 0:00:00.96

Peak level 84.5 % Track quality 100.0 % Test CRC D3A82F7C Copy CRC D3A82F7C Accurately ripped (confidence 3) [71E39282] Copy OK

Track 9

Filename C:\EAC\Steak (2007) - FLAC\09 - Sebastien Tellier & Mr. Oizo - Plug It.wav

Peak level 100.0 % Track quality 100.0 % Test CRC 08E4ACB2 Copy CRC 08E4ACB2 Accurately ripped (confidence 3) [41571DE9] Copy OK

Track 10

Filename C:\EAC\Steak (2007) - FLAC\10 - Mr. Oizo - X Schmidt.wav

Pre-gap length 0:00:00.98

Peak level 99.9 % Track quality 100.0 % Test CRC CC355F5A Copy CRC CC355F5A Accurately ripped (confidence 3) [28722366] Copy OK

Track 11

Filename C:\EAC\Steak (2007) - FLAC\11 - Sebastien Tellier & Mr. Oizo - Hashis Vers.wav

Pre-gap length 0:00:02.16

Peak level 100.0 % Track quality 99.9 % Test CRC AB7E9C57 Copy CRC AB7E9C57 Accurately ripped (confidence 3) [255222D9] Copy OK

Track 12

Filename C:\EAC\Steak (2007) - FLAC\12 - Mr. Oizo - Blue Wet Shirt.wav

Peak level 100.0 % Track quality 100.0 % Test CRC 3E8BD017 Copy CRC 3E8BD017 Accurately ripped (confidence 3) [13F1710F] Copy OK

Track 13

Filename C:\EAC\Steak (2007) - FLAC\13 - SebastiAn - Victimo.wav

Pre-gap length 0:00:00.97

Peak level 82.4 % Track quality 100.0 % Test CRC CE9C6E01 Copy CRC CE9C6E01 Accurately ripped (confidence 3) [C09A00BA] Copy OK

Track 14

Filename C:\EAC\Steak (2007) - FLAC\14 - Sebastien Tellier & Mr. Oizo - Top 50.wav

Pre-gap length 0:00:01.22

Peak level 100.0 % Track quality 99.9 % Test CRC 11F11C12 Copy CRC 11F11C12 Accurately ripped (confidence 3) [6475C462] Copy OK

Track 15

Filename C:\EAC\Steak (2007) - FLAC\15 - Sebastien Tellier - Exploites.wav

Pre-gap length 0:00:03.60

Peak level 87.3 % Track quality 100.0 % Test CRC 1A77D2C8 Copy CRC 1A77D2C8 Accurately ripped (confidence 3) [FC7CA573] Copy OK

Track 16

Filename C:\EAC\Steak (2007) - FLAC\16 - Mr. Oizo - C.H.I.V.E.R.S.wav

Pre-gap length 0:00:02.01

Peak level 100.0 % Track quality 100.0 % Test CRC 5B78A8E3 Copy CRC 5B78A8E3 Accurately ripped (confidence 3) [BFF974E9] Copy OK

Track 17

Filename C:\EAC\Steak (2007) - FLAC\17 - Mr. Oizo - Bonhomme.wav

Pre-gap length 0:00:01.57

Peak level 100.0 % Track quality 99.9 % Test CRC 498ABA0E Copy CRC 498ABA0E Accurately ripped (confidence 3) [9B8F3E42] Copy OK

Track 18

Filename C:\EAC\Steak (2007) - FLAC\18 - Sebastien Tellier & Mr. Oizo - Toizelle.wav

Pre-gap length 0:00:03.96

Peak level 100.0 % Track quality 100.0 % Test CRC 0E7FD7F5 Copy CRC 0E7FD7F5 Accurately ripped (confidence 3) [DA3B66F4] Copy OK

Track 19

Filename C:\EAC\Steak (2007) - FLAC\19 - SebastiAn - Kinder.wav

Peak level 73.8 % Track quality 100.0 % Test CRC DE45F9E0 Copy CRC DE45F9E0 Accurately ripped (confidence 3) [ED34F7A9] Copy OK

Track 20

Filename C:\EAC\Steak (2007) - FLAC\20 - Mr. Oizo - Bleue.wav

Pre-gap length 0:00:02.89

Peak level 100.0 % Track quality 100.0 % Test CRC BFB54DD9 Copy CRC BFB54DD9 Accurately ripped (confidence 3) [6A84474C] Copy OK

Track 21

Filename C:\EAC\Steak (2007) - FLAC\21 - Sebastien Tellier & Mr. Oizo - Construction.wav

Pre-gap length 0:00:11.85

Peak level 100.0 % Track quality 100.0 % Test CRC 43DB551E Copy CRC 43DB551E Accurately ripped (confidence 3) [D2B22ADF] Copy OK

All tracks accurately ripped

No errors occurred

End of status report
 
REM GENRE ElektroREM DATE 2007REM DISCID 2108A915REM COMMENT "ExactAudioCopy v0.99pb5"FILE "01 - SebastiAn - Arrival.wav" WAVE TRACK 01 AUDIO INDEX 01 00:00:00 TRACK 02 AUDIO INDEX 00 00:58:56FILE "02 - Mr. Oizo - Skatesteak.wav" WAVE INDEX 01 00:00:00 TRACK 03 AUDIO INDEX 00 02:10:07FILE "03 - Sebastien Tellier & Mr. Oizo - Chivers as a Female.wav" WAVE INDEX 01 00:00:00FILE "04 - Mr. Oizo - Chuck.wav" WAVE TRACK 04 AUDIO INDEX 01 00:00:00 TRACK 05 AUDIO INDEX 00 00:33:29FILE "05 - SebastiAn - Letrablise.wav" WAVE INDEX 01 00:00:00 TRACK 06 AUDIO INDEX 00 00:56:14FILE "06 - Mr. Oizo - Ringardos.wav" WAVE INDEX 01 00:00:00 TRACK 07 AUDIO INDEX 00 02:07:73FILE "07 - Sebastien Tellier - Stadium.wav" WAVE INDEX 01 00:00:00 TRACK 08 AUDIO INDEX 00 01:38:39FILE "08 - SebastiAn - Itea.wav" WAVE INDEX 01 00:00:00FILE "09 - Sebastien Tellier & Mr. Oizo - Plug It.wav" WAVE TRACK 09 AUDIO INDEX 01 00:00:00 TRACK 10 AUDIO INDEX 00 02:44:16FILE "10 - Mr. Oizo - X Schmidt.wav" WAVE INDEX 01 00:00:00 TRACK 11 AUDIO INDEX 00 01:02:66FILE "11 - Sebastien Tellier & Mr. Oizo - Hashis Vers.wav" WAVE INDEX 01 00:00:00FILE "12 - Mr. Oizo - Blue Wet Shirt.wav" WAVE TRACK 12 AUDIO INDEX 01 00:00:00 TRACK 13 AUDIO INDEX 00 00:41:04FILE "13 - SebastiAn - Victimo.wav" WAVE INDEX 01 00:00:00 TRACK 14 AUDIO INDEX 00 01:26:16FILE "14 - Sebastien Tellier & Mr. Oizo - Top 50.wav" WAVE INDEX 01 00:00:00 TRACK 15 AUDIO INDEX 00 01:58:45FILE "15 - Sebastien Tellier - Exploites.wav" WAVE INDEX 01 00:00:00 TRACK 16 AUDIO INDEX 00 03:04:08FILE "16 - Mr. Oizo - C.H.I.V.E.R.S.wav" WAVE INDEX 01 00:00:00 TRACK 17 AUDIO INDEX 00 02:02:63FILE "17 - Mr. Oizo - Bonhomme.wav" WAVE INDEX 01 00:00:00 TRACK 18 AUDIO INDEX 00 02:28:09FILE "18 - Sebastien Tellier & Mr. Oizo - Toizelle.wav" WAVE INDEX 01 00:00:00FILE "19 - SebastiAn - Kinder.wav" WAVE TRACK 19 AUDIO INDEX 01 00:00:00 TRACK 20 AUDIO INDEX 00 00:44:52FILE "20 - Mr. Oizo - Bleue.wav" WAVE INDEX 01 00:00:00 TRACK 21 AUDIO INDEX 00 02:12:65FILE "21 - Sebastien Tellier & Mr. Oizo - Construction.wav" WAVE INDEX 01 00:00:00
from what.cd


Трекер:  [ 07-Июл-2011 23:36 ]

  

Скачать .torrent

Размер .torrent файла 18 KB


Размер: 207 MB
Хэш (hash) релиза: 0116179a1ff40be00c96cb5ff0f2ec1693524a99

Торренты, похожие на Steak Смени лицо скачать торрент

Форум Название Автор Размер S L Добавлен
Саундтреки к фильмам и мультфильмам (mp3) ·· (Soundtrack) Steak/Смени лицо - 2007, MP3, 320 kbps Galfimbul 8949420385 MB 0 0 1464284619

20:43

26-Май-16

Саундтреки к фильмам и мультфильмам (mp3) ·· (Soundtrack) Steak/Смени лицо 2007 [MP3, 192kb/s] - 2007, MP3, 192 kbps Galfimbul 5325837451 MB 0 0 1460523994

08:06

13-Апр-16

Еще никто не оставлял запись к записи скачать торрент Steak Смени лицо . Будь первым!

!Обратная связь