Скачать через торрент музыку Кокаин Blow - 2001, FLAC бесплатно без регистрации torrent

Если у вас наблюдаются проблемы со скриншотами, переходом по ссылками, скачиванием торрентов - проблемы в блокировщике рекламы AdBlock. #хорошегоДня!


Статистика раздачи
Размер:  367 MB   |    Зарегистрирован:  6 лет 5 месяцев   |    .torrent скачан:  48 раз   |   
Раздают:  1  
   
Загрузка...
 
Автор Сообщение

Galfimbul

avatar Galfimbul


Кокаин / Blow

Жанр: Ost, Rock
Год выпуска диска: 2001
Производитель диска: Virgin Records Us
Аудио кодек: FLAC
Тип рипа: tracks+.cue
Битрейт аудио: lossless
Продолжительность: 55:38

Трэклист:
1. Can't You Hear Me Knocking - The Rolling Stones
2. Rumble - Link Wray
3. Glad and Sorry - Faces
4. Strange Brew - Cream
5. Black Betty - Ram Jam
6. Blinded By the Light - Manfred Mann's Earth Band
7. Let's Boogaloo - Willie Rosario
8. Keep It Comin' Love - KC & the Sunshine Band
9. Yellow World
10. That Smell - Lynyrd Skynyrd
11. All the Tired Horses - Bob Dylan
12. Can't You See - The Marshall Tucker Band
13. Push & Pull - Nikka Costa

Доп. информация: Даже не знаю что сказать про этот потрясающий саундтрек... Один из лучших ost к отличному фильму. Атмосфера 70-80'х, The Rolling Stones, Bob Dylan и еще много замечательных музыкантов! Наслаждайтесь!
EAC extraction logfile from 17. November 2007, 11:42 for CD
Various / Blow

Used drive : HL-DT-STRW/DVD GCC-4242N Adapter: 1 ID: 0
Read mode : Secure with NO C2, accurate stream, disable cache
Read offset correction : 102
Overread into Lead-In and Lead-Out : No

Used output format : Internal WAV Routines
44.100 Hz; 16 Bit; Stereo

Other options :
Fill up missing offset samples with silence : Yes
Delete leading and trailing silent blocks : No
Installed external ASPI interface

Track 1
Filename C:\Documents and Settings\Owner\Desktop\Blow\01 - Can't You Hear Me Knocking.wav

Pre-gap length 0:00:02.00

Peak level 98.8 %
Track quality 100.0 %
Test CRC 0017B18A
Copy CRC 0017B18A
Copy OK

Track 2
Filename C:\Documents and Settings\Owner\Desktop\Blow\02 - Rumble.wav

Pre-gap length 0:00:01.84

Peak level 98.8 %
Track quality 100.0 %
Test CRC 563DC34F
Copy CRC 563DC34F
Copy OK

Track 3
Filename C:\Documents and Settings\Owner\Desktop\Blow\03 - Glad And Sorry.wav

Pre-gap length 0:00:01.33

Peak level 98.8 %
Track quality 100.0 %
Test CRC DE1BEEC3
Copy CRC DE1BEEC3
Copy OK

Track 4
Filename C:\Documents and Settings\Owner\Desktop\Blow\04 - Strange Brew.wav

Pre-gap length 0:00:02.53

Peak level 98.8 %
Track quality 100.0 %
Test CRC 2D9DFA7B
Copy CRC 2D9DFA7B
Copy OK

Track 5
Filename C:\Documents and Settings\Owner\Desktop\Blow\05 - Black Betty.wav

Pre-gap length 0:00:02.60

Peak level 98.8 %
Track quality 99.9 %
Test CRC 6489B7EA
Copy CRC 6489B7EA
Copy OK

Track 6
Filename C:\Documents and Settings\Owner\Desktop\Blow\06 - Blinded By The Light.wav

Pre-gap length 0:00:01.00

Peak level 98.8 %
Track quality 100.0 %
Test CRC EB6AFF23
Copy CRC EB6AFF23
Copy OK

Track 7
Filename C:\Documents and Settings\Owner\Desktop\Blow\07 - Let's Boogaloo.wav

Pre-gap length 0:00:02.73

Peak level 98.8 %
Track quality 99.9 %
Test CRC FAFC51B4
Copy CRC FAFC51B4
Copy OK

Track 8
Filename C:\Documents and Settings\Owner\Desktop\Blow\08 - Keep It Comin' Love.wav

Pre-gap length 0:00:01.37

Peak level 98.8 %
Track quality 99.9 %
Test CRC CC5001B3
Copy CRC CC5001B3
Copy OK

Track 9
Filename C:\Documents and Settings\Owner\Desktop\Blow\09 - Yellow World.wav

Pre-gap length 0:00:01.84

Peak level 98.8 %
Track quality 100.0 %
Test CRC 1DE3BE1F
Copy CRC 1DE3BE1F
Copy OK

Track 10
Filename C:\Documents and Settings\Owner\Desktop\Blow\10 - That Smell.wav

Pre-gap length 0:00:01.02

Peak level 98.8 %
Track quality 100.0 %
Test CRC 2A9D2285
Copy CRC 2A9D2285
Copy OK

Track 11
Filename C:\Documents and Settings\Owner\Desktop\Blow\11 - All The Tired Horses.wav

Pre-gap length 0:00:01.26

Peak level 98.3 %
Track quality 100.0 %
Test CRC 69A1F6A5
Copy CRC 69A1F6A5
Copy OK

Track 12
Filename C:\Documents and Settings\Owner\Desktop\Blow\12 - Can't You See.wav

Pre-gap length 0:00:01.73

Peak level 98.3 %
Track quality 100.0 %
Test CRC 39636391
Copy CRC 39636391
Copy OK

Track 13
Filename C:\Documents and Settings\Owner\Desktop\Blow\13 - Push & Pull.wav

Pre-gap length 0:00:02.73

Peak level 98.8 %
Track quality 100.0 %
Test CRC 3BD49B5A
Copy CRC 3BD49B5A
Copy OK

No errors occured

End of status report


Трекер:  [ 07-Июл-2011 23:34 ]

  

Скачать .torrent

Размер .torrent файла 16 KB


Размер: 367 MB
Хэш (hash) релиза: 4962e3bfede12c0a1925e0b5e0865f42c130339a

Торренты, похожие на Кокаин Blow - 2001, FLAC скачать торрент

Форум Название Автор Размер S L Добавлен
Саундтреки к фильмам и мультфильмам (lossless) ·· (Score) Кокаин / Blow (Blow(sfx)) (Graeme Revell) - 2001, FLAC (tracks), lossless Galfimbul 178715834170 MB 0 0 1470003409

01:16

1-Авг-16

Еще никто не оставлял запись к записи скачать торрент Кокаин Blow - 2001, FLAC . Будь первым!

!Обратная связь