Скачать через торрент музыку Лови волну! Surfs Up — 311, Incubus, Sugar Ray, Pearl Jam & Various — 2007, FLAC бесплатно без регистрации torrent

Если у вас наблюдаются проблемы со скриншотами, переходом по ссылками, скачиванием торрентов - проблемы в блокировщике рекламы AdBlock. #хорошегоДня!


Статистика раздачи
Размер:  347 MB   |    Зарегистрирован:  6 лет 5 месяцев   |    .torrent скачан:  41 раз   |   
Раздают:  1  
   
Загрузка...
 
Автор Сообщение

Galfimbul

avatar Galfimbul


Surf's Up

Жанр
: Soundtrack
Год выпуска диска: 2007
Производитель диска: Россия (Sony, «БМГ Россия»)
Аудио кодек: FLAC
Тип рипа: tracks+.cue
Битрейт аудио: lossless
Продолжительность: 0:50:35
01. 311 — Reggae Got Soul 3:11
02.
Incubus — Drive 3:54
03.
Dirty Heads — Stand Tall 3:13
04.
Lauryn Hill — Lose Myself 4:36
05.
Ken Andrews — Just Say Yes 3:40
06.
Forro in the Dark — Forrowest 4:46
07.
Nine Black Alps — Pocket Full of Stars 3:32
08.
Sugar Ray — Into Yesterday 4:13
09.
Pearl Jam — Big Wave 2:59
10.
Big Nose — Wipe Out 1:42
11.
Priestess — Run Home (Instrumental) 3:38
12.
The Romantics — What I Like about You 2:58
13.
New Radicals — You Get what You Give 4:59
14.
Bob Wills & His Texas Playboys — Hawaiian War Chant (Ta-Hu-Wa-Hu-Wai) 3:15
 
Exact Audio Copy V0.99 prebeta 4 from 23. January 2008

EAC extraction logfile from 27. September 2009, 3:07

Various / Surf's Up

Used drive : TOSHIBA CDW/DVD SD-R1612 Adapter: 3 ID: 0

Read mode : SecureUtilize accurate stream : YesDefeat audio cache : YesMake use of C2 pointers : No

Read offset correction : 6Overread into Lead-In and Lead-Out : NoFill up missing offset samples with silence : YesDelete leading and trailing silent blocks : NoNull samples used in CRC calculations : YesUsed interface : Native Win32 interface for Win NT & 2000Gap handling : Appended to previous track

Used output format : Internal WAV RoutinesSample format : 44.100 Hz; 16 Bit; Stereo

TOC of the extracted CD

Track | Start | Length | Start sector | End sector --------------------------------------------------------- 1 | 0:00.00 | 3:10.50 | 0 | 14299 2 | 3:10.50 | 3:54.10 | 14300 | 31859 3 | 7:04.60 | 3:13.00 | 31860 | 46334 4 | 10:17.60 | 4:36.15 | 46335 | 67049 5 | 14:54.00 | 3:40.10 | 67050 | 83559 6 | 18:34.10 | 4:45.40 | 83560 | 104974 7 | 23:19.50 | 3:32.20 | 104975 | 120894 8 | 26:51.70 | 4:13.05 | 120895 | 139874 9 | 31:05.00 | 2:59.00 | 139875 | 153299 10 | 34:04.00 | 1:42.00 | 153300 | 160949 11 | 35:46.00 | 3:37.50 | 160950 | 177274 12 | 39:23.50 | 2:58.00 | 177275 | 190624 13 | 42:21.50 | 4:58.40 | 190625 | 213014 14 | 47:20.15 | 3:14.50 | 213015 | 227614

Track 1

Filename V:\EAX\01 - 311 - Reggae Got Soul.wav

Pre-gap length 0:00:02.00

Peak level 98.7 % Track quality 100.0 % Test CRC F12155A6 Copy CRC F12155A6 Copy OK

Track 2

Filename V:\EAX\02 - Incubus - Drive.wav

Pre-gap length 0:00:01.43

Peak level 98.7 % Track quality 100.0 % Test CRC 395C7518 Copy CRC 395C7518 Copy OK

Track 3

Filename V:\EAX\03 - Dirty Heads - Stand Tall.wav

Pre-gap length 0:00:01.13

Peak level 98.7 % Track quality 100.0 % Test CRC DAAEEA90 Copy CRC DAAEEA90 Copy OK

Track 4

Filename V:\EAX\04 - Lauryn Hill - Lose Myself.wav

Pre-gap length 0:00:01.05

Peak level 99.3 % Track quality 100.0 % Test CRC 47A71EDF Copy CRC 47A71EDF Copy OK

Track 5

Filename V:\EAX\05 - Ken Andrews - Just Say Yes.wav

Pre-gap length 0:00:00.65

Peak level 99.6 % Track quality 99.9 % Test CRC B940463A Copy CRC B940463A Copy OK

Track 6

Filename V:\EAX\06 - Forro in the Dark - Forrowest.wav

Peak level 94.1 % Track quality 100.0 % Test CRC EFC6C622 Copy CRC EFC6C622 Copy OK

Track 7

Filename V:\EAX\07 - Nine Black Alps - Pocket Full of Stars.wav

Pre-gap length 0:00:00.68

Peak level 98.2 % Track quality 100.0 % Test CRC 236A1DEB Copy CRC 236A1DEB Copy OK

Track 8

Filename V:\EAX\08 - Sugar Ray - Into Yesterday.wav

Peak level 98.0 % Track quality 100.0 % Test CRC B6263CF8 Copy CRC B6263CF8 Copy OK

Track 9

Filename V:\EAX\09 - Pearl Jam - Big Wave.wav

Pre-gap length 0:00:01.45

Peak level 98.7 % Track quality 99.9 % Test CRC 7BEE5E80 Copy CRC 7BEE5E80 Copy OK

Track 10

Filename V:\EAX\10 - Big Nose - Wipe Out.wav

Pre-gap length 0:00:01.03

Peak level 97.3 % Track quality 100.0 % Test CRC 8D1FE545 Copy CRC 8D1FE545 Copy OK

Track 11

Filename V:\EAX\11 - Priestess - Run Home (Instrumental).wav

Pre-gap length 0:00:00.35

Peak level 97.1 % Track quality 100.0 % Test CRC AFDE48FB Copy CRC AFDE48FB Copy OK

Track 12

Filename V:\EAX\12 - The Romantics - What I Like about You.wav

Pre-gap length 0:00:00.50

Peak level 99.5 % Track quality 99.9 % Test CRC 4CDEB206 Copy CRC 4CDEB206 Copy OK

Track 13

Filename V:\EAX\13 - New Radicals - You Get what You Give.wav

Pre-gap length 0:00:00.70

Peak level 98.7 % Track quality 99.9 % Test CRC AEBE6C69 Copy CRC AEBE6C69 Copy OK

Track 14

Filename V:\EAX\14 - Bob Wills & his Texas Playboys - Hawaiian War Chant (Ta-Hu-Wa-Hu-Wai).wav

Pre-gap length 0:00:01.40

Peak level 98.0 % Track quality 100.0 % Test CRC 3536CA4B Copy CRC 3536CA4B Copy OK

No errors occurred

End of status report

Код:

[Verification date: 27.9.9 13:51:41]
[Disc ID: 001a6c2e-0118f30d-ba0bda0e]
Track [ CRC    ] Status
01    [e4f69d0f] (07/10) Accurately ripped as in pressing(s) #1
02    [16da12c3] (07/10) Accurately ripped as in pressing(s) #1
03    [a30bb993] (07/10) Accurately ripped as in pressing(s) #1
04    [1f59e0be] (07/10) Accurately ripped as in pressing(s) #1
05    [4b2b12a5] (07/10) Accurately ripped as in pressing(s) #1
06    [428be91a] (07/10) Accurately ripped as in pressing(s) #1
07    [3533ef62] (07/10) Accurately ripped as in pressing(s) #1
08    [83a5c20a] (07/10) Accurately ripped as in pressing(s) #1
09    [4ee87d89] (07/10) Accurately ripped as in pressing(s) #1
10    [5942c775] (07/10) Accurately ripped as in pressing(s) #1
11    [f300aa76] (06/09) Accurately ripped as in pressing(s) #1
12    [9756bd8e] (07/10) Accurately ripped as in pressing(s) #1
13    [2b7b7cf4] (07/10) Accurately ripped as in pressing(s) #1
14    [42cfa0e2] (07/10) Accurately ripped as in pressing(s) #1
Offsetted by -646:
01    [1bf5ef25] (03/10) Accurately ripped as in pressing(s) #2
02    [c753956d] (03/10) Accurately ripped as in pressing(s) #2
03    [9e5fcd39] (03/10) Accurately ripped as in pressing(s) #2
04    [265703b1] (03/10) Accurately ripped as in pressing(s) #2
05    [88294cdb] (03/10) Accurately ripped as in pressing(s) #2
06    [28b1fc4e] (03/10) Accurately ripped as in pressing(s) #2
07    [ebeff27e] (03/10) Accurately ripped as in pressing(s) #2
08    [be1bfc7a] (03/10) Accurately ripped as in pressing(s) #2
09    [a9ee6030] (03/10) Accurately ripped as in pressing(s) #2
10    [3fe905ca] (03/10) Accurately ripped as in pressing(s) #2
11    [6dd92d3a] (03/09) Accurately ripped as in pressing(s) #2
12    [c63dc13c] (03/10) Accurately ripped as in pressing(s) #2
13    [33aab237] (03/10) Accurately ripped as in pressing(s) #2
14    [86e2cd8f] (03/10) Accurately ripped as in pressing(s) #2

Track [ CRC32  ]    [W/O NULL]
--    [B76F0558]    [C406A91C]
01    [F12155A6]    [AB53833E]
02    [395C7518]    [427F0477]
03    [DAAEEA90]    [F13F0CF1]
04    [47A71EDF]    [42173541]
05    [B940463A]    [6ED7D5C1]
06    [EFC6C622]    [EE81B1FB]
07    [236A1DEB]    [7709284F]
08    [B6263CF8]    [0AC060EC]
09    [7BEE5E80]    [7278C3A6]
10    [8D1FE545]    [D72AB4B7]
11    [AFDE48FB]    [1DEA5A48]
12    [4CDEB206]    [B9DEEC73]
13    [AEBE6C69]    [ACA37FC7]
14    [3536CA4B]    [1F6BF609]


Трекер:  [ 07-Июл-2011 23:34 ]

  

Скачать .torrent

Размер .torrent файла 21 KB


Размер: 347 MB
Хэш (hash) релиза: 87440971be4d49fb7d0c35b33fa41b38913038d1

Торренты, похожие на Лови волну! Surfs Up — 311, Incubus, Sugar Ray, Pearl Jam & Various — 2007, FLAC скачать торрент

Форум Название Автор Размер S L Добавлен
Саундтреки к фильмам и мультфильмам (lossless) ·· (Soundtrack/MF) Лови волну! / Surf's Up — 311, Incubus, Sugar Ray, Pearl Jam & Various — 2007, FLAC (tracks+.cue), lossless Galfimbul 364358569347 MB 0 0 1495463136

17:25

22-Май-17

Еще никто не оставлял запись к записи скачать торрент Лови волну! Surfs Up — 311, Incubus, Sugar Ray, Pearl Jam & Various — 2007, FLAC . Будь первым!

!Обратная связь