Скачать через торрент музыку The Lake House бесплатно без регистрации torrent

Если у вас наблюдаются проблемы со скриншотами, переходом по ссылками, скачиванием торрентов - проблемы в блокировщике рекламы AdBlock. #хорошегоДня!


Статистика раздачи
Размер:  294 MB   |    Зарегистрирован:  6 лет 5 месяцев   |    .torrent скачан:  38 раз   |   
Раздают:  1  
   
Загрузка...
 
Автор Сообщение

Galfimbul

avatar Galfimbul


The Lake House. Original Motion Picture SoundTrack. Music by Rachel Portman

Дом У Озера. Оригинальный СаундТрек Из Кинофильма. Музыка Рейчел Портман
Жанр: SoundTrack
Год выпуска диска: 2006
Производитель диска: USA
Аудио кодек: FLAC
Тип рипа: image+.cue
Битрейт аудио: lossless
Продолжительность: 49:21

Трэклист:
01. Paul McCartney - This Never Happened Before [3:27]
02.
The Clientele - (I Can't Seem to) Make You Mine [3:38]
03.
Eels - Time Has Told Me [4:26]
04.
Carole King - Ant Farm [2:14]
05.
Rachel Portman - It's Too Late [3:57]
06.
Rachel Portman - The Lakehouse [3:17]
07.
Rachel Portman - Pawprints [1:22]
08.
Rachel Portman - Tough Week [1:09]
09.
Rachel Portman - Mailbox [0:59]
10.
Rachel Portman - Sunsets [5:01]
11.
Rachel Portman - Alex's Father [6:47]
12.
Rachel Portman - Il Mare [3:01]
13.
Rachel Portman - Tell Me More [2:24]
14.
Rachel Portman - She's Gone [1:15]
15.
Rachel Portman - Wait For Me [3:03]
16.
Rachel Portman - You Waited [1:38]
17.
Rachel Portman - I Waited [1:42]

Код:

EAC extraction logfile from 6. July 2006, 18:10 for CD
Rachel Portman / The Lake House

Used drive  : HL-DT-STDVDRRW GWA-4166B   Adapter: 0  ID: 0
Read mode   : Secure with NO C2, accurate stream, disable cache
Read offset correction : 102
Overread into Lead-In and Lead-Out : No

Used output format : Internal WAV Routines
                     44.100 Hz; 16 Bit; Stereo

Other options      :
    Fill up missing offset samples with silence : Yes
    Delete leading and trailing silent blocks : No
    Installed external ASPI interface

Range status and errors
Selected range
     Filename C:\temp\music\Rachel Portman - The Lake House.wav

     Peak level 100.0 %
     Range quality 100.0 %
     CRC 4836A1C5
     Copy OK

No errors occured

End of status report

Код:

AUDIOCHECKER v2.0 beta (build 457) - by Dester - opdester@freemail.hu
~~~~~~~~~~~~~~~~~~~~~~~~~~~~~~~~~~

Начато: пятница, 16. 01. 2009. - 1:59.08
Найдено файлов: 1

1 -===- D:\Документы\Музыка\Secret Garden\1997 - White Stones\White Stones.ape
  Извлечение успешно выполнено
  Заключение: этот трек - CDDA с вероятностью 100%
  Временный файл удалён.

Завершено: пятница, 16. 01. 2009. - 2:07.09 (Время операции: 0:08.01)

-----------------------------------------------------------

Начато: четверг, 05. 02. 2009. - 8:54.50
Найдено файлов: 1

1 -===- E:\Музыка\СаундТрек\The Lake House (Rachel Portman)\The Lake House (Rachel Portman).flac
  Извлечение успешно выполнено
  Заключение: этот трек - CDDA с вероятностью 99%
  Временный файл удалён.

Завершено: четверг, 05. 02. 2009. - 9:01.18 (Время операции: 0:06.27)

Код:

REM GENRE Soundtrack
REM DATE 2006
REM DISCID E20B9011
REM COMMENT "ExactAudioCopy v0.95b4"
CATALOG 0780163387322
PERFORMER "Various"
TITLE "The Lake House"
FILE "The Lake House (Rachel Portman).flac" WAVE
  TRACK 01 AUDIO
    TITLE "This Never Happened Before"
    PERFORMER "Paul McCartney"
    INDEX 01 00:00:00
  TRACK 02 AUDIO
    TITLE "(I Can't Seem to) Make You Mine"
    PERFORMER "The Clientele"
    INDEX 00 03:24:42
    INDEX 01 03:26:42
  TRACK 03 AUDIO
    TITLE "Time Has Told Me"
    PERFORMER "Eels"
    INDEX 00 07:03:03
    INDEX 01 07:05:03
  TRACK 04 AUDIO
    TITLE "Ant Farm"
    PERFORMER "Carole King"
    INDEX 00 11:29:03
    INDEX 01 11:31:03
  TRACK 05 AUDIO
    TITLE "It's Too Late"
    PERFORMER "Rachel Portman"
    INDEX 00 13:42:70
    INDEX 01 13:44:70
  TRACK 06 AUDIO
    TITLE "The Lakehouse"
    PERFORMER "Rachel Portman"
    INDEX 00 17:39:72
    INDEX 01 17:41:72
  TRACK 07 AUDIO
    TITLE "Pawprints"
    PERFORMER "Rachel Portman"
    INDEX 00 20:57:20
    INDEX 01 20:59:20
  TRACK 08 AUDIO
    TITLE "Tough Week"
    PERFORMER "Rachel Portman"
    INDEX 00 22:19:07
    INDEX 01 22:21:07
  TRACK 09 AUDIO
    TITLE "Mailbox"
    PERFORMER "Rachel Portman"
    INDEX 00 23:28:38
    INDEX 01 23:30:38
  TRACK 10 AUDIO
    TITLE "Sunsets"
    PERFORMER "Rachel Portman"
    INDEX 00 24:27:64
    INDEX 01 24:29:64
  TRACK 11 AUDIO
    TITLE "Alex's Father"
    PERFORMER "Rachel Portman"
    INDEX 00 29:29:24
    INDEX 01 29:31:24
  TRACK 12 AUDIO
    TITLE "Il Mare"
    PERFORMER "Rachel Portman"
    INDEX 00 36:15:63
    INDEX 01 36:17:63
  TRACK 13 AUDIO
    TITLE "Tell Me More"
    PERFORMER "Rachel Portman"
    INDEX 00 39:16:60
    INDEX 01 39:18:60
  TRACK 14 AUDIO
    TITLE "She's Gone"
    PERFORMER "Rachel Portman"
    INDEX 00 41:40:24
    INDEX 01 41:42:24
  TRACK 15 AUDIO
    TITLE "Wait For Me"
    PERFORMER "Rachel Portman"
    INDEX 00 42:55:61
    INDEX 01 42:57:61
  TRACK 16 AUDIO
    TITLE "You Waited"
    PERFORMER "Rachel Portman"
    INDEX 00 45:58:29
    INDEX 01 46:00:29
  TRACK 17 AUDIO
    TITLE "I Waited"
    PERFORMER "Rachel Portman"
    INDEX 00 47:36:55
    INDEX 01 47:38:55


Трекер:  [ 07-Июл-2011 23:33 ]

  

Скачать .torrent

Размер .torrent файла 12 KB


Размер: 294 MB
Хэш (hash) релиза: b69483b196ea6e5456ce08aa7de30c66321597b7

Торренты, похожие на The Lake House скачать торрент

Форум Название Автор Размер S L Добавлен
Саундтреки к фильмам и мультфильмам (mp3) ·· (Score) The Lake House / Дом у озера (Rachel Portman) - 2006, MP3, 320 kbps Солнышко 118725593113 MB 0 0 1292265584

21:39

13-Дек-10

Электронная музыка (lossless) ·· (Progressive House) [WEB] Crystal Lake feat. Kifi - Into The Sunset (Headhunterz Edit) (DOORN RECORDS [DOORN240]) - 2016, FLAC (tracks), lossless Galfimbul 3379141232 MB 0 0 1455828425

23:47

18-Фев-16

Еще никто не оставлял запись к записи скачать торрент The Lake House . Будь первым!

!Обратная связь