Скачать через торрент музыку Various Artists - Almost Alice Алиса в стране чудес бесплатно без регистрации torrent

Если у вас наблюдаются проблемы со скриншотами, переходом по ссылками, скачиванием торрентов - проблемы в блокировщике рекламы AdBlock. #хорошегоДня!


Статистика раздачи
Размер:  501 MB   |    Зарегистрирован:  6 лет 5 месяцев   |    .torrent скачан:  35 раз   |   
Раздают:  1  
   
Загрузка...
 
Автор Сообщение

Galfimbul

avatar Galfimbul


Almost Alice / Алиса в стране чудес



Жанр: Soundtrack
Год выпуска диска: 2010
Производитель диска: U.S.
Лейбл: Buena Vista Records / Walt Disney Records
Аудио кодек: FLAC
Тип рипа: tracks+.cue
Битрейт аудио: lossless
Продолжительность: 68:51
Источник: waffles.fm


Трэклист:
01 - Avril Lavigne - Alice 3:36
02 - The All-American Rejects - The Poison 3:54
03 - Owl City - The Technicolor Phase 4:28
04 - Shinedown - Her Name Is Alice 3:39
05 - All Time Low - Painting Flowers 3:26
06 - Metro Station - Where's My Angel 3:40
07 - Tokio Hotel and Kerli - Strange 3:51
08 - 3OH!3 featuring Neon Hitch - Follow Me Down 3:24
09 - Robert Smith - Very Good Advice 2:58
10 - Mark Hoppus with Pete Wentz - In Transit 4:03
11 - Plain White T's - Welcome to Mystery 4:28
12 - Kerli - Tea Party 3:29
13 - Franz Ferdinand - The Lobster Quadrille 2:09
14 - Motion City Soundtrack - Always Running Out of Time 3:00
15 - Wolfmother - Fell Down a Hole 5:04
16 - Grace Potter and The Nocturnals - White Rabbit 3:21

Hot Topic Bonus Tracks:
17 - Never Shout Never - Sea What We Seas 3:09
18 - Family Force 5 - Topsy Turvy 3:25
19 - Valora - Extreme 3:47
 
Exact Audio Copy V0.99 prebeta 5 from 4. May 2009

EAC extraction logfile from 21. March 2010, 16:51

Various Artists / Almost Alice [Hot Topic Version]

Used drive : PLEXTOR CD-R PREMIUM Adapter: 0 ID: 1

Read mode : SecureUtilize accurate stream : YesDefeat audio cache : YesMake use of C2 pointers : No

Read offset correction : 30Overread into Lead-In and Lead-Out : YesFill up missing offset samples with silence : YesDelete leading and trailing silent blocks : NoNull samples used in CRC calculations : YesUsed interface : Native Win32 interface for Win NT & 2000Gap handling : Appended to previous track

Used output format : User Defined EncoderSelected bitrate : 128 kBit/sQuality : HighAdd ID3 tag : NoCommand line compressor : C:\Program Files\FLAC 1.2.1b\flac.exeAdditional command line options : -8 -V -T "ARTIST=%a" -T "TITLE=%t" -T "ALBUM=%g" -T "DATE=%y" -T "TRACKNUMBER=%n" -T "TOTALTRACKS=%x" -T "GENRE=%m" -T "ALBUM ARTIST=%v" -T "ALBUMARTIST=%v" %s

TOC of the extracted CD

Track | Start | Length | Start sector | End sector --------------------------------------------------------- 1 | 0:00.00 | 3:35.61 | 0 | 16185 2 | 3:35.61 | 3:53.66 | 16186 | 33726 3 | 7:29.52 | 4:27.63 | 33727 | 53814 4 | 11:57.40 | 3:39.00 | 53815 | 70239 5 | 15:36.40 | 3:25.57 | 70240 | 85671 6 | 19:02.22 | 3:39.60 | 85672 | 102156 7 | 22:42.07 | 3:51.30 | 102157 | 119511 8 | 26:33.37 | 3:23.60 | 119512 | 134796 9 | 29:57.22 | 2:58.05 | 134797 | 148151 10 | 32:55.27 | 4:02.71 | 148152 | 166372 11 | 36:58.23 | 4:28.27 | 166373 | 186499 12 | 41:26.50 | 3:29.15 | 186500 | 202189 13 | 44:55.65 | 2:09.00 | 202190 | 211864 14 | 47:04.65 | 3:00.13 | 211865 | 225377 15 | 50:05.03 | 5:04.37 | 225378 | 248214 16 | 55:09.40 | 3:20.70 | 248215 | 263284 17 | 58:30.35 | 3:09.10 | 263285 | 277469 18 | 61:39.45 | 3:25.10 | 277470 | 292854 19 | 65:04.55 | 3:46.49 | 292855 | 309853

Track 1

Filename C:\EAC Output\Various Artists - 2010 - Almost Alice [Hot Topic Version]\01 - Avril Lavigne - Alice.wav

Pre-gap length 0:00:02.00

Peak level 96.5 % Track quality 100.0 % Test CRC D7D67666 Copy CRC D7D67666 Track not present in AccurateRip database Copy OK

Track 2

Filename C:\EAC Output\Various Artists - 2010 - Almost Alice [Hot Topic Version]\02 - The All-American Rejects - The Poison.wav

Pre-gap length 0:00:01.65

Peak level 99.8 % Track quality 100.0 % Test CRC 11960258 Copy CRC 11960258 Track not present in AccurateRip database Copy OK

Track 3

Filename C:\EAC Output\Various Artists - 2010 - Almost Alice [Hot Topic Version]\03 - Owl City - The Technicolor Phase.wav

Peak level 98.7 % Track quality 100.0 % Test CRC CD6D6923 Copy CRC CD6D6923 Track not present in AccurateRip database Copy OK

Track 4

Filename C:\EAC Output\Various Artists - 2010 - Almost Alice [Hot Topic Version]\04 - Shinedown - Her Name Is Alice.wav

Pre-gap length 0:00:00.20

Peak level 98.8 % Track quality 100.0 % Test CRC 9692B4FF Copy CRC 9692B4FF Track not present in AccurateRip database Copy OK

Track 5

Filename C:\EAC Output\Various Artists - 2010 - Almost Alice [Hot Topic Version]\05 - All Time Low - Painting Flowers.wav

Peak level 99.8 % Track quality 100.0 % Test CRC 7B460B99 Copy CRC 7B460B99 Track not present in AccurateRip database Copy OK

Track 6

Filename C:\EAC Output\Various Artists - 2010 - Almost Alice [Hot Topic Version]\06 - Metro Station - Where's My Angel.wav

Peak level 98.8 % Track quality 99.9 % Test CRC 4EF1B3B9 Copy CRC 4EF1B3B9 Track not present in AccurateRip database Copy OK

Track 7

Filename C:\EAC Output\Various Artists - 2010 - Almost Alice [Hot Topic Version]\07 - Tokio Hotel and Kerli - Strange.wav

Peak level 98.8 % Track quality 100.0 % Test CRC 6C1C04AE Copy CRC 6C1C04AE Track not present in AccurateRip database Copy OK

Track 8

Filename C:\EAC Output\Various Artists - 2010 - Almost Alice [Hot Topic Version]\08 - 3OH!3 featuring Neon Hitch - Follow Me Down.wav

Peak level 98.6 % Track quality 100.0 % Test CRC 240DF2FA Copy CRC 240DF2FA Track not present in AccurateRip database Copy OK

Track 9

Filename C:\EAC Output\Various Artists - 2010 - Almost Alice [Hot Topic Version]\09 - Robert Smith - Very Good Advice.wav

Peak level 94.3 % Track quality 100.0 % Test CRC 48E90613 Copy CRC 48E90613 Track not present in AccurateRip database Copy OK

Track 10

Filename C:\EAC Output\Various Artists - 2010 - Almost Alice [Hot Topic Version]\10 - Mark Hoppus with Pete Wentz - In Transit.wav

Pre-gap length 0:00:00.22

Peak level 98.8 % Track quality 100.0 % Test CRC 2E30AEA1 Copy CRC 2E30AEA1 Track not present in AccurateRip database Copy OK

Track 11

Filename C:\EAC Output\Various Artists - 2010 - Almost Alice [Hot Topic Version]\11 - Plain White T's - Welcome to Mystery.wav

Pre-gap length 0:00:00.62

Peak level 96.5 % Track quality 100.0 % Test CRC 53DC0DDB Copy CRC 53DC0DDB Track not present in AccurateRip database Copy OK

Track 12

Filename C:\EAC Output\Various Artists - 2010 - Almost Alice [Hot Topic Version]\12 - Kerli - Tea Party.wav

Pre-gap length 0:00:00.77

Peak level 84.0 % Track quality 99.9 % Test CRC 45B61618 Copy CRC 45B61618 Track not present in AccurateRip database Copy OK

Track 13

Filename C:\EAC Output\Various Artists - 2010 - Almost Alice [Hot Topic Version]\13 - Franz Ferdinand - The Lobster Quadrille.wav

Pre-gap length 0:00:00.54

Peak level 93.2 % Track quality 100.0 % Test CRC B3A3101F Copy CRC B3A3101F Track not present in AccurateRip database Copy OK

Track 14

Filename C:\EAC Output\Various Artists - 2010 - Almost Alice [Hot Topic Version]\14 - Motion City Soundtrack - Always Running Out of Time.wav

Pre-gap length 0:00:00.14

Peak level 98.8 % Track quality 100.0 % Test CRC 4D71DE5B Copy CRC 4D71DE5B Track not present in AccurateRip database Copy OK

Track 15

Filename C:\EAC Output\Various Artists - 2010 - Almost Alice [Hot Topic Version]\15 - Wolfmother - Fell Down a Hole.wav

Pre-gap length 0:00:00.05

Peak level 98.8 % Track quality 99.9 % Test CRC A24DA52E Copy CRC A24DA52E Track not present in AccurateRip database Copy OK

Track 16

Filename C:\EAC Output\Various Artists - 2010 - Almost Alice [Hot Topic Version]\16 - Grace Potter and The Nocturnals - White Rabbit.wav

Pre-gap length 0:00:01.14

Peak level 98.7 % Track quality 100.0 % Test CRC DAE3B95B Copy CRC DAE3B95B Track not present in AccurateRip database Copy OK

Track 17

Filename C:\EAC Output\Various Artists - 2010 - Almost Alice [Hot Topic Version]\17 - Never Shout Never - Sea What We Seas [Bonus Track].wav

Peak level 98.7 % Track quality 100.0 % Test CRC 97A1E0E5 Copy CRC 97A1E0E5 Track not present in AccurateRip database Copy OK

Track 18

Filename C:\EAC Output\Various Artists - 2010 - Almost Alice [Hot Topic Version]\18 - Family Force 5 - Topsy Turvy [Bonus Track].wav

Pre-gap length 0:00:00.54

Peak level 98.7 % Track quality 100.0 % Test CRC 7F5888BB Copy CRC 7F5888BB Track not present in AccurateRip database Copy OK

Track 19

Filename C:\EAC Output\Various Artists - 2010 - Almost Alice [Hot Topic Version]\19 - Valora - Extreme [Bonus Track].wav

Pre-gap length 0:00:00.94

Peak level 98.8 % Track quality 100.0 % Test CRC 9AEFB77C Copy CRC 9AEFB77C Track not present in AccurateRip database Copy OK

None of the tracks are present in the AccurateRip database

No errors occurred

End of status report
 
REM GENRE SoundtrackREM DATE 2010REM DISCID 1A102313REM COMMENT "ExactAudioCopy v0.99pb5"CATALOG 0050087159726PERFORMER "Various Artists"TITLE "Almost Alice [Hot Topic Version]"FILE "01 - Avril Lavigne - Alice.wav" WAVE TRACK 01 AUDIO TITLE "Alice" PERFORMER "Avril Lavigne" ISRC USWD11037762 INDEX 01 00:00:00 TRACK 02 AUDIO TITLE "The Poison" PERFORMER "The All-American Rejects" ISRC USWD11037630 INDEX 00 03:34:12FILE "02 - The All-American Rejects - The Poison.wav" WAVE INDEX 01 00:00:00FILE "03 - Owl City - The Technicolor Phase.wav" WAVE TRACK 03 AUDIO TITLE "The Technicolor Phase" PERFORMER "Owl City" ISRC USZXT0835565 INDEX 01 00:00:00 TRACK 04 AUDIO TITLE "Her Name Is Alice" PERFORMER "Shinedown" ISRC USWD11037629 INDEX 00 04:27:48FILE "04 - Shinedown - Her Name Is Alice.wav" WAVE INDEX 01 00:00:00FILE "05 - All Time Low - Painting Flowers.wav" WAVE TRACK 05 AUDIO TITLE "Painting Flowers" PERFORMER "All Time Low" ISRC USHR20947033 INDEX 01 00:00:00FILE "06 - Metro Station - Where's My Angel.wav" WAVE TRACK 06 AUDIO TITLE "Where's My Angel" PERFORMER "Metro Station" ISRC USWD11037631 INDEX 01 00:00:00FILE "07 - Tokio Hotel and Kerli - Strange.wav" WAVE TRACK 07 AUDIO TITLE "Strange" PERFORMER "Tokio Hotel and Kerli" ISRC DECE70900307 INDEX 01 00:00:00FILE "08 - 3OH!3 featuring Neon Hitch - Follow Me Down.wav" WAVE TRACK 08 AUDIO TITLE "Follow Me Down" PERFORMER "3OH!3 featuring Neon Hitch" ISRC USWD11037632 INDEX 01 00:00:00FILE "09 - Robert Smith - Very Good Advice.wav" WAVE TRACK 09 AUDIO TITLE "Very Good Advice" PERFORMER "Robert Smith" ISRC GB8GJ1000001 INDEX 01 00:00:00 TRACK 10 AUDIO TITLE "In Transit" PERFORMER "Mark Hoppus with Pete Wentz" ISRC USWD11037636 INDEX 00 02:57:63FILE "10 - Mark Hoppus with Pete Wentz - In Transit.wav" WAVE INDEX 01 00:00:00 TRACK 11 AUDIO TITLE "Welcome to Mystery" PERFORMER "Plain White T's" ISRC USHR11024788 INDEX 00 04:02:24FILE "11 - Plain White T's - Welcome to Mystery.wav" WAVE INDEX 01 00:00:00 TRACK 12 AUDIO TITLE "Tea Party" PERFORMER "Kerli" ISRC USWD11037633 INDEX 00 04:27:44FILE "12 - Kerli - Tea Party.wav" WAVE INDEX 01 00:00:00 TRACK 13 AUDIO TITLE "The Lobster Quadrille" PERFORMER "Franz Ferdinand" ISRC USWD11037634 INDEX 00 03:28:49FILE "13 - Franz Ferdinand - The Lobster Quadrille.wav" WAVE INDEX 01 00:00:00 TRACK 14 AUDIO TITLE "Always Running Out of Time" PERFORMER "Motion City Soundtrack" ISRC USWD11037635 INDEX 00 02:08:64FILE "14 - Motion City Soundtrack - Always Running Out of Time.wav" WAVE INDEX 01 00:00:00 TRACK 15 AUDIO TITLE "Fell Down a Hole" PERFORMER "Wolfmother" ISRC USWD11037653 INDEX 00 03:00:09FILE "15 - Wolfmother - Fell Down a Hole.wav" WAVE INDEX 01 00:00:00 TRACK 16 AUDIO TITLE "White Rabbit" PERFORMER "Grace Potter and The Nocturnals" ISRC USHR11024790 INDEX 00 05:03:26FILE "16 - Grace Potter and The Nocturnals - White Rabbit.wav" WAVE INDEX 01 00:00:00FILE "17 - Never Shout Never - Sea What We Seas [Bonus Track].wav" WAVE TRACK 17 AUDIO TITLE "Sea What We Seas [Bonus Track]" PERFORMER "Never Shout Never" ISRC USWD11037668 INDEX 01 00:00:00 TRACK 18 AUDIO TITLE "Topsy Turvy [Bonus Track]" PERFORMER "Family Force 5" ISRC USWD11037637 INDEX 00 03:08:44FILE "18 - Family Force 5 - Topsy Turvy [Bonus Track].wav" WAVE INDEX 01 00:00:00 TRACK 19 AUDIO TITLE "Extreme [Bonus Track]" PERFORMER "Valora" ISRC USHR11024791 INDEX 00 03:24:14FILE "19 - Valora - Extreme [Bonus Track].wav" WAVE INDEX 01 00:00:00


Трекер:  [ 08-Июл-2011 02:13 ]

  

Скачать .torrent

Размер .torrent файла 23 KB


Размер: 501 MB
Хэш (hash) релиза: f628fe0108b4a52d34bc8b33886a98d6b3815b3a

Еще никто не оставлял запись к записи скачать торрент Various Artists - Almost Alice Алиса в стране чудес . Будь первым!

!Обратная связь