Скачать через торрент музыку Anastasia Анастасия бесплатно без регистрации torrent

Если у вас наблюдаются проблемы со скриншотами, переходом по ссылками, скачиванием торрентов - проблемы в блокировщике рекламы AdBlock. #хорошегоДня!


Статистика раздачи
Размер:  327 MB   |    Зарегистрирован:  6 лет 5 месяцев   |    .torrent скачан:  57 раз   |   
Раздают:  1  
   
Загрузка...
 
Автор Сообщение

Galfimbul

avatar Galfimbul


Anastasia / Анастасия

Жанр: Soundtrack / Score
Композитор: David Newman & VA
Год выпуска диска: 1997
Производитель диска: США
Аудио кодек: FLAC
Тип рипа: tracks+.cue
Битрейт аудио: lossless
Продолжительность: 57:13
Источник: What.CD

Треклист:

01 - Jonathan Dokuchitz & Kelsey Grammer - A Rumor In St. Petersburg (3:25)
02 - Liz Callaway - Journey To The Past (2:55)
03 - Liz Callaway - Once Upon A December (2:48)
04 - Jim Cummings - In The Dark Of The Night (3:21)
05 - Kelsey Grammer & Liz Callaway & Jonathan Dokuchitz - Learn To Do It (2:36)
06 - Kelsey Grammer - Learn To Do It [Waltz Reprise] (1:45)
07 - Bernadette Peters & Jonathan Dokuchitz - Paris Holds The Key (To Your Heart) (3:03)
08 - Richard Marx & Donna Lewis - At The Beginning (3:41)
09 - Aaliyah - Journey To The Past (4:05)
10 - Deana Carter - Once Upon A December (3:35)
11 - David Newman - Prologue [Score] (6:23)
12 - David Newman - Speaking Of Sophie [Score] (2:36)
13 - David Newman - The Nightmare [Score] (3:05)
14 - David Newman - Kidnap And Reunion [Score] (4:29)
15 - David Newman - Reminiscing With Grandma [Score] (3:17)
16 - David Newman - Finale [Score] (3:00)
17 - Thalia - Viaje Tiempo Atrás (Journey To The Past) [Bonus Track] (3:07)
 
Exact Audio Copy V0.99 prebeta 3 from 28. July 2007

EAC extraction logfile from 15. May 2009, 13:44

Anastasia / Anastasia (David Newman)

Used drive : HL-DT-STDVDRAM GMA-4082N Adapter: 0 ID: 0

Read mode : SecureUtilize accurate stream : YesDefeat audio cache : YesMake use of C2 pointers : No

Read offset correction : 667Overread into Lead-In and Lead-Out : NoFill up missing offset samples with silence : YesDelete leading and trailing silent blocks : NoNull samples used in CRC calculations : YesUsed interface : Native Win32 interface for Win NT & 2000Gap handling : Appended to previous track

Used output format : User Defined EncoderSelected bitrate : 128 kBit/sQuality : HighAdd ID3 tag : NoCommand line compressor : C:\Program Files\Exact Audio Copy\FLAC\FLAC.EXEAdditional command line options : -V -8 -T "artist=%a" -T "title=%t" -T "album=%g" -T "date=%y" -T "tracknumber=%n" -T "genre=%m" %s

TOC of the extracted CD

Track | Start | Length | Start sector | End sector --------------------------------------------------------- 1 | 0:00.32 | 3:25.25 | 32 | 15431 2 | 3:25.57 | 2:55.33 | 15432 | 28589 3 | 6:21.15 | 2:48.17 | 28590 | 41206 4 | 9:09.32 | 3:21.10 | 41207 | 56291 5 | 12:30.42 | 2:36.18 | 56292 | 68009 6 | 15:06.60 | 1:45.07 | 68010 | 75891 7 | 16:51.67 | 3:02.68 | 75892 | 89609 8 | 19:54.60 | 3:40.65 | 89610 | 106174 9 | 23:35.50 | 4:04.55 | 106175 | 124529 10 | 27:40.30 | 3:34.52 | 124530 | 140631 11 | 31:15.07 | 6:23.08 | 140632 | 169364 12 | 37:38.15 | 2:36.22 | 169365 | 181086 13 | 40:14.37 | 3:05.30 | 181087 | 194991 14 | 43:19.67 | 4:29.18 | 194992 | 215184 15 | 47:49.10 | 3:17.10 | 215185 | 229969 16 | 51:06.20 | 2:59.45 | 229970 | 243439 17 | 54:05.65 | 3:07.37 | 243440 | 257501

Track 1

Filename F:\torrent\EAC Rips\01 A Rumor In St. Petersburg.wav

Pre-gap length 0:00:02.42

Peak level 100.0 % Track quality 100.0 % Test CRC C333091E Copy CRC C333091E Accurately ripped (confidence 21) [06015E17] Copy OK

Track 2

Filename F:\torrent\EAC Rips\02 Journey To The Past.wav

Pre-gap length 0:00:03.13

Peak level 100.0 % Track quality 100.0 % Test CRC 105F4183 Copy CRC 105F4183 Accurately ripped (confidence 21) [74801998] Copy OK

Track 3

Filename F:\torrent\EAC Rips\03 Once Upon A December.wav

Pre-gap length 0:00:01.68

Peak level 100.0 % Track quality 100.0 % Test CRC 689C49E7 Copy CRC 689C49E7 Accurately ripped (confidence 21) [357C567C] Copy OK

Track 4

Filename F:\torrent\EAC Rips\04 In The Dark Of The Night.wav

Pre-gap length 0:00:01.52

Peak level 100.0 % Track quality 100.0 % Test CRC F3D209ED Copy CRC F3D209ED Accurately ripped (confidence 21) [0E802A54] Copy OK

Track 5

Filename F:\torrent\EAC Rips\05 Learn To Do It.wav

Pre-gap length 0:00:02.33

Peak level 99.9 % Track quality 100.0 % Test CRC 115F1279 Copy CRC 115F1279 Accurately ripped (confidence 20) [DF7045AD] Copy OK

Track 6

Filename F:\torrent\EAC Rips\06 Learn To Do It (Waltz Reprise).wav

Pre-gap length 0:00:01.97

Peak level 79.9 % Track quality 100.0 % Test CRC F5B321E7 Copy CRC F5B321E7 Accurately ripped (confidence 21) [EDAD0F7F] Copy OK

Track 7

Filename F:\torrent\EAC Rips\07 Paris Holds The Key (To Your Heart).wav

Pre-gap length 0:00:02.66

Peak level 100.0 % Track quality 100.0 % Test CRC DCF1FCD7 Copy CRC DCF1FCD7 Accurately ripped (confidence 21) [8FC03C31] Copy OK

Track 8

Filename F:\torrent\EAC Rips\08 At The Beginning (Richard Marx And Donna Lewis).wav

Pre-gap length 0:00:01.17

Peak level 100.0 % Track quality 100.0 % Test CRC 6A7CB037 Copy CRC 6A7CB037 Accurately ripped (confidence 21) [3679E9B1] Copy OK

Track 9

Filename F:\torrent\EAC Rips\09 Journey To The Past (Aaliyah).wav

Pre-gap length 0:00:01.68

Peak level 100.0 % Track quality 99.9 % Test CRC 354B96D7 Copy CRC 354B96D7 Accurately ripped (confidence 20) [23CE4BB9] Copy OK

Track 10

Filename F:\torrent\EAC Rips\10 Once Upon A December (Deana Carter).wav

Pre-gap length 0:00:01.14

Peak level 100.0 % Track quality 100.0 % Test CRC C3A9FAF2 Copy CRC C3A9FAF2 Accurately ripped (confidence 20) [5C5B2F23] Copy OK

Track 11

Filename F:\torrent\EAC Rips\11 Prologue.wav

Pre-gap length 0:00:02.30

Peak level 100.0 % Track quality 100.0 % Test CRC 98D0D613 Copy CRC 98D0D613 Accurately ripped (confidence 20) [212A33BD] Copy OK

Track 12

Filename F:\torrent\EAC Rips\12 Speaking Of Sophie.wav

Pre-gap length 0:00:01.68

Peak level 76.7 % Track quality 100.0 % Test CRC D17DAB7B Copy CRC D17DAB7B Accurately ripped (confidence 20) [EE2C3AFA] Copy OK

Track 13

Filename F:\torrent\EAC Rips\13 The Nightmare.wav

Pre-gap length 0:00:01.66

Peak level 100.0 % Track quality 100.0 % Test CRC 42A9176F Copy CRC 42A9176F Accurately ripped (confidence 20) [DAE3D41E] Copy OK

Track 14

Filename F:\torrent\EAC Rips\14 Kidnap And Reunion.wav

Pre-gap length 0:00:02.66

Peak level 100.0 % Track quality 100.0 % Test CRC D7890FDB Copy CRC D7890FDB Accurately ripped (confidence 19) [541868F5] Copy OK

Track 15

Filename F:\torrent\EAC Rips\15 Reminiscing With Grandma.wav

Pre-gap length 0:00:02.70

Peak level 100.0 % Track quality 100.0 % Test CRC 1349C0C1 Copy CRC 1349C0C1 Accurately ripped (confidence 19) [767F8C65] Copy OK

Track 16

Filename F:\torrent\EAC Rips\16 Finale.wav

Pre-gap length 0:00:03.70

Peak level 100.0 % Track quality 100.0 % Test CRC DFF99A1D Copy CRC DFF99A1D Accurately ripped (confidence 19) [92C0B30F] Copy OK

Track 17

Filename F:\torrent\EAC Rips\17 Viaje Tiempo Atrбs (Journey To The Past) Bonus Track (Thalia).wav

Pre-gap length 0:00:03.17

Peak level 99.8 % Track quality 100.0 % Test CRC 31CDEC04 Copy CRC 31CDEC04 Accurately ripped (confidence 19) [9F93E6BB] Copy OK

All tracks accurately ripped

No errors occurred

End of status report
 
REM GENRE SoundtrackREM DATE 1997REM DISCID DF0D6911REM COMMENT "ExactAudioCopy v0.99pb3"FILE "01 - Jonathan Dokuchitz & Kelsey Grammer - A Rumor In St. Petersburg.wav" WAVE TRACK 01 AUDIO PREGAP 00:00:32 INDEX 01 00:00:00 TRACK 02 AUDIO INDEX 00 03:22:15FILE "02 - Liz Callaway - Journey To The Past.wav" WAVE INDEX 01 00:00:00 TRACK 03 AUDIO INDEX 00 02:53:57FILE "03 - Liz Callaway - Once Upon A December.wav" WAVE INDEX 01 00:00:00 TRACK 04 AUDIO INDEX 00 02:46:53FILE "04 - Jim Cummings - In The Dark Of The Night.wav" WAVE INDEX 01 00:00:00 TRACK 05 AUDIO INDEX 00 03:18:60FILE "05 - Kelsey Grammer & Liz Callaway & Jonathan Dokuchitz - Learn To Do It.wav" WAVE INDEX 01 00:00:00 TRACK 06 AUDIO INDEX 00 02:34:20FILE "06 - Kelsey Grammer - Learn To Do It [Waltz Reprise].wav" WAVE INDEX 01 00:00:00 TRACK 07 AUDIO INDEX 00 01:42:32FILE "07 - Bernadette Peters & Jonathan Dokuchitz - Paris Holds The Key (To Your Heart).wav" WAVE INDEX 01 00:00:00 TRACK 08 AUDIO INDEX 00 03:01:55FILE "08 - Richard Marx & Donna Lewis - At The Beginning.wav" WAVE INDEX 01 00:00:00 TRACK 09 AUDIO INDEX 00 03:39:14FILE "09 - Aaliyah - Journey To The Past.wav" WAVE INDEX 01 00:00:00 TRACK 10 AUDIO INDEX 00 04:03:44FILE "10 - Deana Carter - Once Upon A December.wav" WAVE INDEX 01 00:00:00 TRACK 11 AUDIO INDEX 00 03:32:29FILE "11 - David Newman - Prologue [Score].wav" WAVE INDEX 01 00:00:00 TRACK 12 AUDIO INDEX 00 06:21:32FILE "12 - David Newman - Speaking Of Sophie [Score].wav" WAVE INDEX 01 00:00:00 TRACK 13 AUDIO INDEX 00 02:34:47FILE "13 - David Newman - The Nightmare [Score].wav" WAVE INDEX 01 00:00:00 TRACK 14 AUDIO INDEX 00 03:02:55FILE "14 - David Newman - Kidnap And Reunion [Score].wav" WAVE INDEX 01 00:00:00 TRACK 15 AUDIO INDEX 00 04:26:40FILE "15 - David Newman - Reminiscing With Grandma [Score].wav" WAVE INDEX 01 00:00:00 TRACK 16 AUDIO INDEX 00 03:13:32FILE "16 - David Newman - Finale [Score].wav" WAVE INDEX 01 00:00:00 TRACK 17 AUDIO INDEX 00 02:56:32FILE "17 - Thalia - Viaje Tiempo Atrás (Journey To The Past) [Bonus Track].wav" WAVE INDEX 01 00:00:00
Волшебная музыка из замечательного мультфильма. Наконец нашел "правильный" рип в lossless, и всем настоятельно советую им обзавестись. Для этого, впрочем, и создана данная раздача

Описание мультфильма: Анастасия — дочка последнего русского царя Николая, погубленного зловещим Распутиным. Ей удается спастись, добраться вместе с бабушкой до переполненного вокзала и… потеряться в толпе. Проходит десять лет. Анастасия стала взрослой красавицей и теперь хочет попасть в Париж. Сможет ли царевна осуществить задуманное? Ведь Распутин уже поднялся из своей могилы…



БЫСТРОЙ ЗАКАЧКИ И ПРИЯТНОГО ПРОСЛУШИВАНИЯ!
Не забываем говорить "СПАСИБО", если вам понравился релиз!


Трекер:  [ 08-Июл-2011 02:13 ]

  

Скачать .torrent

Размер .torrent файла 15 KB


Размер: 327 MB
Хэш (hash) релиза: 40ecf09ddc7eb7142259b50d8631b268602f046b

Торренты, похожие на Anastasia Анастасия скачать торрент

Форум Название Автор Размер S L Добавлен
Саундтреки к фильмам и мультфильмам (mp3) ·· (Soundtrack) Anastasia | Анастасия (David Newman) - 1997, MP3, 320 kbps AqvaGen 137385618131 MB 0 0 1292265226

21:33

13-Дек-10

Саундтреки к фильмам и мультфильмам (mp3) ·· (Score) Анастасия / Anastasia (by Alfred Newman) - 1993 (1956), MP3 (tracks), 192 kbps Galfimbul 6014727357 MB 0 0 1460444364

09:59

12-Апр-16

Еще никто не оставлял запись к записи скачать торрент Anastasia Анастасия . Будь первым!

!Обратная связь