Скачать через торрент музыку Twin Peaks - 2 CD Edition бесплатно без регистрации torrent

Если у вас наблюдаются проблемы со скриншотами, переходом по ссылками, скачиванием торрентов - проблемы в блокировщике рекламы AdBlock. #хорошегоДня!


Статистика раздачи
Размер:  528 MB   |    Зарегистрирован:  6 лет 5 месяцев   |    .torrent скачан:  47 раз   |   
Раздают:  1  
   
Загрузка...
 
Автор Сообщение

Galfimbul

avatar Galfimbul


Twin Peaks - 2 CD Edition (D. Lynch & A. Badalamenti) - Original & Fire Walk With Me

Жанр: Soundtrack
Год выпуска диска: 1992
Производитель диска: Германия
Аудио кодек: APE
Тип рипа: image+.cue
Битрейт аудио: lossless
Продолжительность: 49 и 57 минут
Трэклист:
1. Twin Peaks Theme
2. Laura Palmer's Theme
3. Audrey's Dance
4. The Nightingale
5. Freshly Squeezed
6. The Bookhouse Boys
7. Into The Night
8. Night Life In Twin Peaks
9. Dance Of The Dream Man
10. Love Theme from Twin Peaks
11. Falling

01 - Theme From Twin Peaks - Fire Walk With Me
02 - The Pine Float
03 - Sycamore Trees
04 - Don't Do Anything (I Wouldn't Do)
05 - A Real Indication (Thought Gang - Vocal by Angelo Badalamenti)
06 - Questions In A World Of Blue (Vocal by Julee Cruise)
07 - The Pink Room
08 - The Black Dog Runs at Night (Thought Gang - Vocal by Angelo Badalamenti)
09 - Best Friends
10 - Moving Through Time
11 - Montage - Girls Talk-Birds in Hell-Laura Palmer's Theme-Falling
12 - The Voice Of Love
 
Exact Audio Copy V0.99 prebeta 4 from 23. January 2008

Отчёт EAC об извлечении, выполненном 12. октября 2008, 16:47

Angelo Badalamenti / Soundtrack From Twin Peaks

Дисковод: TSSTcorpCD/DVDW SH-W162L Adapter: 0 ID: 0

Режим чтения : ДостоверностьИспользование точного потока : ДаОтключение кэша аудио : ДаИспользование указателей C2 : Нет

Коррекция смещения при чтении : 6Способность читать области Lead-in и Lead-out : НетЗаполнение пропущенных сэмплов тишиной : ДаУдаление блоков с тишиной в начале и конце : НетПри вычислениях CRC использовались нулевые сэмплы : ДаИнтерфейс : Встроенный Win32-интерфейс для Win NT/2000

Выходной формат : Внутренние WAV-операцииФормат сэмплов : 44.100 Гц; 16 бит; стерео

TOC извлечённого CD

Трек | Старт | Длительность | Начальный сектор | Конечный сектор --------------------------------------------------------------------- 1 | 0:00.32 | 5:06.15 | 32 | 22996 2 | 5:06.47 | 4:52.00 | 22997 | 44896 3 | 9:58.47 | 5:17.40 | 44897 | 68711 4 | 15:16.12 | 4:56.15 | 68712 | 90926 5 | 20:12.27 | 3:48.60 | 90927 | 108086 6 | 24:01.12 | 3:29.40 | 108087 | 123801 7 | 27:30.52 | 4:44.25 | 123802 | 145126 8 | 32:15.02 | 3:27.18 | 145127 | 160669 9 | 35:42.20 | 3:41.65 | 160670 | 177309 10 | 39:24.10 | 5:04.05 | 177310 | 200114 11 | 44:28.15 | 5:23.62 | 200115 | 224401

Характеристики диапазона извлечения и сообщения об ошибках

Выбранный диапазон

Имя файла C:\Users\Артур\Desktop\Angelo Badalamenti - Soundtrack From Twin Peaks.wav

Пиковый уровень 100.0 % Качество диапазона 100.0 % CRC копии F02A3CED Копирование... OK

Ошибок не произошло

AccurateRip: сводка

Трек 1 точность не определена (достоверность 52) [D44131DB], AccurateRip вернул [72384230]Трек 2 точность не определена (достоверность 55) [16884DF1], AccurateRip вернул [BAC576A3]Трек 3 точность не определена (достоверность 54) [8D2F845F], AccurateRip вернул [747C94B5]Трек 4 точность не определена (достоверность 53) [49BF0472], AccurateRip вернул [94F36AAA]Трек 5 точность не определена (достоверность 53) [BD5DDBDD], AccurateRip вернул [0358408C]Трек 6 точность не определена (достоверность 54) [B4F919ED], AccurateRip вернул [39C6C71B]Трек 7 точность не определена (достоверность 54) [382E8C7E], AccurateRip вернул [E4B2337B]Трек 8 точность не определена (достоверность 53) [C5612D41], AccurateRip вернул [F54393FB]Трек 9 точность не определена (достоверность 53) [830249CD], AccurateRip вернул [C62C20BA]Трек 10 точность не определена (достоверность 52) [467B178F], AccurateRip вернул [8588D8D7]Трек 11 точность не определена (достоверность 53) [8238495D], AccurateRip вернул [72E91E11]

Ни один трек не прошёл проверки на точностьВ вашей базе может быть иной вариант штамповки диска

Конец отчёта
 
Exact Audio Copy V0.99 prebeta 4 from 23. January 2008

Отчёт EAC об извлечении, выполненном 12. октября 2008, 16:33

Angelo Badalamenti / Twin Peaks - Fire Walk With Me - Soundtrack

Дисковод: TSSTcorpCD/DVDW SH-W162L Adapter: 0 ID: 0

Режим чтения : ДостоверностьИспользование точного потока : ДаОтключение кэша аудио : ДаИспользование указателей C2 : Нет

Коррекция смещения при чтении : 6Способность читать области Lead-in и Lead-out : НетЗаполнение пропущенных сэмплов тишиной : ДаУдаление блоков с тишиной в начале и конце : НетПри вычислениях CRC использовались нулевые сэмплы : ДаИнтерфейс : Встроенный Win32-интерфейс для Win NT/2000

Выходной формат : Внутренние WAV-операцииФормат сэмплов : 44.100 Гц; 16 бит; стерео

TOC извлечённого CD

Трек | Старт | Длительность | Начальный сектор | Конечный сектор --------------------------------------------------------------------- 1 | 0:00.00 | 6:46.60 | 0 | 30509 2 | 6:46.60 | 4:03.55 | 30510 | 48789 3 | 10:50.40 | 3:58.03 | 48790 | 66642 4 | 14:48.43 | 7:21.07 | 66643 | 99724 5 | 22:09.50 | 5:38.10 | 99725 | 125084 6 | 27:47.60 | 4:54.15 | 125085 | 147149 7 | 32:42.00 | 4:06.15 | 147150 | 165614 8 | 36:48.15 | 1:48.58 | 165615 | 173772 9 | 38:36.73 | 2:17.10 | 173773 | 184057 10 | 40:54.08 | 6:44.67 | 184058 | 214424 11 | 47:39.00 | 5:30.35 | 214425 | 239209 12 | 53:09.35 | 3:52.58 | 239210 | 256667

Характеристики диапазона извлечения и сообщения об ошибках

Выбранный диапазон

Имя файла C:\Users\Артур\Desktop\Angelo Badalamenti - Twin Peaks - Fire Walk With Me - Soundtrack.wav

Пиковый уровень 99.8 % Качество диапазона 99.9 % CRC копии 8B06B244 Копирование... OK

Ошибок не произошло

AccurateRip: сводка

Трек 1 точность не определена (достоверность 20) [FAF172B3], AccurateRip вернул [100C8FC4]Трек 2 точность не определена (достоверность 20) [052C26C3], AccurateRip вернул [9E659F68]Трек 3 точность не определена (достоверность 20) [B698F75B], AccurateRip вернул [DBADC1C7]Трек 4 точность не определена (достоверность 20) [EC1E32DE], AccurateRip вернул [0779A04C]Трек 5 точность не определена (достоверность 19) [5123ED9C], AccurateRip вернул [466AB984]Трек 6 точность не определена (достоверность 21) [97BFE3F5], AccurateRip вернул [6AA5B1B8]Трек 7 точность не определена (достоверность 20) [AD402C79], AccurateRip вернул [FEFD6365]Трек 8 точность не определена (достоверность 19) [1888D07F], AccurateRip вернул [7E94B697]Трек 9 точность не определена (достоверность 20) [63B6133C], AccurateRip вернул [FEB98444]Трек 10 точность не определена (достоверность 20) [E698C5A8], AccurateRip вернул [B6C8D056]Трек 11 точность не определена (достоверность 20) [970C53F2], AccurateRip вернул [155531F6]Трек 12 точность не определена (достоверность 18) [0B6D2588], AccurateRip вернул [6DD4D468]

Ни один трек не прошёл проверки на точностьВ вашей базе может быть иной вариант штамповки диска

Конец отчёта
Доп. информация: NB!!! Этот релиз отличается от предыдущих тем, что это есть выпуск на двух дисках, на одном саундтрек оригинального фильма, на втором - из Огня. В отличие от предыдущих лосслесс-раздач, в моей присутствует отчёт EAC ко второму диску! Модераторы, пожалуйста, не ставьте повтора.

Трекер:  [ 08-Июл-2011 02:12 ]

  

Скачать .torrent

Размер .torrent файла 11 KB


Размер: 528 MB
Хэш (hash) релиза: 9657de0f63c52edb2fe40af1aca984a4dd618baf

Торренты, похожие на Twin Peaks - 2 CD Edition скачать торрент

Форум Название Автор Размер S L Добавлен
Саундтреки к фильмам и мультфильмам (lossless) ·· (Soundtrack) Twin Peaks - 2 CD Edition (D. Lynch & A. Badalamenti) - Original & Fire Walk With Me - 1992, APE (image+.cue), lossless Galfimbul 553916017528 MB 0 0 1495463160

17:26

22-Май-17

Еще никто не оставлял запись к записи скачать торрент Twin Peaks - 2 CD Edition . Будь первым!

!Обратная связь