Скачать через торрент музыку The A-Team Команда А бесплатно без регистрации torrent

Если у вас наблюдаются проблемы со скриншотами, переходом по ссылками, скачиванием торрентов - проблемы в блокировщике рекламы AdBlock. #хорошегоДня!


Статистика раздачи
Размер:  399 MB   |    Зарегистрирован:  6 лет 5 месяцев   |    .torrent скачан:  41 раз   |   
Раздают:  1  
   
Загрузка...
 
Автор Сообщение

Galfimbul

avatar Galfimbul


The A-Team / Команда А

Жанр: Score
Композитор: Alan Silvestri
Год выпуска диска: 2010
Производитель диска: US
лейбл: Varese Sarabande
Номер по каталогу: VSD-7032

Аудио кодек: WavPack (*.wv)
Тип рипа: image+.cue
Битрейт аудио: lossless
Продолжительность: 1:12:24

Источник: ED2K
Наличие сканов в содержимом раздачи: да

Трэклист:
1. Somewhere In Mexico/Original "The A-Team (Theme)" (02:12)
2. Saving Face (03:32)
3. Alpha Mike Foxtrot (04:29)
4. Welcome To Baghdad (04:22)
5. The Plan (06:11)
6. Court Martial (03:09)
7. Putting The Team Back Together (03:39)
8. Flying A Tank (06:10)
9. Frankfurt (04:11)
10. Retrieving The Plates (04:09)
11. Safehouse (03:50)
12. Safehouse Aftermath (04:58)
13. Shell Game (02:44)
14. The Docks Part 1 (07:35)
15. The Docks Part 2 (05:47)
16. "I Love It When A Plan Comes Together"/Original "The A-Team (Theme)" (05:26)
Доп. информация:
 
Exact Audio Copy V0.99 prebeta 4 from 23. January 2008

EAC extraction logfile from 26. August 2010, 20:38

Alan Silvestri / The A-Team

Used drive : HL-DT-STCD-RW GCE-8523B Adapter: 1 ID: 1

Read mode : SecureUtilize accurate stream : YesDefeat audio cache : YesMake use of C2 pointers : No

Read offset correction : 6Overread into Lead-In and Lead-Out : NoFill up missing offset samples with silence : YesDelete leading and trailing silent blocks : NoNull samples used in CRC calculations : YesUsed interface : Installed external ASPI interface

Used output format : User Defined EncoderSelected bitrate : 320 kBit/sQuality : HighAdd ID3 tag : NoCommand line compressor : C:\Documents and Settings\Ricardo\Mis documentos\Mis archivos recibidos\Codecs\wavpack.exeAdditional command line options : -w "Artist=%a" -w "Album=%g" -w "Year=%y" -w "Genre=%m" -hh -m -t %s %d

TOC of the extracted CD

Track | Start | Length | Start sector | End sector --------------------------------------------------------- 1 | 0:00.57 | 2:13.66 | 57 | 10097 2 | 2:14.48 | 3:32.35 | 10098 | 26032 3 | 5:47.08 | 4:29.40 | 26033 | 46247 4 | 10:16.48 | 4:23.37 | 46248 | 66009 5 | 14:40.10 | 6:11.40 | 66010 | 93874 6 | 20:51.50 | 3:09.37 | 93875 | 108086 7 | 24:01.12 | 3:38.71 | 108087 | 124507 8 | 27:40.08 | 6:11.14 | 124508 | 152346 9 | 33:51.22 | 4:11.62 | 152347 | 171233 10 | 38:03.09 | 4:10.32 | 171234 | 190015 11 | 42:13.41 | 3:50.22 | 190016 | 207287 12 | 46:03.63 | 4:57.00 | 207288 | 229562 13 | 51:00.63 | 2:46.53 | 229563 | 242065 14 | 53:47.41 | 7:36.38 | 242066 | 276303 15 | 61:24.04 | 5:47.36 | 276304 | 302364 16 | 67:11.40 | 5:26.57 | 302365 | 326871

Range status and errors

Selected range

Filename H:\Descargas soulseek\Alan Silvestri - The A-Team.wav

Peak level 100.0 % Range quality 100.0 % Test CRC 96A3214C Copy CRC 96A3214C Copy OK

No errors occurred

End of status report
торрент перезалит 30.08.10

Трекер:  [ 08-Июл-2011 02:08 ]

  

Скачать .torrent

Размер .torrent файла 16 KB


Размер: 399 MB
Хэш (hash) релиза: ef017ca279dc9b2b74e8a6bf55c0506fa8d98f5a

Еще никто не оставлял запись к записи скачать торрент The A-Team Команда А . Будь первым!

!Обратная связь