Скачать через торрент музыку Rocky III Рокки 3 бесплатно без регистрации torrent

Если у вас наблюдаются проблемы со скриншотами, переходом по ссылками, скачиванием торрентов - проблемы в блокировщике рекламы AdBlock. #хорошегоДня!


Статистика раздачи
Размер:  178 MB   |    Зарегистрирован:  6 лет 5 месяцев   |    .torrent скачан:  50 раз   |   
Раздают:  1  
   
Загрузка...
 
Автор Сообщение

Galfimbul

avatar Galfimbul


Rocky III / Рокки 3


Жанр: Score
Год выпуска диска: 1982
Производитель диска: USA
Аудио кодек: FLAC
Тип рипа: tracks+.cue
Битрейт аудио: lossless
Продолжительность: 0:32:01
Трэклист:
01. Survivor - Eye Of The Tiger (3:54)
02. Take You Back (Tough Gym) (1:49)
03. Pushin' (3:12)
04. Reflections (3:22)
05. Mickey (4:41)
06. Take You Back (3:40)
07. Decision (2:06)
08. Gonna Fly Now (2:50)
09. Adrian (1:42)
10. Conquest (4:46)

 
Exact Audio Copy V0.99 prebeta 5 from 4. May 2009

EAC extraction logfile from 27. August 2009, 3:05

Bill Conti / Rocky III Original Motion Picture Score

Used drive : HL-DT-STDVDRRW GSA-H20L Adapter: 3 ID: 0

Read mode : SecureUtilize accurate stream : YesDefeat audio cache : YesMake use of C2 pointers : No

Read offset correction : 102Overread into Lead-In and Lead-Out : NoFill up missing offset samples with silence : YesDelete leading and trailing silent blocks : NoNull samples used in CRC calculations : YesUsed interface : Installed external ASPI interfaceGap handling : Appended to previous track

Used output format : User Defined EncoderSelected bitrate : 768 kBit/sQuality : HighAdd ID3 tag : NoCommand line compressor : C:\Program Files\Exact Audio Copy\FLAC\FLAC.EXEAdditional command line options : -6 -V -T "ARTIST=%a" -T "TITLE=%t" -T "ALBUM=%g" -T "DATE=%y" -T "TRACKNUMBER=%n" -T "GENRE=%m" -T "COMMENT=%e" %s -o %d

TOC of the extracted CD

Track | Start | Length | Start sector | End sector --------------------------------------------------------- 1 | 0:00.00 | 3:53.40 | 0 | 17514 2 | 3:53.40 | 1:48.52 | 17515 | 25666 3 | 5:42.17 | 3:11.70 | 25667 | 40061 4 | 8:54.12 | 3:22.13 | 40062 | 55224 5 | 12:16.25 | 4:40.47 | 55225 | 76271 6 | 16:56.72 | 3:40.08 | 76272 | 92779 7 | 20:37.05 | 2:05.57 | 92780 | 102211 8 | 22:42.62 | 2:50.18 | 102212 | 114979 9 | 25:33.05 | 1:42.17 | 114980 | 122646 10 | 27:15.22 | 4:45.58 | 122647 | 144079

Track 1

Filename Z:\home\charlie\Music\01 - Survivor - Eye Of The Tiger.wav

Pre-gap length 0:00:02.00

Peak level 76.4 % Track quality 100.0 % Test CRC 43A9BD49 Copy CRC 43A9BD49 Cannot be verified as accurate (confidence 2) [0B130C77], AccurateRip returned [1FD8C865] Copy OK

Track 2

Filename Z:\home\charlie\Music\02 - Take You Back (Tough Gym).wav

Pre-gap length 0:00:02.68

Peak level 78.0 % Track quality 100.0 % Test CRC 4C0ECA71 Copy CRC 4C0ECA71 Cannot be verified as accurate (confidence 2) [3E2EBDB9], AccurateRip returned [CCA78005] Copy OK

Track 3

Filename Z:\home\charlie\Music\03 - Pushin'.wav

Pre-gap length 0:00:02.20

Peak level 87.1 % Track quality 99.9 % Test CRC AF677F53 Copy CRC AF677F53 Cannot be verified as accurate (confidence 2) [62737135], AccurateRip returned [BE7310FB] Copy OK

Track 4

Filename Z:\home\charlie\Music\04 - Reflections.wav

Pre-gap length 0:00:02.15

Peak level 57.8 % Track quality 100.0 % Test CRC 38BF2669 Copy CRC 38BF2669 Cannot be verified as accurate (confidence 2) [DADCC2B2], AccurateRip returned [D137A176] Copy OK

Track 5

Filename Z:\home\charlie\Music\05 - Mickey.wav

Pre-gap length 0:00:02.33

Peak level 58.5 % Track quality 100.0 % Test CRC 4B8D69BA Copy CRC 4B8D69BA Cannot be verified as accurate (confidence 2) [1D88177A], AccurateRip returned [95B551E9] Copy OK

Track 6

Filename Z:\home\charlie\Music\06 - Take You Back.wav

Pre-gap length 0:00:03.32

Peak level 85.2 % Track quality 100.0 % Test CRC F609D445 Copy CRC F609D445 Cannot be verified as accurate (confidence 2) [50191F41], AccurateRip returned [FDA5790D] Copy OK

Track 7

Filename Z:\home\charlie\Music\07 - Decision.wav

Pre-gap length 0:00:05.13

Peak level 34.8 % Track quality 100.0 % Test CRC A55A6CC0 Copy CRC A55A6CC0 Cannot be verified as accurate (confidence 2) [89656F63], AccurateRip returned [71F98EED] Copy OK

Track 8

Filename Z:\home\charlie\Music\08 - Gonna Fly Now.wav

Pre-gap length 0:00:00.60

Peak level 65.0 % Track quality 100.0 % Test CRC 2ED16E84 Copy CRC 2ED16E84 Cannot be verified as accurate (confidence 2) [49A1EBDB], AccurateRip returned [94D98BFA] Copy OK

Track 9

Filename Z:\home\charlie\Music\09 - Adrian.wav

Pre-gap length 0:00:01.38

Peak level 37.2 % Track quality 100.0 % Test CRC 964CB944 Copy CRC 964CB944 Cannot be verified as accurate (confidence 2) [537117B5], AccurateRip returned [6030AB21] Copy OK

Track 10

Filename Z:\home\charlie\Music\10 - Conquest.wav

Pre-gap length 0:00:02.67

Peak level 61.6 % Track quality 100.0 % Test CRC 40BBA490 Copy CRC 40BBA490 Cannot be verified as accurate (confidence 2) [00ADEE56], AccurateRip returned [8BF29422] Copy OK

No tracks could be verified as accurateYou may have a different pressing from the one(s) in the database

No errors occurred

End of status report


Трекер:  [ 08-Июл-2011 02:07 ]

  

Скачать .torrent

Размер .torrent файла 15 KB


Размер: 178 MB
Хэш (hash) релиза: a7262e7b1837691e7d3c4a6ab8dd4c3ba80d1bca

Торренты, похожие на Rocky III Рокки 3 скачать торрент

Форум Название Автор Размер S L Добавлен
Саундтреки к фильмам и мультфильмам (mp3) ·· (Score) Рокки, 1, 2, 3 / Rocky I, II, III (by Bill Conti) - 1976-1982, MP3 (tracks), 320 kbps Galfimbul 248072021237 MB 0 0 1292265320

21:35

13-Дек-10

Еще никто не оставлял запись к записи скачать торрент Rocky III Рокки 3 . Будь первым!

!Обратная связь