Скачать через торрент музыку Отступники The Departed бесплатно без регистрации torrent

Если у вас наблюдаются проблемы со скриншотами, переходом по ссылками, скачиванием торрентов - проблемы в блокировщике рекламы AdBlock. #хорошегоДня!


Статистика раздачи
Размер:  196 MB   |    Зарегистрирован:  6 лет 5 месяцев   |    .torrent скачан:  59 раз   |   
Раздают:  1  
   
Загрузка...
 
Автор Сообщение

Galfimbul

avatar Galfimbul


Отступники / The Departed

Жанр: Score
Композитор: Howard Shore
Год выпуска диска: 2006
Производитель диска: Silva Screen
Аудио кодек: FLAC
Тип рипа: tracks+.cue
Битрейт аудио: lossless
Продолжительность: 00:41:50

01 - Cops or Criminals (02:01)
02 - 344 Wash (02:03)
03 - Beacon Hill (02:36)
04 - The Faithful Departed (03:02)
05 - Colin (02:09)
06 - Madolyn (02:14)
07 - Billy's Theme (06:59)
08 - Command (03:16)
09 - Chinatown (03:16)
10 - Boston Common (02:53)
11 - Miss Thing (01:45)
12 - The Baby (02:48)
13 - The Last Rites (03:06)
14 - The Departed Tango (03:41)

Источник: lztr.us
 
Exact Audio Copy V0.99 prebeta 5 from 4. May 2009

EAC extraction logfile from 5. February 2010, 21:32

Howard Shore / The Departed - Original Score

Used drive : TSSTcorpCDDVDW SE-S224Q Adapter: 3 ID: 0

Read mode : SecureUtilize accurate stream : YesDefeat audio cache : YesMake use of C2 pointers : No

Read offset correction : 6Overread into Lead-In and Lead-Out : NoFill up missing offset samples with silence : YesDelete leading and trailing silent blocks : NoNull samples used in CRC calculations : YesUsed interface : Native Win32 interface for Win NT & 2000Gap handling : Appended to previous track

Used output format : User Defined EncoderSelected bitrate : 128 kBit/sQuality : HighAdd ID3 tag : NoCommand line compressor : D:\Programme\Exact Audio Copy\Flac\flac.exeAdditional command line options : -8 -V -T "artist=%a" -T "title=%t" -T "album=%g" -T "date=%y" -T "tracknumber=%n" -T "genre=%m" %s

TOC of the extracted CD

Track | Start | Length | Start sector | End sector --------------------------------------------------------- 1 | 0:00.00 | 2:01.22 | 0 | 9096 2 | 2:01.22 | 2:03.22 | 9097 | 18343 3 | 4:04.44 | 2:36.19 | 18344 | 30062 4 | 6:40.63 | 3:01.71 | 30063 | 43708 5 | 9:42.59 | 2:09.07 | 43709 | 53390 6 | 11:51.66 | 2:14.20 | 53391 | 63460 7 | 14:06.11 | 6:58.54 | 63461 | 94864 8 | 21:04.65 | 3:15.72 | 94865 | 109561 9 | 24:20.62 | 3:16.32 | 109562 | 124293 10 | 27:37.19 | 2:53.37 | 124294 | 137305 11 | 30:30.56 | 1:45.28 | 137306 | 145208 12 | 32:16.09 | 2:48.10 | 145209 | 157818 13 | 35:04.19 | 3:05.47 | 157819 | 171740 14 | 38:09.66 | 3:40.48 | 171741 | 188288

Track 1

Filename D:\Rips\01 - Cops or Criminals.wav

Pre-gap length 0:00:02.00

Peak level 97.7 % Track quality 100.0 % Test CRC 200062A3 Copy CRC 200062A3 Accurately ripped (confidence 4) [E30AC555] Copy OK

Track 2

Filename D:\Rips\02 - 344 Wash.wav

Peak level 87.1 % Track quality 100.0 % Test CRC 201D7D27 Copy CRC 201D7D27 Accurately ripped (confidence 5) [612C4E48] Copy OK

Track 3

Filename D:\Rips\03 - Beacon Hill.wav

Peak level 71.8 % Track quality 100.0 % Test CRC A03834C8 Copy CRC A03834C8 Accurately ripped (confidence 5) [D4EDE5F8] Copy OK

Track 4

Filename D:\Rips\04 - The Faithful Departed.wav

Peak level 92.4 % Track quality 99.9 % Test CRC D8A23C93 Copy CRC D8A23C93 Accurately ripped (confidence 5) [F7AD1A30] Copy OK

Track 5

Filename D:\Rips\05 - Colin.wav

Peak level 97.7 % Track quality 100.0 % Test CRC 1400B18F Copy CRC 1400B18F Accurately ripped (confidence 5) [938B74B8] Copy OK

Track 6

Filename D:\Rips\06 - Madolyn.wav

Peak level 97.7 % Track quality 100.0 % Test CRC 86692FD0 Copy CRC 86692FD0 Accurately ripped (confidence 5) [39BC9DFC] Copy OK

Track 7

Filename D:\Rips\07 - Billy's Theme.wav

Peak level 97.7 % Track quality 99.9 % Test CRC 0205312E Copy CRC 0205312E Accurately ripped (confidence 5) [49F52A65] Copy OK

Track 8

Filename D:\Rips\08 - Command.wav

Peak level 97.7 % Track quality 100.0 % Test CRC 76D30B4D Copy CRC 76D30B4D Accurately ripped (confidence 5) [FD7E8BF9] Copy OK

Track 9

Filename D:\Rips\09 - Chinatown.wav

Peak level 97.6 % Track quality 100.0 % Test CRC D56DFFA9 Copy CRC D56DFFA9 Accurately ripped (confidence 5) [ED168474] Copy OK

Track 10

Filename D:\Rips\10 - Boston Common.wav

Peak level 81.6 % Track quality 100.0 % Test CRC 11A0BA1F Copy CRC 11A0BA1F Accurately ripped (confidence 5) [F9970EC5] Copy OK

Track 11

Filename D:\Rips\11 - Miss Thing.wav

Peak level 87.8 % Track quality 100.0 % Test CRC 5034483A Copy CRC 5034483A Accurately ripped (confidence 5) [7145DBE0] Copy OK

Track 12

Filename D:\Rips\12 - The Baby.wav

Peak level 70.8 % Track quality 100.0 % Test CRC 5DEE7BD7 Copy CRC 5DEE7BD7 Accurately ripped (confidence 5) [DA6FED45] Copy OK

Track 13

Filename D:\Rips\13 - The Last Rites.wav

Peak level 97.7 % Track quality 99.9 % Test CRC 4FF3C3A1 Copy CRC 4FF3C3A1 Accurately ripped (confidence 5) [AEFA3264] Copy OK

Track 14

Filename D:\Rips\14 - The Departed Tango.wav

Peak level 98.6 % Track quality 100.0 % Test CRC 11A90BCE Copy CRC 11A90BCE Accurately ripped (confidence 5) [A6A150D3] Copy OK

All tracks accurately ripped

No errors occurred

End of status report
 
REM GENRE ScoreREM DATE 2006REM DISCID B509CE0EREM COMMENT "ExactAudioCopy v0.99pb5"PERFORMER "Howard Shore"TITLE "The Departed - Original Score"FILE "01 - Cops or Criminals.wav" WAVE TRACK 01 AUDIO TITLE "Cops or Criminals" PERFORMER "Howard Shore" INDEX 01 00:00:00FILE "02 - 344 Wash.wav" WAVE TRACK 02 AUDIO TITLE "344 Wash" PERFORMER "Howard Shore" INDEX 01 00:00:00FILE "03 - Beacon Hill.wav" WAVE TRACK 03 AUDIO TITLE "Beacon Hill" PERFORMER "Howard Shore" INDEX 01 00:00:00FILE "04 - The Faithful Departed.wav" WAVE TRACK 04 AUDIO TITLE "The Faithful Departed" PERFORMER "Howard Shore" INDEX 01 00:00:00FILE "05 - Colin.wav" WAVE TRACK 05 AUDIO TITLE "Colin" PERFORMER "Howard Shore" INDEX 01 00:00:00FILE "06 - Madolyn.wav" WAVE TRACK 06 AUDIO TITLE "Madolyn" PERFORMER "Howard Shore" INDEX 01 00:00:00FILE "07 - Billy's Theme.wav" WAVE TRACK 07 AUDIO TITLE "Billy's Theme" PERFORMER "Howard Shore" INDEX 01 00:00:00FILE "08 - Command.wav" WAVE TRACK 08 AUDIO TITLE "Command" PERFORMER "Howard Shore" INDEX 01 00:00:00FILE "09 - Chinatown.wav" WAVE TRACK 09 AUDIO TITLE "Chinatown" PERFORMER "Howard Shore" INDEX 01 00:00:00FILE "10 - Boston Common.wav" WAVE TRACK 10 AUDIO TITLE "Boston Common" PERFORMER "Howard Shore" INDEX 01 00:00:00FILE "11 - Miss Thing.wav" WAVE TRACK 11 AUDIO TITLE "Miss Thing" PERFORMER "Howard Shore" INDEX 01 00:00:00FILE "12 - The Baby.wav" WAVE TRACK 12 AUDIO TITLE "The Baby" PERFORMER "Howard Shore" INDEX 01 00:00:00FILE "13 - The Last Rites.wav" WAVE TRACK 13 AUDIO TITLE "The Last Rites" PERFORMER "Howard Shore" INDEX 01 00:00:00FILE "14 - The Departed Tango.wav" WAVE TRACK 14 AUDIO TITLE "The Departed Tango" PERFORMER "Howard Shore" INDEX 01 00:00:00



Трекер:  [ 08-Июл-2011 02:05 ]

  

Скачать .torrent

Размер .torrent файла 16 KB


Размер: 196 MB
Хэш (hash) релиза: 1d92d3cfd7f3ddaf5472d6129afc22c0eabb47cf

Торренты, похожие на Отступники The Departed скачать торрент

Форум Название Автор Размер S L Добавлен
Саундтреки к фильмам и мультфильмам (lossless) ·· (Soundtrack) Отступники / The Departed (by Howard Shore & VA) - 2006 [FLAC (tracks+.cue) lossless] Asjw 283821804271 MB 0 0 1292268483

22:28

13-Дек-10

Саундтреки к фильмам и мультфильмам (mp3) ·· (Score/Soundtrack) Отступники / The Departed - Score + Soundtrack - 2006 [MP3, 192-320] Phoenix 165212807158 MB 0 0 1292265039

21:30

13-Дек-10

Еще никто не оставлял запись к записи скачать торрент Отступники The Departed . Будь первым!

!Обратная связь