Скачать через торрент музыку Храброе сердце Braveheart бесплатно без регистрации torrent

Если у вас наблюдаются проблемы со скриншотами, переходом по ссылками, скачиванием торрентов - проблемы в блокировщике рекламы AdBlock. #хорошегоДня!


Статистика раздачи
Размер:  317 MB   |    Зарегистрирован:  6 лет 5 месяцев   |    .torrent скачан:  51 раз   |   
Раздают:  1  
   
Загрузка...
 
Автор Сообщение

Galfimbul

avatar Galfimbul


Храброе сердце / Braveheart
Название альбома: More Music from Breavheart
Жанр: Score
Композитор: James Horner
Год выпуска диска: 1997
Год выпуска фильма: 1995
Издатель (лейбл): Decca/World-Icon B.V.
Номер по каталогу: 458 287-2

Аудио кодек: FLAC (*.flac)
Тип рипа: tracks+.cue
Битрейт аудио: lossless
Продолжительность: 1:08:45
Источник: другой трекер (релизер Ascold)

Треклист:
01. Prologue: "I Shall Tell You Of William Wallace" [Narration: Robert The Bruce] (3:35)
02. Outlawed Tunes On Outlawed Pipes (2:03)
03. The Royal Wedding [Narration: Robert The Bruce] (2:13)
04. "The Trouble With Scotland" [King Edward The Longshanks] (0:41)
05. Scottish Wedding Music (1:14)
06. Prima Noctes (1:46)
07. The Proposal [William Wallace And Murron] (6:32)
08. "Scotland Is Free!" [William Wallace] (0:18)
09. Point Of War / Johnny Cope / Up In The Morning Early (3:00)
10. Coversing With The Almighty [Stephen, William Wallace, Hamish, Campbell] (1:20)
11. The Road To The Isles / Glendaruel Highlanders / The Old Rustic Bridge By The Mill (3:52)
12. "Sons Of Scotland!" [William Wallace] (12:10)
13. Vision Of Murron (1:45)
14. "Unite The Clans!" [William Wallace] (0:23)
15. The Legend Spreads [Scottish Highlanders] (1:07)
16. "Why Do You Help Me?" [William Wallace And Princess Isabelle] (0:38)
17. For The Love Of A Princess (4:05)
18. "Not Every Man Really Lives" [William Wallace And Princess Isabelle] (4:11)
19. "The Prisoner Wishes To Say A Word" [The Executioner And William Wallace] (3:43)
20. "After The Beheading" [Robert The Bruce] (1:48)
21. "You Have Bled With Wallace!" [Robert The Bruce] (1:23)
22. Warrior Poets [William Wallace] (0:29)
23. Scotland The Brave / The Badge Of Scotland / The Meeting Of The Waters (2:48)
24. Leaving Glen Urquhart / The Highland Plaid / Jock Wilson"s Ball (3:33)
25. Kirkhill / The Argyllshire Gathering / The Braemar Highland Gathering (4:09)
 
EAC extraction logfile from 24. July 2007, 14:40 for CDJames Horner / Braveheart More Music

Used drive : IDE DVD-ROM 16X Adapter: 0 ID: 0Read mode : Secure with NO C2, accurate stream, disable cacheRead offset correction : 691Overread into Lead-In and Lead-Out : No

Used output format : C:\Program Files\Exact Audio Copy\flac-1.1.4-win\bin\flac.exe (User Defined Encoder) 192 kBit/s Additional command line options : -8 -A tukey(0.25) -A gauss(0.1875) -b 4096 -V -T "artist=%a" -T "title=%t" -T "album=%g" -T "date=%y" -T "tracknumber=%n" -T "genre=%m" %s --sector-align

Other options : Fill up missing offset samples with silence : Yes Delete leading and trailing silent blocks : No Installed external ASPI interface

Track 1 Filename C:\Documents and Settings\The1NamedMarc\Desktop\James Horner\Braveheart More Music (FLAC) (James Horner)\01 - James Horner - Prologue- 'I shall tell you of William Wallace' (Narration- Robert the Bruce).wav

Pre-gap length 0:00:02.42

Peak level 49.5 % Track quality 100.0 % Test CRC 5F97B72E Copy CRC 5F97B72E Copy OK

Track 2 Filename C:\Documents and Settings\The1NamedMarc\Desktop\James Horner\Braveheart More Music (FLAC) (James Horner)\02 - James Horner - Outlawed Tunes on Outlawed Pipes.wav

Pre-gap length 0:00:01.46

Peak level 25.6 % Track quality 100.0 % Test CRC E803B777 Copy CRC E803B777 Copy OK

Track 3 Filename C:\Documents and Settings\The1NamedMarc\Desktop\James Horner\Braveheart More Music (FLAC) (James Horner)\03 - James Horner - The Royal Wedding (Narration- Robert the Bruce).wav

Pre-gap length 0:00:00.90

Peak level 17.2 % Track quality 100.0 % Test CRC F41C37D6 Copy CRC F41C37D6 Copy OK

Track 4 Filename C:\Documents and Settings\The1NamedMarc\Desktop\James Horner\Braveheart More Music (FLAC) (James Horner)\04 - James Horner - 'The trouble with Scotland' (King Edward the Longshanks).wav

Pre-gap length 0:00:01.02

Peak level 19.5 % Track quality 100.0 % Test CRC 95F0FB18 Copy CRC 95F0FB18 Copy OK

Track 5 Filename C:\Documents and Settings\The1NamedMarc\Desktop\James Horner\Braveheart More Music (FLAC) (James Horner)\05 - James Horner - Scottish Wedding Music.wav

Peak level 48.2 % Track quality 100.0 % Test CRC E66798B3 Copy CRC E66798B3 Copy OK

Track 6 Filename C:\Documents and Settings\The1NamedMarc\Desktop\James Horner\Braveheart More Music (FLAC) (James Horner)\06 - James Horner - Prima Noctes.wav

Pre-gap length 0:00:00.89

Peak level 59.6 % Track quality 100.0 % Test CRC 0499F79E Copy CRC 0499F79E Copy OK

Track 7 Filename C:\Documents and Settings\The1NamedMarc\Desktop\James Horner\Braveheart More Music (FLAC) (James Horner)\07 - James Horner - The Proposal (William Wallace and Murron).wav

Pre-gap length 0:00:02.52

Peak level 56.2 % Track quality 99.9 % Test CRC 5C16B15A Copy CRC 5C16B15A Copy OK

Track 8 Filename C:\Documents and Settings\The1NamedMarc\Desktop\James Horner\Braveheart More Music (FLAC) (James Horner)\08 - James Horner - 'Scotland is free!' (William Wallace).wav

Pre-gap length 0:00:00.17

Peak level 24.3 % Track quality 100.0 % Test CRC 3271AD59 Copy CRC 3271AD59 Copy OK

Track 9 Filename C:\Documents and Settings\The1NamedMarc\Desktop\James Horner\Braveheart More Music (FLAC) (James Horner)\09 - James Horner - Point of War - Johnny Cope - Up in the Morning Early.wav

Peak level 22.8 % Track quality 100.0 % Test CRC 6956246A Copy CRC 6956246A Copy OK

Track 10 Filename C:\Documents and Settings\The1NamedMarc\Desktop\James Horner\Braveheart More Music (FLAC) (James Horner)\10 - James Horner - Coversing with the Almighty (Stephen, William Wallace, Hamish, Campbell).wav

Peak level 39.5 % Track quality 100.0 % Test CRC 061FBDF5 Copy CRC 061FBDF5 Copy OK

Track 11 Filename C:\Documents and Settings\The1NamedMarc\Desktop\James Horner\Braveheart More Music (FLAC) (James Horner)\11 - James Horner - The Road to the Isles - Glendaruel Highlanders - The Old Rustic Bridge by the Mill.wav

Peak level 28.2 % Track quality 100.0 % Test CRC 4C349FB7 Copy CRC 4C349FB7 Copy OK

Track 12 Filename C:\Documents and Settings\The1NamedMarc\Desktop\James Horner\Braveheart More Music (FLAC) (James Horner)\12 - James Horner - 'Sons of Scotland!' (William Wallace).wav

Pre-gap length 0:00:04.17

Peak level 96.1 % Track quality 100.0 % Test CRC D9FB3940 Copy CRC D9FB3940 Copy OK

Track 13 Filename C:\Documents and Settings\The1NamedMarc\Desktop\James Horner\Braveheart More Music (FLAC) (James Horner)\13 - James Horner - Vision of Murron.wav

Pre-gap length 0:00:00.44

Peak level 12.1 % Track quality 100.0 % Test CRC 07A9A1CB Copy CRC 07A9A1CB Copy OK

Track 14 Filename C:\Documents and Settings\The1NamedMarc\Desktop\James Horner\Braveheart More Music (FLAC) (James Horner)\14 - James Horner - 'Unite the clans!' (William Wallace).wav

Pre-gap length 0:00:00.62

Peak level 29.5 % Track quality 100.0 % Test CRC FAB8F2EE Copy CRC FAB8F2EE Copy OK

Track 15 Filename C:\Documents and Settings\The1NamedMarc\Desktop\James Horner\Braveheart More Music (FLAC) (James Horner)\15 - James Horner - The Legend Spreads (Scottish Highlanders).wav

Peak level 95.6 % Track quality 100.0 % Test CRC 456F3482 Copy CRC 456F3482 Copy OK

Track 16 Filename C:\Documents and Settings\The1NamedMarc\Desktop\James Horner\Braveheart More Music (FLAC) (James Horner)\16 - James Horner - 'Why do you help me ' (William Wallace and Princess Isabelle).wav

Peak level 9.5 % Track quality 100.0 % Test CRC 0F48315E Copy CRC 0F48315E Copy OK

Track 17 Filename C:\Documents and Settings\The1NamedMarc\Desktop\James Horner\Braveheart More Music (FLAC) (James Horner)\17 - James Horner - For the Love of a Princess.wav

Peak level 53.1 % Track quality 100.0 % Test CRC 0D23E93A Copy CRC 0D23E93A Copy OK

Track 18 Filename C:\Documents and Settings\The1NamedMarc\Desktop\James Horner\Braveheart More Music (FLAC) (James Horner)\18 - James Horner - 'Not every man really lives' (William Wallace and Princess Isabelle).wav

Pre-gap length 0:00:01.28

Peak level 17.2 % Track quality 100.0 % Test CRC E98C6143 Copy CRC E98C6143 Copy OK

Track 19 Filename C:\Documents and Settings\The1NamedMarc\Desktop\James Horner\Braveheart More Music (FLAC) (James Horner)\19 - James Horner - 'The prisoner wishes to say a word' (The Executioner and William Wallace).wav

Pre-gap length 0:00:01.04

Peak level 80.6 % Track quality 100.0 % Test CRC C5C1F9E1 Copy CRC C5C1F9E1 Copy OK

Track 20 Filename C:\Documents and Settings\The1NamedMarc\Desktop\James Horner\Braveheart More Music (FLAC) (James Horner)\20 - James Horner - 'After the beheading' (Robert the Bruce).wav

Peak level 35.2 % Track quality 100.0 % Test CRC 1C1428DD Copy CRC 1C1428DD Copy OK

Track 21 Filename C:\Documents and Settings\The1NamedMarc\Desktop\James Horner\Braveheart More Music (FLAC) (James Horner)\21 - James Horner - 'You have bled with Wallace!' (Robert the Bruce).wav

Peak level 98.4 % Track quality 100.0 % Test CRC 62A1367D Copy CRC 62A1367D Copy OK

Track 22 Filename C:\Documents and Settings\The1NamedMarc\Desktop\James Horner\Braveheart More Music (FLAC) (James Horner)\22 - James Horner - Warrior Poets (William Wallace).wav

Peak level 41.9 % Track quality 100.0 % Test CRC F3284D8F Copy CRC F3284D8F Copy OK

Track 23 Filename C:\Documents and Settings\The1NamedMarc\Desktop\James Horner\Braveheart More Music (FLAC) (James Horner)\23 - James Horner - Scotland the Brave - The Badge of Scotland - The Meeting of the Waters.wav

Pre-gap length 0:00:00.16

Peak level 38.1 % Track quality 99.9 % Test CRC 6FDE17C0 Copy CRC 6FDE17C0 Copy OK

Track 24 Filename C:\Documents and Settings\The1NamedMarc\Desktop\James Horner\Braveheart More Music (FLAC) (James Horner)\24 - James Horner - Leaving Glen Urquhart - The Highland Plaid - Jock Wilson's Ball.wav

Pre-gap length 0:00:00.46

Peak level 31.9 % Track quality 100.0 % Test CRC E9169FF9 Copy CRC E9169FF9 Copy OK

Track 25 Filename C:\Documents and Settings\The1NamedMarc\Desktop\James Horner\Braveheart More Music (FLAC) (James Horner)\25 - James Horner - Kirkhill - The Argyllshire Gathering - The Braemar Highland Gathering.wav

Pre-gap length 0:00:00.02

Peak level 37.1 % Track quality 99.9 % Test CRC D9755A01 Copy CRC D9755A01 Copy OK

No errors occured

End of status report
 
REM GENRE SoundtrackREM DATE 1997REM DISCID 79101D19REM COMMENT "ExactAudioCopy v0.95b3"PERFORMER "James Horner"TITLE "Braveheart More Music"FILE "01 - James Horner - Prologue- 'I shall tell you of William Wallace' (Narration- Robert the Bruce).wav" WAVE TRACK 01 AUDIO TITLE "Prologue: 'I shall tell you of William Wallace' (Narration: Robert the Bruce)" PERFORMER "James Horner" PREGAP 00:00:32 INDEX 01 00:00:00 TRACK 02 AUDIO TITLE "Outlawed Tunes on Outlawed Pipes" PERFORMER "James Horner" INDEX 00 03:33:38FILE "02 - James Horner - Outlawed Tunes on Outlawed Pipes.wav" WAVE INDEX 01 00:00:00 TRACK 03 AUDIO TITLE "The Royal Wedding (Narration: Robert the Bruce)" PERFORMER "James Horner" INDEX 00 02:02:32FILE "03 - James Horner - The Royal Wedding (Narration- Robert the Bruce).wav" WAVE INDEX 01 00:00:00 TRACK 04 AUDIO TITLE "'The trouble with Scotland' (King Edward the Longshanks)" PERFORMER "James Horner" INDEX 00 02:11:55FILE "04 - James Horner - 'The trouble with Scotland' (King Edward the Longshanks).wav" WAVE INDEX 01 00:00:00FILE "05 - James Horner - Scottish Wedding Music.wav" WAVE TRACK 05 AUDIO TITLE "Scottish Wedding Music" PERFORMER "James Horner" INDEX 01 00:00:00 TRACK 06 AUDIO TITLE "Prima Noctes" PERFORMER "James Horner" INDEX 00 01:13:43FILE "06 - James Horner - Prima Noctes.wav" WAVE INDEX 01 00:00:00 TRACK 07 AUDIO TITLE "The Proposal (William Wallace and Murron)" PERFORMER "James Horner" INDEX 00 01:43:49FILE "07 - James Horner - The Proposal (William Wallace and Murron).wav" WAVE INDEX 01 00:00:00 TRACK 08 AUDIO TITLE "'Scotland is free!' (William Wallace)" PERFORMER "James Horner" INDEX 00 06:31:47FILE "08 - James Horner - 'Scotland is free!' (William Wallace).wav" WAVE INDEX 01 00:00:00FILE "09 - James Horner - Point of War - Johnny Cope - Up in the Morning Early.wav" WAVE TRACK 09 AUDIO TITLE "Point of War - Johnny Cope - Up in the Morning Early" PERFORMER "James Horner" INDEX 01 00:00:00FILE "10 - James Horner - Coversing with the Almighty (Stephen, William Wallace, Hamish, Campbell).wav" WAVE TRACK 10 AUDIO TITLE "Coversing with the Almighty (Stephen, William Wallace, Hamish, Campbell)" PERFORMER "James Horner" INDEX 01 00:00:00FILE "11 - James Horner - The Road to the Isles - Glendaruel Highlanders - The Old Rustic Bridge by the Mill.wav" WAVE TRACK 11 AUDIO TITLE "The Road to the Isles - Glendaruel Highlanders - The Old Rustic Bridge by the..." PERFORMER "James Horner" INDEX 01 00:00:00 TRACK 12 AUDIO TITLE "'Sons of Scotland!' (William Wallace)" PERFORMER "James Horner" INDEX 00 03:48:12FILE "12 - James Horner - 'Sons of Scotland!' (William Wallace).wav" WAVE INDEX 01 00:00:00 TRACK 13 AUDIO TITLE "Vision of Murron" PERFORMER "James Horner" INDEX 00 12:09:22FILE "13 - James Horner - Vision of Murron.wav" WAVE INDEX 01 00:00:00 TRACK 14 AUDIO TITLE "'Unite the clans!' (William Wallace)" PERFORMER "James Horner" INDEX 00 01:44:58FILE "14 - James Horner - 'Unite the clans!' (William Wallace).wav" WAVE INDEX 01 00:00:00FILE "15 - James Horner - The Legend Spreads (Scottish Highlanders).wav" WAVE TRACK 15 AUDIO TITLE "The Legend Spreads (Scottish Highlanders)" PERFORMER "James Horner" INDEX 01 00:00:00FILE "16 - James Horner - 'Why do you help me ' (William Wallace and Princess Isabelle).wav" WAVE TRACK 16 AUDIO TITLE "'Why do you help me?' (William Wallace and Princess Isabelle)" PERFORMER "James Horner" INDEX 01 00:00:00FILE "17 - James Horner - For the Love of a Princess.wav" WAVE TRACK 17 AUDIO TITLE "For the Love of a Princess" PERFORMER "James Horner" INDEX 01 00:00:00 TRACK 18 AUDIO TITLE "'Not every man really lives' (William Wallace and Princess Isabelle)" PERFORMER "James Horner" INDEX 00 04:03:54FILE "18 - James Horner - 'Not every man really lives' (William Wallace and Princess Isabelle).wav" WAVE INDEX 01 00:00:00 TRACK 19 AUDIO TITLE "'The prisoner wishes to say a word' (The Executioner and William Wallace)" PERFORMER "James Horner" INDEX 00 04:09:40FILE "19 - James Horner - 'The prisoner wishes to say a word' (The Executioner and William Wallace).wav" WAVE INDEX 01 00:00:00FILE "20 - James Horner - 'After the beheading' (Robert the Bruce).wav" WAVE TRACK 20 AUDIO TITLE "'After the beheading' (Robert the Bruce)" PERFORMER "James Horner" INDEX 01 00:00:00FILE "21 - James Horner - 'You have bled with Wallace!' (Robert the Bruce).wav" WAVE TRACK 21 AUDIO TITLE "'You have bled with Wallace!' (Robert the Bruce)" PERFORMER "James Horner" INDEX 01 00:00:00FILE "22 - James Horner - Warrior Poets (William Wallace).wav" WAVE TRACK 22 AUDIO TITLE "Warrior Poets (William Wallace)" PERFORMER "James Horner" INDEX 01 00:00:00 TRACK 23 AUDIO TITLE "Scotland the Brave - The Badge of Scotland - The Meeting of the Waters" PERFORMER "James Horner" INDEX 00 00:28:45FILE "23 - James Horner - Scotland the Brave - The Badge of Scotland - The Meeting of the Waters.wav" WAVE INDEX 01 00:00:00 TRACK 24 AUDIO TITLE "Leaving Glen Urquhart - The Highland Plaid - Jock Wilson's Ball" PERFORMER "James Horner" INDEX 00 02:47:18FILE "24 - James Horner - Leaving Glen Urquhart - The Highland Plaid - Jock Wilson's Ball.wav" WAVE INDEX 01 00:00:00 TRACK 25 AUDIO TITLE "Kirkhill - The Argyllshire Gathering - The Braemar Highland Gathering" PERFORMER "James Horner" INDEX 00 03:32:55FILE "25 - James Horner - Kirkhill - The Argyllshire Gathering - The Braemar Highland Gathering.wav" WAVE INDEX 01 00:00:00
 
AUDIOCHECKER v1.2 - by Dester - opdester@freemail.hu~~~~~~~~~~~~~~~~~

01 -===- C:\mus!c\10. Various music\# OST\Braveheart - More Music From The Movie (1997) (James Horner)\01 - Prologue - 'I Shall Tell You Of William Wallace' [Narration - Robert The Bruce].flac Extracted successfully Conclusion: This track looks like CDDA with probability 100%

02 -===- C:\mus!c\10. Various music\# OST\Braveheart - More Music From The Movie (1997) (James Horner)\02 - Outlawed Tunes On Outlawed Pipes.flac Extracted successfully Conclusion: This track looks like CDDA with probability 100%

03 -===- C:\mus!c\10. Various music\# OST\Braveheart - More Music From The Movie (1997) (James Horner)\03 - The Royal Wedding [Narration - Robert The Bruce].flac Extracted successfully Conclusion: This track looks like CDDA with probability 100%

04 -===- C:\mus!c\10. Various music\# OST\Braveheart - More Music From The Movie (1997) (James Horner)\04 - The Trouble With Scotland [King Edward The Longshanks].flac Extracted successfully Conclusion: This track looks like CDDA with probability 100%

05 -===- C:\mus!c\10. Various music\# OST\Braveheart - More Music From The Movie (1997) (James Horner)\05 - Scottish Wedding Music.flac Extracted successfully Conclusion: This track looks like CDDA with probability 100%

06 -===- C:\mus!c\10. Various music\# OST\Braveheart - More Music From The Movie (1997) (James Horner)\06 - Prima Noctes.flac Extracted successfully Conclusion: This track looks like CDDA with probability 43%

07 -===- C:\mus!c\10. Various music\# OST\Braveheart - More Music From The Movie (1997) (James Horner)\07 - The Proposal [William Wallace And Murron].flac Extracted successfully Conclusion: This track looks like CDDA with probability 100%

08 -===- C:\mus!c\10. Various music\# OST\Braveheart - More Music From The Movie (1997) (James Horner)\08 - 'Scotland Is Free!' [William Wallace].flac Extracted successfully Conclusion: This track looks like CDDA with probability 100%

09 -===- C:\mus!c\10. Various music\# OST\Braveheart - More Music From The Movie (1997) (James Horner)\09 - Point Of War - Johnny Cope - Up In The Morning Early.flac Extracted successfully Conclusion: This track looks like CDDA with probability 100%

10 -===- C:\mus!c\10. Various music\# OST\Braveheart - More Music From The Movie (1997) (James Horner)\10 - Coversing With The Almighty [Stephen, William Wallace, Hamish, Campbell].flac Extracted successfully Conclusion: This track looks like CDDA with probability 100%

11 -===- C:\mus!c\10. Various music\# OST\Braveheart - More Music From The Movie (1997) (James Horner)\11 - The Road To The Isles - Glendaruel Highlanders - The Old Rustic Bridge By The Mill.flac Extracted successfully Conclusion: This track looks like CDDA with probability 100%

12 -===- C:\mus!c\10. Various music\# OST\Braveheart - More Music From The Movie (1997) (James Horner)\12 - 'Sons Of Scotland!' [William Wallace].flac Extracted successfully Conclusion: This track looks like CDDA with probability 100%

13 -===- C:\mus!c\10. Various music\# OST\Braveheart - More Music From The Movie (1997) (James Horner)\13 - Vision Of Murron.flac Extracted successfully Conclusion: This track looks like CDDA with probability 54%

14 -===- C:\mus!c\10. Various music\# OST\Braveheart - More Music From The Movie (1997) (James Horner)\14 - 'Unite The Clans!' [William Wallace].flac Extracted successfully Conclusion: This track looks like CDDA with probability 99%

15 -===- C:\mus!c\10. Various music\# OST\Braveheart - More Music From The Movie (1997) (James Horner)\15 - The Legend Spreads [Scottish Highlanders].flac Extracted successfully Conclusion: This track looks like CDDA with probability 54%

16 -===- C:\mus!c\10. Various music\# OST\Braveheart - More Music From The Movie (1997) (James Horner)\16 - 'Why Do You Help Me' [William Wallace And Princess Isabelle].flac Extracted successfully Conclusion: This track looks like CDDA with probability 99%

17 -===- C:\mus!c\10. Various music\# OST\Braveheart - More Music From The Movie (1997) (James Horner)\17 - For The Love Of A Princess.flac Extracted successfully Conclusion: This track looks like CDDA with probability 100%

18 -===- C:\mus!c\10. Various music\# OST\Braveheart - More Music From The Movie (1997) (James Horner)\18 - 'Not Every Man Really Lives' [William Wallace And Princess Isabelle].flac Extracted successfully Conclusion: This track looks like CDDA with probability 100%

19 -===- C:\mus!c\10. Various music\# OST\Braveheart - More Music From The Movie (1997) (James Horner)\19 - 'The Prisoner Wishes To Say A Word' [The Executioner And William Wallace].flac Extracted successfully Conclusion: This track looks like CDDA with probability 100%

20 -===- C:\mus!c\10. Various music\# OST\Braveheart - More Music From The Movie (1997) (James Horner)\20 - 'After The Beheading' [Robert The Bruce].flac Extracted successfully Conclusion: This track looks like CDDA with probability 100%

21 -===- C:\mus!c\10. Various music\# OST\Braveheart - More Music From The Movie (1997) (James Horner)\21 - 'You Have Bled With Wallace!' [Robert The Bruce].flac Extracted successfully Conclusion: This track looks like CDDA with probability 99%

22 -===- C:\mus!c\10. Various music\# OST\Braveheart - More Music From The Movie (1997) (James Horner)\22 - Warrior Poets [William Wallace].flac Extracted successfully Conclusion: This track looks like CDDA with probability 85%

23 -===- C:\mus!c\10. Various music\# OST\Braveheart - More Music From The Movie (1997) (James Horner)\23 - Scotland The Brave - The Badge Of Scotland - The Meeting Of The Waters.flac Extracted successfully Conclusion: This track looks like CDDA with probability 100%

24 -===- C:\mus!c\10. Various music\# OST\Braveheart - More Music From The Movie (1997) (James Horner)\24 - Leaving Glen Urquhart - The Highland Plaid - Jock Wilsons Ball.flac Extracted successfully Conclusion: This track looks like CDDA with probability 99%

25 -===- C:\mus!c\10. Various music\# OST\Braveheart - More Music From The Movie (1997) (James Horner)\25 - Kirkhill - The Argyllshire Gathering - The Braemar Highland Gathering.flac Extracted successfully Conclusion: This track looks like CDDA with probability 100%
5. Scottish Wedding Music:
12. "Sons Of Scotland!" [William Wallace]:
17. For The Love Of A Princess:



Трекер:  [ 08-Июл-2011 02:04 ]

  

Скачать .torrent

Размер .torrent файла 16 KB


Размер: 317 MB
Хэш (hash) релиза: 2ea9bb0fbb2093335fa0f5fdf74d7c54d5a7b45d

Торренты, похожие на Храброе сердце Braveheart скачать торрент

Форум Название Автор Размер S L Добавлен
Саундтреки к фильмам и мультфильмам (mp3) ·· (Score) Храброе Сердце / Braveheart (by James Horner) - 1995, MP3 (tracks), 320 kbps Galfimbul 194164610185 MB 0 0 1292265787

21:43

13-Дек-10

Саундтреки к фильмам и мультфильмам (lossless) ·· (Score) Braveheart / Храброе Сердце (by James Horner) - 1995, FLAC (tracks + .cue), lossless Galfimbul 355268690339 MB 0 0 1292268516

22:28

13-Дек-10

Еще никто не оставлял запись к записи скачать торрент Храброе сердце Braveheart . Будь первым!

!Обратная связь