Скачать через торрент музыку Aladdin Аладдин - Original Motion Picture Soundtrack - 1992, FLAC бесплатно без регистрации torrent

Если у вас наблюдаются проблемы со скриншотами, переходом по ссылками, скачиванием торрентов - проблемы в блокировщике рекламы AdBlock. #хорошегоДня!


Статистика раздачи
Размер:  256 MB   |    Зарегистрирован:  6 лет 5 месяцев   |    .torrent скачан:  40 раз   |   
Раздают:  1  
   
Загрузка...
 
Автор Сообщение

Galfimbul

avatar Galfimbul


Aladdin / Аладдин - Original Motion Picture Soundtrack

Жанр: Soundtrack
Год выпуска диска: 1992
Производитель диска: страна не указана (Walt Disney Music Company)
Аудио кодек: FLAC
Тип рипа: image+.cue
Битрейт аудио: lossless
Продолжительность: 00:50:04

Трэклист:

01. Arabian Nights (1:18)
02. Legend Of The Lamp (1:24)
03. One Jump Ahead (2:22)
04. Street Urchins (1:52)
05. One Jump Ahead (Reprise) (0:59)
06. Friend Like Me (2:26)
07. To Be Free (1:38)
08. Prince Ali (2:51)
09. A Whole New World (2:39)
10. Jafar's Hour (2:42)
11. Prince Ali (Reprise) (1:07)
12. The Ends Of The Earth (1:34)
13. The Kiss (1:50)
14. On A Dark Night (2:54)
15. Jasmine Runs Away (0:45)
16. Marketplace (2:36)
17. The Cave Of Wonders (4:56)
18. Aladdin's Word (1:50)
19. The Battle (3:37)
20. Happy End In Agrabah (4:11)
21. A Whole New World (Aladdin's Theme) (4:06)
Exact Audio Copy V0.99 prebeta 4 from 23. January 2008

EAC extraction logfile from 27. August 2008, 16:24

Various / Aladdin

Used drive : Optiarc DVD RW AD-7173A Adapter: 3 ID: 1

Read mode : Secure
Utilize accurate stream : Yes
Defeat audio cache : Yes
Make use of C2 pointers : No

Read offset correction : 48
Overread into Lead-In and Lead-Out : No
Fill up missing offset samples with silence : Yes
Delete leading and trailing silent blocks : No
Null samples used in CRC calculations : Yes
Used interface : Installed external ASPI interface

Used output format : Internal WAV Routines
Sample format : 44.100 Hz; 16 Bit; Stereo

TOC of the extracted CD

Track | Start | Length | Start sector | End sector
---------------------------------------------------------
1 | 0:00.00 | 1:19.10 | 0 | 5934
2 | 1:19.10 | 1:25.15 | 5935 | 12324
3 | 2:44.25 | 2:22.37 | 12325 | 23011
4 | 5:06.62 | 1:52.63 | 23012 | 31474
5 | 6:59.50 | 1:01.50 | 31475 | 36099
6 | 8:01.25 | 2:26.32 | 36100 | 47081
7 | 10:27.57 | 1:39.23 | 47082 | 54529
8 | 12:07.05 | 2:51.70 | 54530 | 67424
9 | 14:59.00 | 2:40.60 | 67425 | 79484
10 | 17:39.60 | 2:42.62 | 79485 | 91696
11 | 20:22.47 | 1:07.58 | 91697 | 96779
12 | 21:30.30 | 1:35.27 | 96780 | 103931
13 | 23:05.57 | 1:51.13 | 103932 | 112269
14 | 24:56.70 | 2:55.50 | 112270 | 125444
15 | 27:52.45 | 0:46.72 | 125445 | 128966
16 | 28:39.42 | 2:37.28 | 128967 | 140769
17 | 31:16.70 | 4:57.57 | 140770 | 163101
18 | 36:14.52 | 1:51.50 | 163102 | 171476
19 | 38:06.27 | 3:38.23 | 171477 | 187849
20 | 41:44.50 | 4:12.60 | 187850 | 206809
21 | 45:57.35 | 4:06.45 | 206810 | 225304

Range status and errors

Selected range

Filename D:\Works\CD-Rips\Aladdin\Aladdin Soundtrack.wav

Peak level 99.8 %
Range quality 99.9 %
Test CRC EC96FB9C
Copy CRC EC96FB9C
Copy OK

No errors occurred

AccurateRip summary

Track 1 not present in database
Track 2 not present in database
Track 3 not present in database
Track 4 not present in database
Track 5 not present in database
Track 6 not present in database
Track 7 not present in database
Track 8 not present in database
Track 9 not present in database
Track 10 not present in database
Track 11 not present in database
Track 12 not present in database
Track 13 not present in database
Track 14 not present in database
Track 15 not present in database
Track 16 not present in database
Track 17 not present in database
Track 18 not present in database
Track 19 not present in database
Track 20 not present in database
Track 21 not present in database

None of the tracks are present in the AccurateRip database

End of status report
AUDIOCHECKER v2.0 beta (build 457) - by Dester - opdester@freemail.hu
~~~~~~~~~~~~~~~~~~~~~~~~~~~~~~~~~~
-=== DO NOT EDIT THIS FILE! ===-

Path: ...\Aladdin

1 -=- Aladdin Soundtrack.wav -=- CDDA (100%)

32489140


Трекер:  [ 08-Июл-2011 12:17 ]

  

Скачать .torrent

Размер .torrent файла 10 KB


Размер: 256 MB
Хэш (hash) релиза: d172cbdb73a6352c3697aceb622c5ba845d4108a

Еще никто не оставлял запись к записи скачать торрент Aladdin Аладдин - Original Motion Picture Soundtrack - 1992, FLAC . Будь первым!

!Обратная связь