Скачать через торрент музыку Frida - 2002, FLAC бесплатно без регистрации torrent

Если у вас наблюдаются проблемы со скриншотами, переходом по ссылками, скачиванием торрентов - проблемы в блокировщике рекламы AdBlock. #хорошегоДня!


Статистика раздачи
Размер:  307 MB   |    Зарегистрирован:  6 лет 5 месяцев   |    .torrent скачан:  43 раза   |   
Раздают:  1  
   
Загрузка...
 
Автор Сообщение

Galfimbul

avatar Galfimbul


Frida - Music from the motion picture

Жанр: OST
Год выпуска диска: 2002
Производитель диска: EU
Аудио кодек: FLAC
Тип рипа: tracks+.cue
Битрейт аудио: lossless
Продолжительность: 52:45
Трэклист:
01. Lila Downs - Benediction And Dream (2:31)
02. Elliot Goldenthal - The Floating Bed (1:29)
03. Los Cojolites - El Conejo (2:28)
04. Chavela Vargas - Paloma Negra (3:18)
05. Elliot Goldenthal - Self-Portrait With Hair Down (1:11)
06. Lila Downs - Alcoba Azul (1:37)
07. El Poder del Norte - Carabina 30/30 (2:43)
08. Elliot Goldenthal - Solo Tu (1:22)
09. Trio Huasteco Caimanes De Tamuin - El Gusto (2:18)
10. Elliot Goldenthal - The Journey (2:57)
11. Liberacion, Miguel Galindo, Alejandro Marehuala, Gerado Garcia - El Antifaz (2:29)
12. Elliot Goldenthal - The Suicide Of Dorothy Hale (0:47)
13. Elliot Goldenthal - La Cavalera (1:39)
14. Salma Hayek And Los Vega - La Bruja (1:57)
15. Elliot Goldenthal - Portrait Of Lupe (2:16)
16. Chavela Vargas - La Llorona (2:22)
17. Lila Downs - Estrella Oscura (1:47)
18. Elliot Goldenthal - Still Life (1:33)
19. Trio, Marimberos - Viva La Vida (2:17)
20. Elliot Goldenthal - The Departure (2:13)
21. Elliot Goldenthal - Coyoacan And Variations (2:33)
22. Lila Downs And Mariachi Juvenil De Tecalitlan - La Llorona (2:22)
23. Elliot Goldenthal - Burning Bed (1:09)
24. Caetano Veloso And Lila Downs - Burn It Blue (5:27)
Genre: Electronic, Latin, Stage & Screen
Style: Bossanova, Latin, Tango, Soundtrack, Score, Flamenco, Cubano
Credits: Accordion - Gil Goldstein , Herbert Clavel
Artwork By [Art Direction And Design] - Carla Leighton
Artwork By [Creative Director] - Penny Bennett
Artwork By [Package Coordination] - Rafaela Hernández , Thanne Tangel
Cello - Garo Yellin , Richard Locker
Composed By - Elliot Goldenthal (tracks: 1, 2, 5, 8, 10, 12, 13, 15, 17, 18, 20, 21, 23, 24)
Conductor [Orchestra Conducted By] - Stephen Mercurio
Dulcimer - Bill Ruyle
Edited By [Music Editor] - Curtis Roush
Flute - Harvey Estrin
Guitar [Additional], Vocals [Additional] - Ernesto Anaya , Leonel Angel Lopez
Guitar [Guitar Soloist] - Francisco "Pancho" Navarro*
Harmonica [Glass Harmonica] - Cecilia Brauer
Harp - Augusto Castillo , Javier Martinez (5)
Marimba, Percussion - Valerie Naranjo
Mastered By - Vlado Meller
Orchestrated By - Elliot Goldenthal , Robert Elhai
Other [A & R Direction For Universal Classics Group] - Randy Dry
Other [Additional Music Preparation] - Winfried Kraus
Other [Album Direction For Universal Music Group Soundtracks] - Aida Gaboyan , David Buntz
Other [Chairman Universal Classics Group] - Chris Roberts
Other [Contracting And Music Preparation] - Emile Charlap
Other [Executive In Charge Of Music For Miramax] - Randy Spendlove
Other [Executive In Charge Of Soundtracks For Universal Music Group] - Kathy Nelson
Other [Music Business Affairs] - Alan Duke , Gerfried Horst
Other [Music Supervisor - Mexico] - Jacobo Lieberman , Leonardo Heiblum
Other [Music Supervisor - Miramax] - David Schulhof
Other [Music Supervisor - U S] - Kathy Nelson , Sarah Botstein
Other [Soundtrack Album Coordinator For Miramax] - Rachel Levy
Other [Soundtrack Coordination For Universal Classics Group] - Meredith Friedman
Other [Soundtrack Coordination For Universal Music Group Soundtracks] - Christy Gerhart
Percussion [Additional] - Jamey Haddad
Piano - Elliot Goldenthal
Producer [Electronic Music Producer] - Richard Martinez
Producer [Music Producer Mexico] - Jacobo Lieberman , Leonardo Heiblum
Producer [Music] - Elliot Goldenthal , Teese Gohl
Recorded By [Additional Recording Mexico] - Eduardo Vaisman , Lena Esquizani , Valeria Palomino
Recorded By [Additional], Mixed By [Additional] - Lawrence Manchester
Recorded By, Mixed By - Joel Iwataki
Saxophone - Bruce Williamson
Notes: Recorded and mixed at Manhattan Center Studio, New York City, USA, at Estudio Churubusco, Mexico City, Mexico & at Zarathustra Hall, New York City, USA.
Mastered at Sony Music, New York City, USA.

Contains a multimedia section with excerpts from the motion picture.

(C) Miramax Film Corp. 2002
(P) Deutsche Grammophon GmbH 2002

Made in the EU.
LC 12216

Barcode: 0 28947 41502 2

1. Frida, film score Benediction and Dream
Composed by Elliot Goldenthal
with Richard Locker, Harvey Estrin, Jamey Haddad, Bill Ruyle, Bruce Williamson, Valerie Naranjo, Garo Yellin, Elliot Goldenthal
2. Frida, film score The Floating Bed
Composed by Elliot Goldenthal
with Richard Locker, Harvey Estrin, Jamey Haddad, Bill Ruyle, Bruce Williamson, Valerie Naranjo, Garo Yellin, Elliot Goldenthal
3. El Conejo
Composed by Los Cojolites
with Los Cojolites
4. Paloma Negra
Composed by Tomas Mendez
5. Frida, film score Self Portrait With Hair Down
Composed by Elliot Goldenthal
with Richard Locker, Harvey Estrin, Jamey Haddad, Bill Ruyle, Bruce Williamson, Valerie Naranjo, Garo Yellin, Elliot Goldenthal
6. Alcoba Azul, song (for the film Frida)
Composed by Elliot Goldenthal
with Jamey Haddad, Richard Locker, Bruce Williamson, Bill Ruyle, Valerie Naranjo, Garo Yellin, Harvey Estrin
7. Carabina 30/30 (Corrido)
Composed by Mexican Traditional
8. Frida, film score Solo Tu
Composed by Elliot Goldenthal
with Richard Locker, Harvey Estrin, Jamey Haddad, Bill Ruyle, Bruce Williamson, Valerie Naranjo, Garo Yellin, Elliot Goldenthal
9. El Gusto (Son Huasteco)
Composed by Mexican Traditional
10. Frida, film score The Journey
Composed by Elliot Goldenthal
with Richard Locker, Harvey Estrin, Jamey Haddad, Bill Ruyle, Bruce Williamson, Valerie Naranjo, Garo Yellin, Elliot Goldenthal
11. El Antifaz
Composed by Luis Arcaraz Torras
12. Frida, film score The Suicide of Dorothy Hale
Composed by Elliot Goldenthal
with Richard Locker, Harvey Estrin, Jamey Haddad, Bill Ruyle, Bruce Williamson, Valerie Naranjo, Garo Yellin, Elliot Goldenthal
13. Frida, film score La Cavalera
Composed by Elliot Goldenthal
with Richard Locker, Harvey Estrin, Jamey Haddad, Bill Ruyle, Bruce Williamson, Valerie Naranjo, Garo Yellin, Elliot Goldenthal
14. La Bruja (Son Jarocho)
Composed by Mexican Traditional
15. Frida, film score Portrait of Lupe
Composed by Elliot Goldenthal
with Richard Locker, Harvey Estrin, Jamey Haddad, Bill Ruyle, Bruce Williamson, Valerie Naranjo, Garo Yellin, Elliot Goldenthal
16. La Llorona
Composed by Luis Mars
17. Frida, film score Estrella Oscura
Composed by Elliot Goldenthal
with Richard Locker, Harvey Estrin, Jamey Haddad, Bill Ruyle, Bruce Williamson, Valerie Naranjo, Garo Yellin, Elliot Goldenthal
18. Frida, film score Still Life
Composed by Elliot Goldenthal
with Richard Locker, Harvey Estrin, Jamey Haddad, Bill Ruyle, Bruce Williamson, Valerie Naranjo, Garo Yellin, Elliot Goldenthal
19. Frida, film score Viva La Vida
Composed by Elliot Goldenthal
with Richard Locker, Harvey Estrin, Jamey Haddad, Bill Ruyle, Bruce Williamson, Valerie Naranjo, Garo Yellin, Elliot Goldenthal
20. Frida, film score The Departure
Composed by Elliot Goldenthal
with Richard Locker, Harvey Estrin, Jamey Haddad, Bill Ruyle, Bruce Williamson, Valerie Naranjo, Garo Yellin, Elliot Goldenthal
21. Frida, film score Coyoacán and Variations
Composed by Elliot Goldenthal
with Richard Locker, Harvey Estrin, Jamey Haddad, Bill Ruyle, Bruce Williamson, Valerie Naranjo, Garo Yellin, Elliot Goldenthal
22. La Llorona
Composed by Luis Mars
23. Frida, film score Burning Bed
Composed by Elliot Goldenthal
with Richard Locker, Harvey Estrin, Jamey Haddad, Bill Ruyle, Bruce Williamson, Valerie Naranjo, Garo Yellin, Elliot Goldenthal
24. Frida, film score Burn It Blue
Composed by Elliot Goldenthal
with Caetano Veloso, Richard Locker, Harvey Estrin, Jamey Haddad, Bill Ruyle, Bruce Williamson, Valerie Naranjo, Garo Yellin, Elliot Goldenthal
EAC extraction logfile from 23. May 2008, 12:32 for CD
Various / Frida

Used drive : PIONEER DVD-RW DVR-111D Adapter: 0 ID: 3
Read mode : Secure with NO C2, accurate stream, disable cache
Read offset correction : 48
Overread into Lead-In and Lead-Out : No

Used output format : C:\Program Files\Exact Audio Copy\Flac 1.1.4\flac.exe (User Defined Encoder)
320 kBit/s
Additional command line options : -8 -V -T "artist=%a" -T "title=%t" -T "album=%g" -T "date=%y" -T "tracknumber=%n" -T "genre=%m" %s

Other options :
Fill up missing offset samples with silence : Yes
Delete leading and trailing silent blocks : No
Installed external ASPI interface

Track 1
Filename F:\New Folder\01 - Lila Downs - Benediction And Dream.wav

Pre-gap length 0:00:02.00

Peak level 97.7 %
Track quality 100.0 %
Test CRC 82F3FB6A
Copy CRC 82F3FB6A
Copy OK

Track 2
Filename F:\New Folder\02 - Elliot Goldenthal - The Floating Bed.wav

Pre-gap length 0:00:00.02

Peak level 99.9 %
Track quality 100.0 %
Test CRC ECCB8CE7
Copy CRC ECCB8CE7
Copy OK

Track 3
Filename F:\New Folder\03 - Los Cojolites - El Conejo.wav

Pre-gap length 0:00:01.10

Peak level 80.8 %
Track quality 100.0 %
Test CRC 911FF9D0
Copy CRC 911FF9D0
Copy OK

Track 4
Filename F:\New Folder\04 - Chavela Vargas - Paloma Negra.wav

Pre-gap length 0:00:02.65

Peak level 80.3 %
Track quality 100.0 %
Test CRC 7856C287
Copy CRC 7856C287
Copy OK

Track 5
Filename F:\New Folder\05 - Elliot Goldenthal - Self-Portrait With Hair Down.wav

Pre-gap length 0:00:02.25

Peak level 91.2 %
Track quality 100.0 %
Test CRC A291F949
Copy CRC A291F949
Copy OK

Track 6
Filename F:\New Folder\06 - Lila Downs - Alcoba Azul.wav

Pre-gap length 0:00:01.20

Peak level 99.9 %
Track quality 99.8 %
Test CRC 45C60E36
Copy CRC 45C60E36
Copy OK

Track 7
Filename F:\New Folder\07 - El Poder del Norte - Carabina 30,30.wav

Pre-gap length 0:00:00.81

Peak level 99.9 %
Track quality 100.0 %
Test CRC 9CC98413
Copy CRC 9CC98413
Copy OK

Track 8
Filename F:\New Folder\08 - Elliot Goldenthal - Solo Tu.wav

Pre-gap length 0:00:00.77

Peak level 99.9 %
Track quality 99.8 %
Test CRC 22CD2A2E
Copy CRC 22CD2A2E
Copy OK

Track 9
Filename F:\New Folder\09 - Trio Huasteco Caimanes De Tamuin - El Gusto.wav

Pre-gap length 0:00:01.08

Peak level 84.1 %
Track quality 100.0 %
Test CRC AA2B14C1
Copy CRC AA2B14C1
Copy OK

Track 10
Filename F:\New Folder\10 - Elliot Goldenthal - The Journey.wav

Pre-gap length 0:00:02.10

Peak level 99.9 %
Track quality 100.0 %
Test CRC 24CB7B22
Copy CRC 24CB7B22
Copy OK

Track 11
Filename F:\New Folder\11 - Liberacion, Miguel Galindo, Alejandro Marehuala, Gerado Garcia - El Antifaz.wav

Pre-gap length 0:00:00.68

Peak level 95.5 %
Track quality 100.0 %
Test CRC A680E288
Copy CRC A680E288
Copy OK

Track 12
Filename F:\New Folder\12 - Elliot Goldenthal - The Suicide Of Dorothy Hale.wav

Pre-gap length 0:00:00.02

Peak level 66.7 %
Track quality 100.0 %
Test CRC F11083BD
Copy CRC F11083BD
Copy OK

Track 13
Filename F:\New Folder\13 - Elliot Goldenthal - La Cavalera.wav

Pre-gap length 0:00:00.73

Peak level 99.9 %
Track quality 99.8 %
Test CRC 7C0A2896
Copy CRC 7C0A2896
Copy OK

Track 14
Filename F:\New Folder\14 - Salma Hayek And Los Vega - La Bruja.wav

Pre-gap length 0:00:02.10

Peak level 95.5 %
Track quality 100.0 %
Test CRC E48B62FE
Copy CRC E48B62FE
Copy OK

Track 15
Filename F:\New Folder\15 - Elliot Goldenthal - Portrait Of Lupe.wav

Pre-gap length 0:00:02.08

Peak level 98.8 %
Track quality 100.0 %
Test CRC 0B22CE2C
Copy CRC 0B22CE2C
Copy OK

Track 16
Filename F:\New Folder\16 - Chavela Vargas - La Llorona.wav

Pre-gap length 0:00:00.12

Peak level 99.9 %
Track quality 100.0 %
Test CRC 1F9CD5BB
Copy CRC 1F9CD5BB
Copy OK

Track 17
Filename F:\New Folder\17 - Lila Downs - Estrella Oscura.wav

Pre-gap length 0:00:00.02

Peak level 98.8 %
Track quality 100.0 %
Test CRC DBD74085
Copy CRC DBD74085
Copy OK

Track 18
Filename F:\New Folder\18 - Elliot Goldenthal - Still Life.wav

Pre-gap length 0:00:01.45

Peak level 85.6 %
Track quality 100.0 %
Test CRC 14A5A5CA
Copy CRC 14A5A5CA
Copy OK

Track 19
Filename F:\New Folder\19 - Trio, Marimberos - Viva La Vida.wav

Pre-gap length 0:00:00.02

Peak level 99.9 %
Track quality 99.9 %
Test CRC 0889C551
Copy CRC 0889C551
Copy OK

Track 20
Filename F:\New Folder\20 - Elliot Goldenthal - The Departure.wav

Pre-gap length 0:00:00.02

Peak level 85.7 %
Track quality 100.0 %
Test CRC E9EE06D7
Copy CRC E9EE06D7
Copy OK

Track 21
Filename F:\New Folder\21 - Elliot Goldenthal - Coyoacan And Variations.wav

Pre-gap length 0:00:00.02

Peak level 94.3 %
Track quality 100.0 %
Test CRC 37F43A1B
Copy CRC 37F43A1B
Copy OK

Track 22
Filename F:\New Folder\22 - Lila Downs And Mariachi Juvenil De Tecalitlan - La Llorona.wav

Pre-gap length 0:00:01.88

Peak level 99.9 %
Track quality 100.0 %
Test CRC D5C800FA
Copy CRC D5C800FA
Copy OK

Track 23
Filename F:\New Folder\23 - Elliot Goldenthal - Burning Bed.wav

Pre-gap length 0:00:00.53

Peak level 98.8 %
Track quality 100.0 %
Test CRC 07D98068
Copy CRC 07D98068
Copy OK

Track 24
Filename F:\New Folder\24 - Caetano Veloso And Lila Downs - Burn It Blue.wav

Pre-gap length 0:00:00.02

Peak level 98.8 %
Track quality 100.0 %
Test CRC 00DC593F
Copy CRC 00DC593F
Copy OK

No errors occured

End of status report


Трекер:  [ 08-Июл-2011 12:15 ]

  

Скачать .torrent

Размер .torrent файла 16 KB


Размер: 307 MB
Хэш (hash) релиза: 9e113a9415e3603dc728466be2e2b2b138c75051

Еще никто не оставлял запись к записи скачать торрент Frida - 2002, FLAC . Будь первым!

!Обратная связь