Скачать через торрент музыку Кадиллак Рекордс Cadillac Records бесплатно без регистрации torrent

Если у вас наблюдаются проблемы со скриншотами, переходом по ссылками, скачиванием торрентов - проблемы в блокировщике рекламы AdBlock. #хорошегоДня!


Статистика раздачи
Размер:  487 MB   |    Зарегистрирован:  6 лет 5 месяцев   |    .torrent скачан:  62 раза   |   
Раздают:  1  
   
Загрузка...
 
Автор Сообщение

Galfimbul

avatar Galfimbul


Кадиллак Рекордс / Cadillac Records (Special 2CD Deluxe Edition)

Жанр: Soundtrack/Electric Blues/Neo-Soul
Год выпуска диска: 2008
Производитель диска: USA (Columbia)
Аудио кодек: FLAC
Тип рипа: tracks+.cue
Битрейт аудио: lossless
Продолжительность: 01:19:36
Трэклист:

CD 1:
01. Jeffery Wright - Im A Man
02. Beyonce - At Last
03. Mos Def - No Particular Place To Go
04. Jeffrey Wright - Im Your Hoochie Coochie Man
05. Beyonce - Once In A Lifetime
06. Raphael Saadiq - Lets Take A Walk
07. Solange - 6 OClock Blues
08. Mos Def - Nadine
09. Mary Mary - The Sound
10. Little Walter - Last Night
11. Beyonce - Id Rather Go Blind
12. Columbus Short - My Babe
13. Nas Feat. Olu Dara - Bridging The Gap


CD 2:
01. Mos Def - Maybellene
02. Buddy Guy - Forty Days & Forty Nights
03. Beyonce - Trust In Me
04. Soul 7 Feat. Kim Wilson - Juke
05. Eamonn Walker - Smokestack Lightnin
06. Mos Def - Promised Land
07. Beyonce - All I Could Do Is Cry
08. Elvis Presley - My Babe
09. Jefferey Wright - I Cant Be Satisfied
10. Mos Def - Come On
11. Jefferey Wright & Bill Simms Jr. - Country Blues
12. Q-Tip Feat. Al Kapone - Evolution Of A Man
13. Terrence Blanchard - Radio Station
CD 1:Exact Audio Copy V0.99 prebeta 5 from 4. May 2009

EAC extraction logfile from 2. July 2009, 4:36

Various / Cadillac Records Soundtrack Disc 1

Used drive : ASUS DRW-2014L1T Adapter: 2 ID: 0

Read mode : Secure
Utilize accurate stream : Yes
Defeat audio cache : Yes
Make use of C2 pointers : No

Read offset correction : 6
Overread into Lead-In and Lead-Out : No
Fill up missing offset samples with silence : Yes
Delete leading and trailing silent blocks : No
Null samples used in CRC calculations : Yes
Used interface : Installed external ASPI interface
Gap handling : Appended to previous track

Used output format : User Defined Encoder
Selected bitrate : 768 kBit/s
Quality : High
Add ID3 tag : No
Command line compressor : C:\Program Files\FLAC\flac.exe
Additional command line options : -8 -V -T "ARTIST=%a" -T "TITLE=%t" -T "ALBUM=%g" -T "DATE=%y" -T "TRACKNUMBER=%n" -T "GENRE=%m" -T "COMMENT=EAC FLAC -8" %s

TOC of the extracted CD

Track | Start | Length | Start sector | End sector
---------------------------------------------------------
1 | 0:00.00 | 3:50.60 | 0 | 17309
2 | 3:50.60 | 3:00.53 | 17310 | 30862
3 | 6:51.38 | 2:47.03 | 30863 | 43390
4 | 9:38.41 | 3:54.07 | 43391 | 60947
5 | 13:32.48 | 3:59.40 | 60948 | 78912
6 | 17:32.13 | 2:28.70 | 78913 | 90082
7 | 20:01.08 | 3:37.32 | 90083 | 106389
8 | 23:38.40 | 2:50.38 | 106390 | 119177
9 | 26:29.03 | 3:29.70 | 119178 | 134922
10 | 29:58.73 | 2:53.00 | 134923 | 147897
11 | 32:51.73 | 3:10.06 | 147898 | 162153
12 | 36:02.04 | 2:57.70 | 162154 | 175498
13 | 38:59.74 | 4:00.40 | 175499 | 193538

Track 1

Filename C:\Новая папка\Cadillac Records\CD-1\01 – Jeffrey Wright – I'm A Man.wav

Pre-gap length 0:00:02.00

Peak level 99.8 %
Track quality 100.0 %
Test CRC CF340B20
Copy CRC CF340B20
Copy OK

Track 2

Filename C:\Новая папка\Cadillac Records\CD-1\02 – Beyoncй – At Last.wav

Peak level 99.3 %
Track quality 100.0 %
Test CRC 4C60B1DC
Copy CRC 4C60B1DC
Copy OK

Track 3

Filename C:\Новая папка\Cadillac Records\CD-1\03 – Mos Def – No Particular Place To Go.wav

Pre-gap length 0:03:00.70

Peak level 99.8 %
Track quality 99.9 %
Test CRC 676A57F2
Copy CRC 676A57F2
Copy OK

Track 4

Filename C:\Новая папка\Cadillac Records\CD-1\04 – Jeffrey Wright – I'm Your Hoochie Coochie Man.wav

Pre-gap length 0:05:47.74

Peak level 99.8 %
Track quality 99.9 %
Test CRC 712126C3
Copy CRC 712126C3
Copy OK

Track 5

Filename C:\Новая папка\Cadillac Records\CD-1\05 – Beyoncй – Once In A Lifetime.wav

Pre-gap length 0:09:41.84

Peak level 99.8 %
Track quality 100.0 %
Test CRC 2C805A37
Copy CRC 2C805A37
Copy OK

Track 6

Filename C:\Новая папка\Cadillac Records\CD-1\06 – Raphael Saadiq – Let's Take A Walk.wav

Pre-gap length 0:13:41.37

Peak level 89.0 %
Track quality 100.0 %
Test CRC 8C7D174A
Copy CRC 8C7D174A
Copy OK

Track 7

Filename C:\Новая папка\Cadillac Records\CD-1\07 – Solange – 6 O'Clock Blues.wav

Pre-gap length 0:16:10.30

Peak level 89.0 %
Track quality 100.0 %
Test CRC 00691797
Copy CRC 00691797
Copy OK

Track 8

Filename C:\Новая папка\Cadillac Records\CD-1\08 – Mos Def – Nadine.wav

Pre-gap length 0:19:47.73

Peak level 99.8 %
Track quality 100.0 %
Test CRC 9F05EF8F
Copy CRC 9F05EF8F
Copy OK

Track 9

Filename C:\Новая папка\Cadillac Records\CD-1\09 – Mary Mary – The Sound.wav

Pre-gap length 0:22:38.24

Peak level 88.4 %
Track quality 100.0 %
Test CRC CAF84C38
Copy CRC CAF84C38
Copy OK

Track 10

Filename C:\Новая папка\Cadillac Records\CD-1\10 – Little Walter – Last Night.wav

Pre-gap length 0:26:08.17

Peak level 99.8 %
Track quality 99.9 %
Test CRC E90959F1
Copy CRC E90959F1
Copy OK

Track 11

Filename C:\Новая папка\Cadillac Records\CD-1\11 – Beyoncй – I'd Rather Go Blind.wav

Pre-gap length 0:29:01.17

Peak level 99.8 %
Track quality 100.0 %
Test CRC 5BC19A09
Copy CRC 5BC19A09
Copy OK

Track 12

Filename C:\Новая папка\Cadillac Records\CD-1\12 – Columbus Short – My Babe.wav

Pre-gap length 0:32:11.25

Peak level 99.8 %
Track quality 100.0 %
Test CRC 4EC2C064
Copy CRC 4EC2C064
Copy OK

Track 13

Filename C:\Новая папка\Cadillac Records\CD-1\13 – Nas f. Olu Dara – Bridging The Gap.wav

Pre-gap length 0:35:09.18

Peak level 84.0 %
Track quality 100.0 %
Test CRC A6857D4C
Copy CRC A6857D4C
Copy OK

No errors occurred

End of status report
CD 2:Exact Audio Copy V0.99 prebeta 5 from 4. May 2009

EAC extraction logfile from 2. July 2009, 5:58

Various / Music From The Motion Picture Cadillac Records (CD2)

Used drive : ASUS DRW-2014L1T Adapter: 2 ID: 0

Read mode : Secure
Utilize accurate stream : Yes
Defeat audio cache : Yes
Make use of C2 pointers : No

Read offset correction : 6
Overread into Lead-In and Lead-Out : No
Fill up missing offset samples with silence : Yes
Delete leading and trailing silent blocks : No
Null samples used in CRC calculations : Yes
Used interface : Installed external ASPI interface
Gap handling : Appended to previous track

Used output format : User Defined Encoder
Selected bitrate : 768 kBit/s
Quality : High
Add ID3 tag : No
Command line compressor : C:\Program Files\FLAC\flac.exe
Additional command line options : -8 -V -T "ARTIST=%a" -T "TITLE=%t" -T "ALBUM=%g" -T "DATE=%y" -T "TRACKNUMBER=%n" -T "GENRE=%m" -T "COMMENT=EAC FLAC -8" %s

TOC of the extracted CD

Track | Start | Length | Start sector | End sector
---------------------------------------------------------
1 | 0:00.00 | 2:31.02 | 0 | 11326
2 | 2:31.02 | 2:48.23 | 11327 | 23949
3 | 5:19.25 | 3:44.32 | 23950 | 40781
4 | 9:03.57 | 2:48.50 | 40782 | 53431
5 | 11:52.32 | 3:03.60 | 53432 | 67216
6 | 14:56.17 | 2:30.55 | 67217 | 78521
7 | 17:26.72 | 3:10.30 | 78522 | 92801
8 | 20:37.27 | 2:09.73 | 92802 | 102549
9 | 22:47.25 | 2:18.41 | 102550 | 112940
10 | 25:05.66 | 2:34.03 | 112941 | 124493
11 | 27:39.69 | 3:42.21 | 124494 | 141164
12 | 31:22.15 | 3:06.58 | 141165 | 155172
13 | 34:28.73 | 2:07.31 | 155173 | 164728

Track 1

Filename C:\Новая папка\Cadillac Records\CD-2\01. Mos Def – Maybellene.wav

Pre-gap length 0:00:02.00

Peak level 99.8 %
Track quality 100.0 %
Test CRC A96B1758
Copy CRC A96B1758
Copy OK

Track 2

Filename C:\Новая папка\Cadillac Records\CD-2\02. Buddy Guy – Forty Days and Forty Nights.wav

Pre-gap length 0:02:27.16

Peak level 99.8 %
Track quality 100.0 %
Test CRC 13D8B316
Copy CRC 13D8B316
Copy OK

Track 3

Filename C:\Новая папка\Cadillac Records\CD-2\03. Beyoncй – Trust In Me.wav

Pre-gap length 0:02:44.44

Peak level 99.8 %
Track quality 100.0 %
Test CRC 1BA361D3
Copy CRC 1BA361D3
Copy OK

Track 4

Filename C:\Новая папка\Cadillac Records\CD-2\04. Soul Seven feat Kim Wilson – Juke.wav

Pre-gap length 0:03:40.56

Peak level 99.8 %
Track quality 99.9 %
Test CRC D62BC67D
Copy CRC D62BC67D
Copy OK

Track 5

Filename C:\Новая папка\Cadillac Records\CD-2\05. Eamon Walker – Smokestack Lightnin'.wav

Pre-gap length 0:02:44.80

Peak level 99.8 %
Track quality 100.0 %
Test CRC 1389D5DB
Copy CRC 1389D5DB
Copy OK

Track 6

Filename C:\Новая папка\Cadillac Records\CD-2\06. Mos Def – Promised Land.wav

Pre-gap length 0:02:59.93

Peak level 99.8 %
Track quality 99.9 %
Test CRC C128CA8A
Copy CRC C128CA8A
Copy OK

Track 7

Filename C:\Новая папка\Cadillac Records\CD-2\07. Beyoncй – All I Could Do Was Cry.wav

Pre-gap length 0:02:26.86

Peak level 89.0 %
Track quality 100.0 %
Test CRC 72442CD6
Copy CRC 72442CD6
Copy OK

Track 8

Filename C:\Новая папка\Cadillac Records\CD-2\08. Elvis Presley – My Babe.wav

Pre-gap length 0:03:06.53

Peak level 99.8 %
Track quality 100.0 %
Test CRC 278FF3C0
Copy CRC 278FF3C0
Copy OK

Track 9

Filename C:\Новая папка\Cadillac Records\CD-2\09. Jeffrey Wright – I Can't Be Satisfied.wav

Pre-gap length 0:02:06.10

Peak level 99.8 %
Track quality 100.0 %
Test CRC B4EFFAF5
Copy CRC B4EFFAF5
Copy OK

Track 10

Filename C:\Новая папка\Cadillac Records\CD-2\10. Mos Def – Come On.wav

Pre-gap length 0:02:14.68

Peak level 99.8 %
Track quality 99.9 %
Test CRC 6C4268D6
Copy CRC 6C4268D6
Copy OK

Track 11

Filename C:\Новая папка\Cadillac Records\CD-2\11. Jeffrey Wright and Bill Simms Jr – Country Blues.wav

Pre-gap length 0:02:30.17

Peak level 93.2 %
Track quality 100.0 %
Test CRC 886BB4BC
Copy CRC 886BB4BC
Copy OK

Track 12

Filename C:\Новая папка\Cadillac Records\CD-2\12. Q-Tip feat Al Kapone – Evolution of A Man.wav

Pre-gap length 0:03:38.41

Peak level 99.8 %
Track quality 100.0 %
Test CRC 542AEFFA
Copy CRC 542AEFFA
Copy OK

Track 13

Filename C:\Новая папка\Cadillac Records\CD-2\13. Terence Blanchard – Radio Station.wav

Pre-gap length 0:03:02.90

Peak level 99.8 %
Track quality 100.0 %
Test CRC F33EAEE6
Copy CRC F33EAEE6
Copy OK

No errors occurred

End of status report


Трекер:  [ 08-Июл-2011 12:13 ]

  

Скачать .torrent

Размер .torrent файла 22 KB


Размер: 487 MB
Хэш (hash) релиза: 340b2cc0b8e7337c45cd5f9b783e0ce43f1e4a8a

Торренты, похожие на Кадиллак Рекордс Cadillac Records скачать торрент

Форум Название Автор Размер S L Добавлен
Саундтреки к фильмам и мультфильмам (mp3) ·· (Soundtrack) Cadillac Records (2CD Deluxe Edition) / Кадиллак Рекордс (2-х дисковое издание) - 2008, MP3 (tracks), 320 kbps Galfimbul 192789362184 MB 0 0 1292265905

21:45

13-Дек-10

Еще никто не оставлял запись к записи скачать торрент Кадиллак Рекордс Cadillac Records . Будь первым!

!Обратная связь